osu file format v5

[General]
AudioFilename: PS23OP.mp3
AudioLeadIn: 2746
PreviewTime: -1
Countdown: 0
SampleSet: Soft
StackLeniency: 0.7
Mode: 0
LetterboxInBreaks: 1
EditorDistanceSpacing: 0.800000011920929

[Metadata]
Title:Unmei No Hito
Artist:Fujita Maiko
Creator:winwin3030
Version:Hard
Source:Hiiro No Kakera 3
Tags:nico video

[Difficulty]
HPDrainRate:6
CircleSize:5
OverallDifficulty:6
SliderMultiplier:2.3
SliderTickRate:2

[Events]
//Background and Video events
0,0,"hironokakera.jpg"
//Break Periods
//Storyboard Layer 0 (Background)
//Storyboard Layer 1 (Failing)
//Storyboard Layer 2 (Passing)
//Storyboard Layer 3 (Foreground)
//Storyboard Sound Samples
//Background Colour Transformations
3,100,163,162,255

[TimingPoints]
430,600,4,2,0,91,1,0
5830,-100,4,2,0,71,0,0
6430,-100,4,2,0,91,0,0
7030,-100,4,2,0,69,0,0
7630,-100,4,2,0,89,0,0
26230,-100,4,2,0,90,0,0
27730,-100,4,2,0,62,0,0
28030,-100,4,2,0,89,0,0
32530,-100,4,2,0,51,0,0
32830,-100,4,2,0,90,0,0
47830,-100,4,2,0,91,0,0
52480,-100,4,2,0,89,0,1
61030,-100,4,2,0,89,0,0
69430,-100,4,2,1,63,0,0
69730,-100,4,2,0,89,0,0

[Colours]
Combo1 : 0,94,187
Combo2 : 70,201,251
Combo3 : 0,0,96
Combo4 : 94,228,20
Combo5 : 255,255,102

[HitObjects]
32,96,430,5,0
96,128,730,1,0
160,96,1030,1,0
224,64,1330,1,2
352,128,1930,1,2
352,128,2080,1,2
352,128,2230,1,0
416,256,2830,1,0
352,288,3130,1,0
288,256,3430,1,0
224,224,3730,1,0
112,152,4330,1,0
112,152,4480,1,0
112,152,4630,1,2
224,96,5230,2,2,B|288:96|384:160|384:256,1,230
382,237,6130,1,0
336,280,6430,2,2,B|216:280|184:224|232:136,1,230
228,142,7330,1,0
280,184,7630,2,0,B|328:232|280:296,1,115
232,256,8230,2,0,B|184:200|232:144,2,115
256,192,8905,12,0,9430
128,64,10630,5,0
192,64,10930,1,0
256,64,11230,1,0
320,64,11530,1,0
384,64,11830,1,0
384,192,12430,1,0
320,192,12730,1,0
256,192,13030,1,0
192,192,13330,1,0
192,192,13480,1,0
192,288,13930,1,0
256,288,14230,1,0
320,288,14530,1,2
320,288,14680,1,2
320,288,14830,1,0
368,240,15130,6,0,B|400:160|368:112,1,115
320,109,15730,1,0
256,88,16030,2,0,B|192:88|192:176,1,115
248,192,16630,2,2,B|248:264|176:264,1,115
128,224,17230,1,0
128,224,17530,1,0
72,184,17830,2,2,B|72:112|144:112,1,115
192,152,18430,2,0,B|256:152|256:232,1,115
200,256,19030,1,2
255,229,19330,1,0
312,256,19630,1,0
360,208,19930,5,0
424,208,20230,1,0
488,208,20530,1,2
488,208,20680,1,2
488,208,20830,1,2
456,152,21130,1,0
392,152,21430,1,0
328,152,21730,1,2
328,152,21880,1,2
328,152,22030,1,2
280,104,22330,6,0,B|152:104,2,115
248,160,23230,2,0,B|120:160,1,115
104,216,23830,2,0,B|224:216,1,115
280,240,24430,5,0
344,256,24730,1,0
408,240,25030,1,0
448,192,25330,1,0
448,128,25630,2,0,B|328:128,1,115
272,152,26230,2,0,B|272:272,1,115
272,336,26830,2,0,B|88:336|48:208|120:120,1,345
176,112,28030,2,0,B|296:112|368:224,1,230
328,272,28930,5,2
264,288,29230,1,0
200,280,29530,1,0
144,248,29830,1,0
112,192,30130,1,0
120,128,30430,2,0,B|248:128,1,115
296,144,31030,2,0,B|296:272,1,115
296,320,31630,2,2,B|400:320|464:184|360:88|296:72,1,345
240,72,32830,2,0,B|104:72|104:224,1,230
128,280,33730,1,0
184,312,34030,1,0
240,280,34330,6,0,B|296:328|352:264,2,115
288,240,35230,2,0,B|288:168,2,57.5
288,182,35830,2,0,B|352:184|344:88,1,115
328,48,36430,5,2
264,48,36730,1,2
224,96,37030,1,0
240,160,37330,1,2
304,184,37630,1,0
360,160,37930,1,2
376,96,38230,1,2
328,48,38530,1,0
200,48,39130,5,2
152,96,39430,1,2
152,96,39730,1,0
200,136,40030,1,2
168,192,40330,1,2
168,192,40630,1,0
200,248,40930,1,0
160,296,41230,2,0,B|96:280|48:232,1,115
59,242,41830,1,0
56,176,42130,2,0,B|144:88|272:128|336:160|392:120,1,345
424,72,43330,1,2
376,24,43630,2,2,B|312:24|288:88,1,115
256,144,44230,2,0,B|256:272,1,115
208,296,44830,2,0,B|144:296|80:240,1,115
48,224,45430,1,2
72,168,45730,2,0,B|224:40|400:40|440:144|328:224,1,460
337,216,47230,1,0
216,288,47830,6,0,B|112:216,1,115
152,168,48430,2,0,B|256:240,1,115
304,264,49030,2,0,B|456:312|480:152,1,230
416,64,50230,1,0
360,96,50530,1,0
296,72,50830,1,2
200,152,51130,1,0
304,232,51430,1,2
248,120,51730,1,2
152,200,52030,1,0
72,144,52480,6,0,B|104:88,5,57.5
152,48,53530,1,2
152,48,53680,1,2
192,104,53980,1,0
192,104,54130,1,0
256,96,54430,1,2
304,136,54730,1,2
304,136,54880,1,2
312,200,55180,1,0
312,200,55330,1,0
264,248,55630,1,2
216,200,55930,1,0
216,200,56080,1,0
168,120,56530,2,0,B|112:152,2,57.5
288,72,57430,1,0
257,72,57580,1,0
224,72,57730,1,0
256,128,58030,2,2,B|384:128,1,115
432,128,58630,1,2
256,128,59230,2,0,B|256:256,1,115
256,304,59830,1,0
256,128,60430,2,2,B|128:128,1,115
80,128,61030,1,2
448,128,62080,6,0,B|448:200,5,57.5
392,216,63130,1,0
392,216,63280,1,0
336,248,63580,1,0
336,248,63730,1,0
280,216,64030,1,2
224,248,64330,1,0
224,248,64480,1,0
128,248,64930,1,0
72,224,65230,1,2
104,168,65530,1,0
104,168,65680,1,2
56,120,66130,1,0
56,120,66280,1,0
56,120,66430,1,2
384,96,67030,5,0
480,192,67330,1,2
384,288,67630,1,0
128,96,68230,1,0
32,192,68530,1,2
128,288,68830,1,0
256,136,69430,2,0,B|256:256,1,115
256,251,70030,1,0
256,192,70180,12,0,71230
280,88,71680,6,0,B|224:136,5,57.5
192,168,72730,1,0
192,168,72880,1,0
112,120,73330,1,0
64,160,73630,1,2
64,224,73930,1,0
64,224,74080,1,0
150,256,74530,1,0
210,223,74830,1,2
270,252,75130,1,0
303,236,75280,1,2
384,280,75730,1,0
432,240,76030,1,2
432,112,76630,5,2
400,128,76780,1,2
368,144,76930,1,0
336,160,77080,1,0
304,176,77230,1,0
136,80,77830,1,2
232,248,78430,1,0
400,168,79030,1,2
256,192,79630,12,0,80830
256,192,81280,5,0
224,168,81430,1,0
256,152,81580,1,0
288,168,81730,1,0
344,216,82030,6,2,B|301:346|156:329,1,230
166,329,82930,1,0
160,264,83230,2,2,B|160:120|288:96,1,230
284,96,84130,1,0
344,120,84430,2,0,B|344:208|432:208,1,115
464,224,85030,2,2,B|464:304|376:304,1,115
352,256,85630,2,0,B|280:256|264:328,1,115
266,318,86230,1,0
152,256,86830,5,0
152,192,87130,1,0
152,192,87280,1,0
200,152,87580,1,0
200,152,87730,1,0
264,168,88030,2,0,B|344:208|312:320|248:328|192:312,1,230
160,272,88930,1,0
208,232,89230,1,0
256,192,89305,12,0,90430
256,192,91330,5,2
256,192,91480,1,2
416,312,92230,1,0
472,280,92530,1,2
160,128,94030,1,0
64,320,94930,1,0
64,320,95080,1,0
384,160,96430,1,0
192,64,97330,1,2
352,384,98830,1,0
448,192,99730,1,0
448,192,99880,1,0
202,190,100930,5,2
256,224,101230,1,0
280,208,101380,1,0
310,191,101530,1,0
256,160,101830,1,0
203,192,102130,1,2
203,192,102280,1,2
