osu file format v11

[General]
AudioFilename: Fujita Maiko - Takanaru (TV Size).mp3
AudioLeadIn: 1504
PreviewTime: 54887
Countdown: 0
SampleSet: None
StackLeniency: 0.7
Mode: 0
LetterboxInBreaks: 0

[Editor]
DistanceSpacing: 1.1
BeatDivisor: 4
GridSize: 4

[Metadata]
Title:Takanaru (TV Size)
TitleUnicode:Takanaru (TV Size)
Artist:Fujita Maiko
ArtistUnicode:Fujita Maiko
Creator:GiNa
Version:TuNormal
Source:Hiiro no Kakera: Dai Ni Sho
Tags:opening Hisui no Shizuku
BeatmapID:205317
BeatmapSetID:69015

[Difficulty]
HPDrainRate:4
CircleSize:4
OverallDifficulty:4
ApproachRate:5
SliderMultiplier:1.4
SliderTickRate:1

[Events]
//Background and Video events
Video,0,"Fujita Maiko - Takanaru (TV Size).avi"
0,0,"BG.jpg"
//Break Periods
//Storyboard Layer 0 (Background)
//Storyboard Layer 1 (Fail)
//Storyboard Layer 2 (Pass)
//Storyboard Layer 3 (Foreground)
//Storyboard Sound Samples
//Background Colour Transformations
3,100,163,162,255

[TimingPoints]
-613,500,4,2,1,60,1,0
9387,-100,4,2,1,40,0,0
9512,-100,4,2,1,60,0,0
11387,-100,4,2,1,40,0,0
11512,-100,4,2,1,60,0,0
13387,-100,4,2,1,40,0,0
13637,-100,4,2,1,60,0,0
17387,-100,4,3,1,60,0,0
32387,-100,4,2,2,60,0,0
32637,-100,4,3,1,60,0,0
36387,-100,4,2,2,60,0,0
37137,-100,4,3,1,60,0,0
40637,-100,4,2,2,60,0,0
41387,-100,4,3,1,60,0,0
44887,-100,4,2,2,60,0,0
45012,-100,4,3,1,60,0,0
48887,-100,4,2,2,60,0,0
49137,-100,4,3,1,60,0,0
53512,-100,4,3,1,30,0,0
55137,-100,4,3,1,60,0,0
55387,-100,4,2,0,70,0,1
55418,-100,4,2,1,60,0,1
62887,-100,4,2,1,50,0,1
63137,-100,4,2,1,60,0,1
70887,-100,4,2,1,60,0,0
71387,-100,4,2,0,70,0,1
71418,-100,4,2,1,60,0,1
85387,-100,4,2,1,40,0,0
86637,-100,4,2,1,10,0,0

[Colours]
Combo1 : 0,91,91
Combo2 : 128,0,0
Combo3 : 157,157,157
Combo4 : 48,0,147

[HitObjects]
140,88,637,2,0,P|56:116,2,70
172,156,1387,6,0,P|176:232|256:272,1,140
296,296,2137,1,0,0:0:0
372,316,2387,2,0,P|380:256|312:184,1,140
264,164,3137,1,0,0:0:0
152,60,3637,5,0,0:0:0
116,128,3887,1,0,0:0:0
112,204,4137,1,0,0:0:0
140,276,4387,2,0,P|184:332|272:336,1,140
292,280,5137,1,0,0:0:0
336,216,5387,6,0,P|320:148|380:80,2,140
452,316,6887,1,0,0:0:0
380,340,7137,6,0,P|328:308|236:344,1,140
180,340,7887,2,0,P|144:332|108:304,1,70
116,236,8387,2,0,P|104:184|76:160,2,70
40,232,9137,1,0,0:0:0
8,164,9387,6,0,P|16:92|68:48,1,140
216,80,10387,1,0,0:0:0
360,140,10887,1,0,0:0:0
400,208,11137,6,0,P|352:256|272:248,1,140
228,204,11887,2,0,P|160:184|88:212,2,140
256,192,13387,12,0,16387,0:0:0
256,120,17387,6,0,P|320:120|384:48,1,140
440,116,18137,2,0,P|472:176|448:256,1,140
388,280,18887,1,0,0:0:0
244,340,19387,6,0,P|248:272|308:224,1,140
308,152,20137,2,0,P|292:80|208:48,1,140
160,52,20887,2,0,P|64:56,1,70
64,208,21637,6,0,P|148:204,1,70
208,228,22137,2,0,P|228:296|300:332,1,140
360,332,22887,1,0,0:0:0
432,304,23137,6,0,P|432:228|380:168,1,140
328,140,23887,2,0,P|272:112|248:32,1,140
100,88,24887,1,0,0:0:0
80,240,25387,6,0,P|136:208|216:240,1,140
252,288,26137,2,0,P|308:312|388:268,1,140
416,216,26887,1,0,0:0:0
400,64,27387,6,0,P|344:32|260:32,1,140
232,96,28137,2,0,P|196:132|104:132,1,140
56,188,28887,2,0,P|8:256,1,70
40,316,29387,6,0,P|112:300|168:344,1,140
236,360,30137,1,0,0:0:0
384,320,30637,1,0,0:0:0
384,320,30887,1,0,0:0:0
472,196,31387,6,0,P|444:140|348:128,1,140
300,144,32137,1,0,0:0:0
208,268,32637,1,0,0:0:0
136,248,32887,1,0,0:0:0
96,184,33137,1,0,0:0:0
196,68,33637,6,0,P|240:56|264:28,2,70
160,136,34387,2,0,P|128:112|76:108,2,70
192,204,35137,6,0,P|224:260|320:280,1,140
364,256,35887,2,0,P|388:196|472:180,2,140
256,364,37387,6,0,P|192:344|148:288,1,140
88,240,38137,2,0,P|68:148|16:112,1,140
28,44,38887,1,0,0:0:0
164,112,39387,6,0,P|220:136|304:116,1,140
364,84,40137,2,0,P|420:48|496:64,1,140
488,136,40887,2,0,P|448:220,1,70
448,276,41387,6,0,P|412:324|336:336,1,140
260,332,42137,2,0,P|236:260|160:204,1,140
112,84,43137,5,0,0:0:0
112,84,43387,2,0,P|192:104|264:68,1,140
300,32,44137,1,0,0:0:0
428,116,44637,1,0,0:0:0
444,192,44887,1,0,0:0:0
420,264,45137,1,0,0:0:0
364,316,45387,6,0,P|292:348|208:336,1,140
160,316,46137,1,0,0:0:0
116,252,46387,2,0,P|104:156|48:116,1,140
8,168,47137,6,0,P|84:36,1,140
156,56,47887,2,0,P|196:124|256:136,2,140
308,32,49387,6,0,P|388:48|420:112,1,140
392,168,50137,2,0,P|300:184|292:304,1,210
128,308,51387,6,0,P|84:240|16:224,1,140
28,148,52137,1,0,0:0:0
32,72,52387,2,0,P|108:80|156:128,1,140
256,192,53387,12,0,55387,0:0:0
256,192,55887,6,0,P|228:232|136:240,2,140
112,140,57387,2,0,P|148:88|240:80,1,140
284,120,58137,1,0,0:0:0
256,192,58387,2,0,P|304:240|396:244,1,140
432,108,59387,6,0,P|304:44,1,140
228,48,60137,1,0,0:0:0
152,60,60387,2,0,P|80:80|52:148,1,140
32,208,61137,6,0,P|104:216|160:168,1,140
212,124,61887,2,0,P|296:92|320:40,1,140
444,136,62887,1,0,0:0:0
392,280,63387,6,0,P|248:280,1,140
176,268,64137,1,0,0:0:0
100,256,64387,2,0,P|76:188|0:152,1,140
148,72,65387,6,0,P|196:112|296:112,1,140
344,92,66137,1,0,0:0:0
412,56,66387,2,0,P|456:108|468:180,1,140
400,316,67387,6,0,P|352:232|232:248,2,210
248,340,69387,2,0,P|28:340,2,210
208,192,71387,6,0,P|164:148|168:56,1,140
232,48,72137,1,0,0:0:0
308,44,72387,2,0,P|328:112|296:180,1,140
224,308,73387,6,0,P|168:244|36:256,1,210
28,172,74387,2,0,P|40:112|104:64,1,140
252,80,75387,1,0,0:0:0
364,188,75887,5,0,0:0:0
364,188,76137,2,0,P|384:256|456:292,1,140
472,220,76887,1,0,0:0:0
460,144,77137,6,0,P|420:76|344:56,1,140
288,60,77887,1,0,0:0:0
212,56,78137,2,0,P|168:96|64:88,1,140
20,68,78887,1,0,0:0:0
60,216,79387,6,0,P|120:256|136:320,1,140
212,340,80137,1,0,0:0:0
288,320,80387,2,0,P|308:240|268:172,1,140
432,140,81387,2,0,P|404:56|288:24,2,210
280,172,83387,6,0,P|216:180|148:136,1,140
92,96,84137,2,0,P|116:172|80:236,1,140
36,276,84887,1,0,0:0:0
184,320,85387,1,0,0:0:0
256,192,85512,12,0,88887,0:0:0
