osu file format v11

[General]
AudioFilename: Fujita Maiko - Takanaru (TV Size).mp3
AudioLeadIn: 1504
PreviewTime: 54887
Countdown: 0
SampleSet: Soft
StackLeniency: 0.7
Mode: 0
LetterboxInBreaks: 0

[Editor]
DistanceSpacing: 1
BeatDivisor: 4
GridSize: 4

[Metadata]
Title:Takanaru (TV Size)
TitleUnicode:Takanaru (TV Size)
Artist:Fujita Maiko
ArtistUnicode:Fujita Maiko
Creator:GiNa
Version:Hard
Source:Hiiro no Kakera: Dai Ni Sho
Tags:opening Hisui no Shizuku
BeatmapID:199849
BeatmapSetID:69015

[Difficulty]
HPDrainRate:6
CircleSize:4
OverallDifficulty:6
ApproachRate:7
SliderMultiplier:1.7
SliderTickRate:1

[Events]
//Background and Video events
Video,0,"Fujita Maiko - Takanaru (TV Size).avi"
0,0,"BG.jpg"
//Break Periods
//Storyboard Layer 0 (Background)
//Storyboard Layer 1 (Fail)
//Storyboard Layer 2 (Pass)
//Storyboard Layer 3 (Foreground)
//Storyboard Sound Samples
//Background Colour Transformations
3,100,163,162,255

[TimingPoints]
-613,500,4,2,1,60,1,0
9387,-100,4,2,1,40,0,0
9512,-100,4,2,1,60,0,0
11387,-100,4,2,1,40,0,0
11512,-100,4,2,1,60,0,0
13387,-100,4,2,1,40,0,0
13637,-100,4,2,1,60,0,0
17387,-100,4,3,1,60,0,0
32387,-100,4,2,2,60,0,0
32637,-100,4,3,1,60,0,0
36387,-100,4,2,2,60,0,0
37137,-100,4,3,1,60,0,0
40637,-100,4,2,2,60,0,0
41387,-100,4,3,1,60,0,0
44887,-100,4,2,2,60,0,0
45012,-100,4,3,1,60,0,0
48887,-100,4,2,2,60,0,0
49137,-100,4,3,1,60,0,0
53512,-100,4,3,1,30,0,0
55137,-100,4,3,1,60,0,0
55387,-100,4,2,0,70,0,1
55418,-100,4,2,1,60,0,1
62887,-100,4,2,1,50,0,1
63137,-100,4,2,1,60,0,1
70887,-100,4,2,1,60,0,0
71387,-100,4,2,0,70,0,1
71418,-100,4,2,1,60,0,1
85387,-100,4,2,1,40,0,0
86637,-100,4,2,1,10,0,0

[Colours]
Combo1 : 0,91,91
Combo2 : 128,0,0
Combo3 : 157,157,157
Combo4 : 48,0,147

[HitObjects]
116,88,637,1,0,0:0:0
120,112,887,1,2,0:0:0
132,136,1137,1,0,0:0:0
152,152,1387,2,0,P|228:168|276:244,2,170,2|0|0,0:0|0:0|3:0,0:0:0
472,36,3387,6,0,P|396:52|348:125,1,170
348,125,4387,1,2,0:0:0
184,172,4887,1,0,0:0:0
232,240,5137,1,0,0:0:0
232,240,5262,1,0,0:0:0
232,240,5387,6,0,P|288:296|376:284,2,170,2|0|0,0:0|0:0|3:0,0:0:0
256,72,6887,1,2,0:0:0
256,72,7387,1,2,0:0:0
96,228,8637,2,0,P|132:304,2,85,0|2|0,0:0|0:0|0:0,0:0:0
144,156,9387,6,0,P|184:208|252:224,2,127.5,0|0|0,1:0|0:0|0:0,0:0:0
180,80,10387,1,0,3:0:0
244,136,10637,2,0,P|296:68,1,85
412,192,11387,6,0,P|376:332|256:240,2,340,0|2|0,1:0|0:0|1:0,0:0:0
340,240,13637,1,0,0:0:0
340,240,13887,1,0,0:0:0
255,250,14137,1,0,0:0:0
255,250,14387,1,0,3:0:0
64,80,15137,6,0,P|12:64,2,42.5,0|0|2,0:0|0:0|0:0,0:0:0
400,80,16387,2,0,P|452:64,6,42.5,2|0|0|0|2|0|0,0:0|0:0|0:0|0:0|0:0|0:0|0:0,0:0:0
336,136,17387,6,0,P|288:176|288:176|224:192,2,127.5
376,212,18387,2,0,P|348:240|348:240|348:288,1,85
180,320,19137,1,0,0:0:0
144,300,19262,1,0,0:0:0
116,268,19387,6,0,P|80:216|68:152,2,127.5
240,152,20637,1,0,0:0:0
240,152,20887,1,0,0:0:0
308,100,21137,2,0,P|344:80|392:88,1,85
374,246,21637,2,0,P|354:210|360:168,1,85,0|0,0:0|0:0,0:0:0
440,196,22137,1,0,0:0:0
408,337,22387,2,0,P|445:317|464:280,1,85,0|0,0:0|0:0,0:0:0
440,196,22887,2,0,P|440:152|466:120,1,85,0|0,0:0|0:0,0:0:0
416,52,23387,5,0,0:0:0
364,120,23637,2,0,P|348:160,2,42.5
148,264,24387,2,0,P|164:224,2,42.5,0|0|0,0:0|0:0|0:0,0:0:0
132,304,24762,1,0,0:0:0
116,344,24887,1,0,0:0:0
200,332,25137,2,0,P|216:288,1,42.5
232,252,25387,6,0,P|276:244|316:220,1,85
344,196,25762,2,0,P|404:208|456:256,1,127.5,0|0,0:0|0:0,0:0:0
372,284,26387,2,0,P|356:326|357:372,1,85,0|0,0:0|0:0,0:0:0
344,196,27137,1,0,0:0:0
344,196,27262,1,0,0:0:0
344,196,27387,2,0,P|336:128|304:80,1,127.5
264,60,27887,2,0,P|224:60|188:92,2,85
256,144,28637,6,0,P|256:188,5,42.5,2|0|2|0|2|0,2:0|0:0|2:0|0:0|2:0|0:0,0:0:0
256,228,29387,1,2,2:0:0
164,316,29762,1,0,0:0:0
128,192,30137,1,0,0:0:0
148,108,30387,1,0,0:0:0
208,48,30637,1,0,0:0:0
376,84,31137,1,0,0:0:0
376,84,31262,1,0,0:0:0
376,84,31387,6,0,P|408:112|408:112|432:148,1,85
444,188,31762,2,0,P|444:316,1,127.5
360,336,32387,1,8,0:0:0
360,336,32637,1,0,0:0:0
360,336,32887,6,0,P|296:284|208:296,1,170
196,376,33637,1,0,0:0:0
196,376,33887,2,0,P|204:293|152:229,1,170
136,316,34637,1,0,0:0:0
136,316,34887,2,0,P|218:324|282:272,1,170
324,200,35637,1,0,0:0:0
324,200,35887,2,0,P|364:200|400:228,1,85
456,164,36387,1,8,0:0:0
164,100,37137,6,0,P|204:84,2,42.5
84,128,37637,1,0,0:0:0
68,172,37762,2,0,P|120:208|184:216,1,127.5
256,176,38387,1,0,0:0:0
260,260,38637,1,0,0:0:0
96,304,39137,2,0,P|76:308|52:308,1,42.5
20,280,39387,6,0,P|28:216|4:160,2,127.5
20,280,40262,1,0,0:0:0
20,280,40387,1,0,0:0:0
48,360,40637,2,0,P|88:376,3,42.5,8|0|8|0,0:0|0:0|0:0|0:0,0:0:0
128,368,41137,1,8,0:0:0
164,348,41262,1,0,0:0:0
196,320,41387,6,0,P|232:244|312:208,1,170,4|0,2:0|0:0,0:0:0
384,176,42137,1,0,0:0:0
376,260,42387,2,0,P|340:336|260:372,1,170
220,300,43137,1,0,0:0:0
265,371,43387,1,2,2:0:0
436,76,44387,1,0,0:0:0
436,76,44512,1,0,0:0:0
436,76,44637,2,0,P|416:124,2,42.5,0|0|8,0:0|0:0|0:0,0:0:0
400,56,45012,2,0,P|356:32,2,42.5
436,76,45387,5,4,2:0:0
368,128,45637,1,0,0:0:0
448,152,45887,2,0,P|392:212|312:192,1,170
256,128,46637,1,0,0:0:0
294,331,46887,2,0,P|256:332|224:300,2,85,0|4|0,0:0|2:0|0:0,0:0:0
296,248,47637,1,0,0:0:0
448,152,47887,1,0,0:0:0
364,172,48137,2,0,P|400:224|460:236,2,127.5,0|0|8,0:0|0:0|0:0,0:0:0
324,96,49137,5,0,0:0:0
280,96,49262,1,0,0:0:0
236,96,49387,2,0,P|152:96,1,85,4|0,2:0|0:0,0:0:0
116,72,49762,2,0,P|88:156,1,85
60,232,50262,2,0,P|96:256|96:256|140:264,2,85
28,256,50887,1,0,0:0:0
196,192,51387,5,0,0:0:0
248,28,51637,2,0,P|252:70|264:110,1,85
328,54,52137,1,0,0:0:0
328,54,52387,2,0,P|356:130|408:202,1,170
324,220,53137,1,0,0:0:0
324,220,53262,1,0,0:0:0
324,220,53387,2,0,P|137:270|318:318,1,510,4|2,2:0|2:0,0:0:0
236,264,55137,1,0,0:0:0
236,264,55387,5,4,0:0:0
324,220,55637,1,0,0:0:0
380,156,55887,2,0,P|352:76,1,85,8|0,0:0|0:0,0:0:0
296,140,56387,2,0,P|268:60,1,85,0|0,3:0|0:0,0:0:0
184,76,56887,1,8,0:0:0
100,88,57137,1,0,0:0:0
76,124,57262,1,0,0:0:0
64,164,57387,6,0,P|72:208|96:244,2,85,0|0|8,3:0|0:0|0:0,0:0:0
148,176,58137,1,0,0:0:0
148,176,58387,2,0,P|224:200|284:144,2,170,0|8|0,0:0|0:0|0:0,0:0:0
204,112,59637,1,0,0:0:0
204,112,59887,1,8,0:0:0
272,64,60137,6,0,P|336:4,1,85,0|0,0:0|3:0,0:0:0
474,48,60637,2,0,P|392:68,1,85,0|8,0:0|0:0,0:0:0
420,148,61137,1,0,0:0:0
420,148,61387,2,0,P|420:236,2,85,0|0|8,0:0|0:0|0:0,0:0:0
348,192,62137,2,0,P|304:192,1,42.5,8|0,0:0|0:0,0:0:0
264,264,62512,2,0,P|308:264,1,42.5,0|8,0:0|0:0,0:0:0
392,264,62887,1,4,0:0:0
436,192,63137,5,0,0:0:0
436,192,63262,1,0,0:0:0
436,192,63387,2,0,P|400:112|324:112,2,170,4|8|0,0:0|0:0|3:0,0:0:0
392,264,64637,1,0,0:0:0
312,296,64887,1,8,0:0:0
232,264,65137,1,0,0:0:0
232,264,65262,1,0,0:0:0
232,264,65387,2,0,P|268:184|344:184,2,170,4|8|0,0:0|0:0|3:0,0:0:0
312,296,66637,6,0,P|396:288,1,85,0|8,0:0|0:0,0:0:0
341,183,67137,2,0,P|376:156,1,42.5
408,132,67387,2,0,P|440:160|460:200,2,85,4|0|8,0:0|0:0|0:0,0:0:0
280,30,68137,2,0,P|300:68|332:96,2,85,0|0|0,0:0|3:0|0:0,0:0:0
200,60,68887,1,8,0:0:0
120,88,69137,2,0,P|76:104,2,42.5,0|0|4,0:0|0:0|0:0,0:0:0
184,144,69637,2,0,P|208:180|248:204,2,85,0|12|0,0:0|0:0|0:0,0:0:0
326,182,70387,2,0,P|304:148|268:124,2,85,4|0|8,0:0|0:0|0:0,0:0:0
368,348,71137,5,0,0:0:0
326,182,71387,1,4,0:0:0
284,256,71637,2,0,P|284:300,2,42.5,0|0|8,0:0|0:0|0:0,0:0:0
200,213,72137,2,0,P|200:256,2,42.5,0|0|0,0:0|0:0|3:0,0:0:0
128,172,72637,2,0,P|128:88,2,85,0|8|0,0:0|0:0|0:0,0:0:0
128,216,73262,1,0,0:0:0
128,260,73387,6,0,P|120:304|96:344,1,85,0|0,3:0|0:0,0:0:0
188,336,73887,1,8,0:0:0
252,276,74137,2,0,P|271:241|279:197,2,85
332,300,74887,1,8,0:0:0
332,300,75137,1,0,0:0:0
332,300,75387,6,0,P|376:228|456:200,1,170,0|8,3:0|0:0,0:0:0
408,128,76137,2,0,P|388:92|344:68,2,85,0|0|0,0:0|3:0|0:0,0:0:0
267,210,76887,2,0,P|304:188|324:152,2,85,8|0|0,0:0|0:0|0:0,0:0:0
183,69,77637,2,0,P|220:92|240:128,2,85,0|8|0,0:0|0:0|0:0,0:0:0
156,152,78387,2,0,P|112:224|34:251,1,170,0|8,3:0|0:0,0:0:0
84,324,79137,1,0,0:0:0
84,324,79262,1,0,0:0:0
84,324,79387,6,0,P|168:316,1,85,4|0,0:0|0:0,0:0:0
296,236,79887,2,0,P|212:244,1,85,8|0,0:0|0:0,0:0:0
152,92,80387,2,0,P|160:176,1,85,0|0,3:0|0:0,0:0:0
296,236,80887,1,8,0:0:0
384,92,81137,1,0,0:0:0
332,160,81387,6,0,P|304:128|256:120,1,85,4|0,0:0|0:0,0:0:0
396,212,81887,2,0,P|424:244|472:252,1,85,8|0,0:0|0:0,0:0:0
296,236,82387,2,0,P|268:268|220:276,1,85,0|0,3:0|0:0,0:0:0
356,296,82887,1,8,0:0:0
356,296,83137,2,0,P|392:320,2,42.5,0|0|4,0:0|0:0|0:0,0:0:0
256,192,83512,12,0,86637,0:0:0
