osu file format v9

[General]
AudioFilename: Fujita Maiko - Nee (TV Size).mp3
AudioLeadIn: 1500
PreviewTime: 52906
Countdown: 0
SampleSet: Soft
StackLeniency: 0.7
Mode: 0
LetterboxInBreaks: 0

[Editor]
DistanceSpacing: 1.2
BeatDivisor: 8
GridSize: 4

[Metadata]
Title:Nee (TV Size)
Artist:Fujita Maiko
Creator:GiNa
Version:TuInsane
Source:Hiiro no Kakera
Tags:opening Hisui no Shizuku tutuhaha LunarSakuya

[Difficulty]
HPDrainRate:7
CircleSize:5
OverallDifficulty:7
ApproachRate:8
SliderMultiplier:2.2
SliderTickRate:2

[Events]
//Background and Video events
0,0,"BG.jpg"
Video,0,"Fujita Maiko - Nee (TV Size).flv"
//Break Periods
//Storyboard Layer 0 (Background)
//Storyboard Layer 1 (Fail)
//Storyboard Layer 2 (Pass)
//Storyboard Layer 3 (Foreground)
//Storyboard Sound Samples
//Background Colour Transformations
3,100,163,162,255

[TimingPoints]
-908,618.556701030928,4,2,1,40,1,0
11463,-100,4,2,1,50,0,0
15793,-100,4,2,1,40,0,0
36205,-100,4,2,2,45,0,0
36360,-100,4,2,2,50,0,0
46102,-100,4,2,2,40,0,0
46256,-100,4,2,2,50,0,0
52906,-100,4,2,2,45,0,0
53524,-100,4,2,1,50,0,1
62184,-100,4,2,2,40,0,1
62803,-100,4,2,1,50,0,1
63421,-100,4,2,0,50,0,1
63731,-100,4,2,1,50,0,1
73318,-100,4,2,0,40,0,1
73473,-100,4,2,1,40,0,1
78267,-100,4,2,1,40,0,1
81978,-100,4,1,1,30,0,1
82597,-100,4,1,1,40,0,1
83215,-100,4,2,0,50,0,0
83293,-100,4,2,1,10,0,0
85689,-100,4,2,0,40,0,0

[Colours]
Combo1 : 0,91,91
Combo2 : 128,0,0
Combo3 : 157,157,157
Combo4 : 48,0,147

[HitObjects]
76,76,947,2,0,B|116:120|192:124,1,110
80,216,1565,2,0,B|144:200|200:224,1,110,4|0
212,280,2029,2,0,B|212:184|328:148,1,165
320,288,2803,2,0,B|296:348|236:360,1,110,2|0
176,344,3267,2,0,B|88:360|36:280,1,165
112,92,4040,5,2
196,192,4349,1,0
260,176,4504,1,0
320,144,4658,2,0,B|368:104|376:44,1,110
316,24,5122,1,0
252,48,5277,2,0,B|180:48,2,55,2|0|0
256,192,5895,1,2
256,192,6205,5,0
220,248,6359,1,0
180,300,6514,2,0,B|128:284|100:216,1,110,4|0
52,268,6978,1,0
204,144,7442,1,0
204,212,7596,2,0,B|256:184|312:192,1,110
328,256,8060,2,0,B|392:220|416:156|416:156|380:124|336:132,1,220
272,152,8834,1,0
216,120,8988,6,0,B|156:84|144:36,1,110,2|0
40,120,9607,1,0
40,120,9916,1,0
52,184,10071,1,0
64,248,10225,2,0,B|124:256|168:216,1,110,2|0
212,340,10844,2,0,B|272:316|292:264,1,110
248,216,11308,1,0
212,164,11462,6,0,B|216:112|292:72,1,110,4|0
340,68,11926,1,0
400,96,12081,1,2
432,156,12236,1,0
428,220,12390,1,0
380,264,12545,1,0
316,276,12700,6,0,B|252:268|224:196,1,110
168,192,13163,1,0
76,96,13473,1,2
204,64,13782,1,0
180,124,13937,6,0,B|236:148|308:132,1,110,4|0
296,200,14401,2,0,B|360:188|400:132,1,110
480,48,15019,1,0
484,116,15174,6,0,B|488:148|476:176,1,55,2|0
488,236,15483,2,0,B|472:264|440:272,1,55
388,296,15792,1,2
388,296,16102,1,0
256,316,16411,6,0,B|196:304|168:232,1,110,4|0
112,232,16875,1,0
72,180,17029,1,2
68,116,17184,1,0
96,56,17339,1,0
148,20,17493,1,0
136,112,17648,6,0,B|196:112|228:168,1,110,2|0
256,292,18267,1,0
256,292,18421,2,0,B|332:296|380:248,1,110
304,184,18885,2,0,B|348:144|416:148,1,110,4|0
436,88,19349,5,0
384,48,19504,1,2
320,44,19658,1,0
256,64,19813,1,0
216,116,19968,1,0
220,180,20122,6,0,B|160:188|108:152,1,110,2|0
32,208,20586,2,0,B|92:212|136:268,1,110
172,308,21050,1,0
232,336,21205,1,0
296,344,21359,1,4
256,192,21669,6,0,B|284:172|304:140,1,55
328,96,21978,1,2
392,76,22133,1,0
456,84,22287,1,0
504,132,22442,1,0
416,136,22596,6,0,B|400:192|336:216,1,110,2|0
340,280,23060,2,0,B|292:256|224:280,1,110
128,196,23679,5,0
128,196,23834,2,0,B|64:176|44:112,1,110,4|0
52,60,24297,1,0
116,80,24452,2,0,B|148:80|176:60,1,55
272,89,24762,2,0,B|252:104|220:104,1,55
256,172,25071,6,0,B|324:172|372:120,1,110,2|0
332,232,25535,2,0,B|280:268|272:340,1,110
212,344,25998,1,0
212,344,26153,1,0
212,344,26308,1,4
76,252,26617,6,0,B|44:228|36:196,1,55
80,156,26926,2,0,B|72:120|88:84,1,55,2|0
124,52,27236,1,0
188,36,27390,1,0
200,136,27545,6,0,B|260:136|312:76,1,110,2|0
324,32,28009,2,0,B|372:68|432:60,2,110
368,120,28782,6,0,B|404:172|472:176,1,110,4|0
456,240,29246,1,0
412,288,29401,2,0,B|388:320|352:320,1,55,2|0
304,300,29710,2,0,B|264:312|228:304,1,55
168,252,30019,6,0,B|208:212|272:212,1,110,2|0
188,156,30483,2,0,B|140:132|76:140|76:140|64:168|72:200,1,165
92,252,31102,1,0
128,308,31256,6,0,B|164:356|240:360,1,110,4|0
280,328,31720,1,0
344,308,31875,2,0,B|376:280|384:256,1,55
444,252,32184,2,0,B|464:220|464:192,1,55
364,192,32493,6,0,B|388:140|464:116,1,110,2|0
348,104,32957,2,0,B|292:92|236:112,1,110
192,236,33576,1,0
192,236,33730,2,0,B|128:232|84:172,1,110,4|0
72,128,34194,5,0
28,176,34349,2,0,B|20:208|28:236,1,55,2|0
64,284,34658,2,0,B|76:316|108:324,1,55
160,352,34968,5,2
224,348,35122,1,0
288,328,35277,1,0
336,284,35431,1,0
364,224,35586,2,0,B|384:172|456:140,1,110
256,104,36205,5,4
132,60,36514,1,0
156,188,36823,1,0
256,104,37133,2,0,B|332:96,1,55
248,172,37442,6,0,B|308:184|344:240,1,110,8|0
316,292,37906,1,0
260,328,38060,2,0,B|256:272|212:228,1,110
36,168,38679,6,0,B|92:164|136:112,1,110,2|0
120,216,39143,2,0,B|176:192|200:132,1,110
228,84,39607,1,0
288,56,39761,1,0
356,52,39916,5,10
460,132,40225,1,0
440,196,40380,1,0
412,256,40535,1,2
284,232,40844,2,0,B|272:196|236:172,1,55
216,240,41153,6,0,B|184:296|104:312,1,110,4|0
28,224,41772,2,0,B|64:176|144:168,1,110
132,104,42236,1,0
168,48,42390,6,0,B|204:96|280:96,1,110,8|0
396,88,43009,1,0
384,220,43318,2,0,B|368:280|300:300,1,110,0|2
184,332,43937,5,0
124,308,44091,1,0
72,268,44246,2,0,B|52:240|52:204,1,55
92,164,44555,2,0,B|88:136|96:104,1,55
148,72,44864,1,8
256,148,45174,5,0
312,112,45328,1,0
364,72,45483,1,2
420,192,45792,1,0
420,192,46102,6,0,B|400:256|332:280,1,110,4|0
448,288,46566,2,0,B|408:336|328:340,1,110
288,320,47029,1,0
248,264,47184,1,0
232,200,47339,6,0,B|220:144|152:96,1,110,8|0
152,48,47803,1,0
216,60,47957,2,0,B|256:60|276:80,1,55,0|0
328,100,48267,2,0,B|344:136|384:148,1,55,0|0
412,184,48576,6,0,B|404:248|344:288,1,110,2|0
456,276,49040,2,0,B|432:328|352:348,1,110
308,320,49504,1,0
144,324,49813,6,0,B|128:268|56:236,1,110,8|0
0,176,50277,2,0,B|44:216|104:204,1,110,2|0
140,152,50741,1,0
180,100,50895,1,0
228,56,51050,6,0,B|280:24|352:32,1,110,4|0
408,96,51514,2,0,B|372:132|296:124,1,110,2|0
304,202,51978,2,0,B|276:196|260:172,1,55
196,188,52287,5,4
152,236,52442,1,0
148,300,52596,1,0
192,352,52751,1,0
256,360,52906,5,4
416,320,53215,1,2
472,164,53524,6,0,B|452:112|384:92,1,110,4|0
372,32,53988,2,0,B|344:128|252:128,1,165,2|0
196,92,54607,1,0
188,224,54761,6,0,B|240:260|244:332,1,110,8|0
184,348,55225,2,0,B|156:296|72:280,1,110,2|0
68,228,55689,1,0
64,160,55844,1,0
80,96,55998,6,0,B|112:44|168:32,1,110,8|0
176,132,56462,2,0,B|268:124|288:28,1,165,2|0
240,220,57236,2,0,B|260:208|272:176,2,55,8|0|0
324,324,57854,1,8
324,324,58163,1,0
372,280,58318,6,0,B|448:252|460:140,1,165,4|0
368,192,58937,2,0,B|416:116|376:28,1,165,2|0
296,136,59555,2,0,B|216:176|204:272,1,165,2|0
176,324,60174,2,0,B|144:316|120:288,2,55,0|8|0
244,320,60638,1,0
144,216,60947,6,0,B|144:156|176:112,2,110,4|0|8
240,124,61875,2,0,B|276:124|304:104,1,55
360,104,62184,1,8
424,124,62339,1,8
460,180,62493,1,8
460,248,62648,1,8
416,300,62803,6,0,B|396:328|364:336,1,55,8|0
276,328,63112,2,0,B|296:296|332:288,1,55,8|0
220,288,63421,6,0,B|156:288|124:340,1,110,4|0
136,236,63885,2,0,B|156:148|224:100,1,165,2|0
312,196,64658,6,0,B|376:216|436:184,1,110,8|0
340,132,65122,2,0,B|288:100|288:28,1,110,2|0
224,24,65586,2,0,B|192:24|168:48,1,55
88,96,65895,6,0,B|132:132|212:116,1,110,8|0
132,196,66359,2,0,B|216:204|284:144,1,165,2|0
398,231,67133,2,0,B|384:216|348:212,2,55,8|0|0
344,352,67751,1,8
344,352,68060,1,0
280,340,68215,6,0,B|252:264|156:236,1,165,4|0
72,284,68834,2,0,B|160:268|200:168,1,165,2|0
204,52,69452,2,0,B|112:76|84:176,1,165,2|0
24,84,70071,2,0,B|56:168|148:180,1,165,2|0
208,156,70689,1,0
272,148,70844,5,4
388,88,71153,1,0
448,204,71462,1,8
328,264,71772,2,0,B|320:292|292:308,1,55
224,328,72081,2,0,B|216:272|260:244|260:244|268:212|240:180,1,165,8|0
180,208,72700,1,4
128,168,72854,1,0
116,104,73009,1,0
152,48,73163,1,0
184,104,73318,6,0,B|252:104|300:52,1,110,4|0
416,56,73937,1,8
368,180,74246,1,0
368,180,74401,1,0
368,180,74555,2,0,B|352:236|288:276,1,110,2|0
260,316,75019,1,0
268,216,75174,6,0,B|256:180|224:168,1,55,8|0
140,120,75483,2,0,B|147:150|167:166,1,55
88,76,75792,1,2
40,200,76102,1,0
104,316,76411,5,8
228,364,76720,1,0
360,344,77029,2,0,B|428:328|448:256,1,110,2|0
412,112,77648,2,0,B|372:160|384:228,1,110,8|0
352,272,78112,1,0
300,228,78267,6,0,B|276:176|200:148,1,110,4|0
136,56,78885,1,8
136,56,79194,2,0,B|112:92|112:120,1,55
64,148,79504,2,0,B|72:212|128:248,1,110,2|0
184,352,80122,2,0,B|212:304|200:232,1,110,8|0
188,180,80586,1,0
200,116,80741,5,4
316,52,81050,1,0
424,132,81359,1,8
308,196,81669,1,0
344,252,81823,1,0
336,316,81978,2,0,B|324:344|296:356,1,55,0|0
232,344,82287,2,0,B|200:348|172:336,1,55
104,272,82596,5,0
172,268,82751,1,0
236,244,82906,1,0
276,192,83060,1,0
288,128,83215,1,4
256,192,83292,12,4,85689
