osu file format v5

[General]
AudioFilename: Mizuhuusen.mp3
AudioLeadIn: 2735
PreviewTime: -1
Countdown: 1
SampleSet: Soft
StackLeniency: 0.7
Mode: 0
LetterboxInBreaks: 1
EditorDistanceSpacing: 0.800000011920929

[Metadata]
Title:Mizuhuusen
Artist:Fujita Maiko
Creator:merimeri
Version:Special
Source:Hisui no Shizuku
Tags:Nico Video

[Difficulty]
HPDrainRate:7
CircleSize:5
OverallDifficulty:6
SliderMultiplier:1.5
SliderTickRate:1

[Events]
//Background and Video events
1,0,"hisui.avi.avi"
0,0,"suzu2.png"
//Break Periods
2,30961,34763
//Storyboard Layer 0 (Background)
//Storyboard Layer 1 (Failing)
//Storyboard Layer 2 (Passing)
//Storyboard Layer 3 (Foreground)
//Storyboard Sound Samples
//Background Colour Transformations
3,100,163,162,255

[TimingPoints]
761,315.789473684211,4,2,0,80,1,0
6326,-100,4,2,1,80,0,0
6563,-100,4,2,0,80,0,0
7589,-100,4,2,1,80,0,0
7826,-100,4,2,0,80,0,0
8853,-100,4,2,1,80,0,0
9089,-100,4,2,0,80,0,0
9603,-100,4,2,0,0,0,0
9918,-100,4,2,0,32,0,0
10234,-100,4,2,0,80,0,0
18326,-100,4,2,1,80,0,0
18563,-100,4,2,0,80,0,0
19589,-100,4,2,1,80,0,0
19826,-100,4,2,0,80,0,0
20221,-100,4,2,0,51,0,0
20853,-100,4,2,0,80,0,0
28432,-100,4,2,1,81,0,0
28668,-100,4,2,0,81,0,0
29695,-100,4,2,1,80,0,0
29932,-100,4,2,0,80,0,0
30326,-100,4,2,0,58,0,0
35695,-100,4,2,0,80,0,0
36011,-100,4,2,1,80,0,0
36247,-100,4,2,0,80,0,0
37274,-100,4,2,1,80,0,0
37511,-100,4,2,0,80,0,0
38537,-200,4,2,1,80,0,0
38813,-200,4,2,0,80,0,0
41024,-100,4,2,0,80,0,0
46155,-100,4,2,1,81,0,0
46313,-100,4,2,0,80,0,0
47379,-100,4,2,1,80,0,0
47616,-100,4,2,0,80,0,0
48642,-100,4,2,1,80,0,0
48879,-100,4,2,0,80,0,0
49905,-100,4,2,1,80,0,0
50142,-100,4,2,0,80,0,0
51287,-100,4,2,2,80,0,0
51918,-100,4,2,2,41,0,0
52550,-100,4,2,2,59,0,0
53497,-100,4,2,0,80,0,0
53813,-100,4,2,0,80,0,1
58787,-100,4,2,1,80,0,1
58984,-100,4,2,0,80,0,1
60011,-100,4,2,1,80,0,1
60247,-100,4,2,0,80,0,1
61274,-100,4,2,1,80,0,1
61511,-100,4,2,0,80,0,1
62537,-200,4,2,1,80,0,1
62971,-200,4,2,0,80,0,1
63800,-100,4,2,0,80,0,1
68853,-100,4,2,1,80,0,1
69089,-100,4,2,0,80,0,1
70116,-200,4,2,1,80,0,1
70392,-100,4,2,0,80,0,1
71418,-200,4,2,1,80,0,1
73708,-200,4,2,0,80,0,1
74024,-100,4,2,2,0,0,1
74497,-100,4,2,2,80,0,1
75168,-100,4,2,1,80,0,1
75405,-100,4,2,0,81,0,1
76550,-100,4,2,0,0,0,1
77024,-100,4,2,0,80,0,1
77695,-100,4,2,1,80,0,1
77932,-100,4,2,0,79,0,1
79076,-100,4,2,0,0,0,1
79550,-100,4,2,0,80,0,1
80221,-200,4,2,0,70,0,1
80813,-200,4,2,0,40,0,1
81050,-100,4,2,0,0,0,1
81603,-100,4,2,2,100,0,1

[Colours]
Combo1 : 181,108,253
Combo2 : 36,146,255
Combo3 : 192,224,254
Combo4 : 0,198,198

[HitObjects]
128,160,761,5,0
128,160,1076,1,0
192,96,1392,1,2
192,96,1708,1,0
256,160,2024,1,0
192,224,2339,1,0
256,288,2655,1,2
320,224,2971,1,0
256,160,3287,5,0
256,160,3603,1,0
320,96,3918,1,2
320,96,4234,1,0
384,160,4550,1,0
320,224,4866,1,0
256,160,5182,1,2
320,96,5497,1,0
384,160,5813,6,0,B|432:224|392:304,1,150
320,368,6445,1,0
320,368,6761,2,0,B|272:304|320:224,2,150
393,301,7708,2,0,B|440:224|384:160,1,150
256,64,8339,5,0
232,152,8655,1,0
264,240,8971,1,0
240,328,9287,1,0
256,192,9603,12,0,10234
64,144,10866,5,0
136,88,11182,1,0
208,144,11497,1,2
208,144,11813,1,0
304,144,12129,5,0
376,88,12445,1,0
448,144,12761,1,2
448,144,13076,1,0
448,240,13392,5,0
376,296,13708,1,2
304,240,14024,1,0
304,240,14182,1,0
304,240,14339,1,0
208,240,14655,5,0
136,296,14971,1,2
64,240,15287,1,0
64,240,15445,1,0
64,240,15603,1,0
64,144,15918,5,0
136,80,16234,1,2
176,72,16392,1,2
216,88,16550,1,0
240,120,16708,1,0
240,160,16866,1,0
208,248,17182,5,0
280,312,17497,1,2
320,312,17655,1,2
352,288,17813,1,0
360,248,17971,1,0
336,216,18129,1,0
256,152,18445,2,0,B|160:152|152:248,1,150
208,312,19076,2,0,B|304:312|312:208,1,150
256,152,19708,5,0
256,152,20024,1,0
352,152,20339,1,0
392,152,20497,1,0
432,152,20655,1,0
448,240,20971,5,0
376,296,21287,1,0
304,240,21603,1,2
304,240,21918,1,0
208,240,22234,5,0
136,296,22550,1,0
64,240,22866,1,2
64,240,23182,1,0
64,144,23497,5,0
136,88,23813,1,2
208,144,24129,1,0
208,144,24287,1,0
208,144,24445,1,0
304,144,24761,5,0
376,88,25076,1,2
448,144,25392,1,0
448,144,25550,1,0
448,144,25708,1,0
448,240,26024,5,0
376,296,26339,1,2
336,304,26497,1,2
296,296,26655,1,0
272,264,26813,1,0
272,224,26971,1,0
304,136,27287,5,0
232,72,27603,1,2
192,72,27761,1,2
160,96,27918,1,0
152,136,28076,1,0
168,176,28234,1,0
256,232,28550,2,0,B|352:232|360:128,1,150
304,72,29182,2,0,B|216:72|200:168,1,150
256,232,29813,5,0
256,232,30129,1,0
160,232,30445,1,0
120,232,30603,1,0
80,232,30761,1,0
168,96,35813,5,0
256,72,36129,1,0
352,96,36445,1,0
400,176,36761,1,0
360,272,37076,1,0
256,272,37392,1,0
192,200,37708,1,0
256,144,38024,1,0
320,200,38339,1,0
256,272,38655,2,0,B|224:272|224:320|256:320|288:320|288:272|256:240|256:200|256:136,1,225
296,64,39918,6,0,B|208:40,1,75
144,88,40550,2,0,B|112:160,1,75
88,240,41182,5,0
160,304,41497,1,2
160,304,41655,1,2
256,336,41971,1,0
256,336,42129,1,0
256,336,42287,1,0
256,336,42445,1,0
352,304,42761,5,2
352,304,42918,1,2
424,240,43234,1,0
424,240,43392,1,0
424,240,43550,1,0
424,240,43708,1,0
424,152,44024,5,2
424,152,44182,1,2
352,88,44497,1,0
352,88,44655,1,0
352,88,44813,1,0
352,88,44971,1,0
256,56,45287,5,2
256,56,45445,1,2
160,72,45761,1,0
160,72,45918,1,0
160,72,46076,1,0
160,72,46234,5,0
136,160,46550,1,0
224,184,46866,1,0
248,96,47182,1,0
136,56,47497,5,0
112,176,47813,1,0
240,200,48129,1,0
264,80,48445,1,0
112,32,48761,5,0
88,192,49076,1,0
256,216,49392,1,0
280,56,49708,1,0
88,16,50024,5,0
64,200,50339,1,0
264,240,50655,1,0
296,40,50971,1,0
256,192,51287,12,2,52550
416,352,53813,5,2
480,288,54129,1,2
400,240,54445,1,2
336,304,54761,1,0
336,304,54918,1,0
336,304,55076,5,2
256,256,55392,1,2
320,192,55708,1,2
400,240,56024,1,0
400,240,56182,1,0
400,240,56339,5,2
464,176,56655,1,2
384,128,56971,1,2
320,192,57287,1,0
320,192,57445,1,0
320,192,57603,5,2
240,144,57918,1,2
304,80,58234,1,2
384,128,58550,1,0
384,128,58708,1,0
384,128,58866,5,0
464,80,59182,1,0
384,24,59497,1,0
304,80,59813,1,2
384,128,60129,2,0,B|439:206|384:280,1,150
320,312,60761,2,0,B|264:248|304:160,1,150,2|0
299,171,61392,5,0
299,171,61708,1,0
384,128,62024,1,0
384,128,62339,1,2
296,80,62655,2,0,B|56:80,1,225
32,160,63918,5,2
80,240,64234,1,2
160,296,64550,1,0
200,304,64708,1,0
240,296,64866,1,2
264,264,65024,1,0
272,224,65182,5,2
280,136,65497,1,2
360,96,65813,1,0
400,104,65971,1,0
432,128,66129,1,2
448,168,66287,1,0
440,208,66445,5,2
368,280,66761,1,2
272,264,67076,1,0
240,240,67234,1,0
224,208,67392,1,2
232,168,67550,1,0
256,144,67708,5,0
336,96,68024,1,0
400,168,68339,1,0
320,224,68655,1,0
256,144,68971,5,0
168,40,69287,1,2
64,120,69603,1,0
152,224,69918,1,2
256,144,70234,6,0,B|256:224,1,75
256,219,70866,5,2
256,312,71182,5,0
256,312,71339,1,0
256,312,71497,2,0,B|432:240|416:0|168:72|152:272,1,525
256,192,74024,12,0,74971
320,120,75287,5,0
384,192,75603,1,0
320,264,75918,1,0
320,264,76076,1,0
320,264,76234,1,2
320,264,76392,1,0
256,192,76550,12,0,77497
192,120,77813,5,0
128,192,78129,1,0
192,264,78445,1,0
192,264,78603,1,0
192,264,78761,1,2
192,264,78918,1,0
256,192,79076,12,0,80024
256,120,80339,6,0,B|200:160|312:232|240:256,1,150
256,192,81050,12,2,81603
