osu file format v5

[General]
AudioFilename: Mizuhuusen.mp3
AudioLeadIn: 2294
PreviewTime: -1
Countdown: 1
SampleSet: Soft
StackLeniency: 0.7
Mode: 0
LetterboxInBreaks: 1
EditorDistanceSpacing: 0.800000011920929

[Metadata]
Title:Mizuhuusen
Artist:Fujita Maiko
Creator:merimeri
Version:Hard
Source:Hisui no Shizuku
Tags:Nico Video

[Difficulty]
HPDrainRate:6
CircleSize:5
OverallDifficulty:6
SliderMultiplier:1.2
SliderTickRate:1

[Events]
//Background and Video events
1,0,"hisui.avi.avi"
0,0,"hisui1.jpg"
//Break Periods
2,30960,34763
//Storyboard Layer 0 (Background)
//Storyboard Layer 1 (Failing)
//Storyboard Layer 2 (Passing)
//Storyboard Layer 3 (Foreground)
//Storyboard Sound Samples
//Background Colour Transformations
3,100,163,162,255

[TimingPoints]
761,315.789473684211,4,2,0,80,1,0
8339,-100,4,2,0,40,0,0
9603,-100,4,2,0,80,0,0
53813,-100,4,2,0,85,0,1
75287,-100,4,2,0,40,0,1
76234,-100,4,2,0,80,0,1
77813,-100,4,2,0,40,0,1
78761,-100,4,2,0,85,0,1
80339,-100,4,2,0,40,0,1
80971,-100,4,2,0,69,0,1
81168,-100,4,2,2,100,0,1

[Colours]
Combo1 : 181,108,253
Combo2 : 36,146,255
Combo3 : 192,224,254
Combo4 : 0,198,198

[HitObjects]
64,64,761,1,0
192,64,1392,1,2
320,64,2024,1,0
384,64,2339,1,0
448,64,2655,1,2
448,192,3287,5,0
320,192,3918,1,2
192,192,4550,1,0
128,192,4866,1,0
64,192,5182,1,2
64,320,5813,5,0
128,320,6129,1,2
192,320,6445,1,2
320,320,7076,1,0
448,320,7708,1,2
256,192,8339,12,0,9602
32,96,10866,5,0
96,64,11182,1,2
160,96,11497,1,0
224,64,11813,1,2
288,96,12129,2,0,B|328:168|376:184,1,120
416,136,12761,2,2,B|480:184|496:232,1,120
480,288,13392,5,0
416,256,13708,1,2
352,288,14024,1,0
288,256,14339,1,2
224,288,14655,2,0,B|176:216|128:200,1,120
88,248,15287,2,2,B|24:200|8:152,1,120
32,96,15918,5,0
96,96,16234,1,2
96,96,16392,1,2
96,96,16550,2,0,B|223:96,1,120
280,96,17182,5,0
344,96,17497,1,2
344,96,17655,1,2
344,96,17813,2,0,B|480:96,1,120
472,160,18445,6,0,B|472:248|400:248,1,120
344,232,19076,2,0,B|272:248|272:320,1,120
216,352,19708,2,0,B|136:352|112:288,1,120,0|0
128,232,20339,2,0,B|120:160|40:160,1,120
32,96,20971,5,0
96,64,21287,1,2
160,96,21603,1,0
224,64,21918,1,2
288,96,22234,2,0,B|320:168|368:184,1,120
416,144,22866,2,2,B|488:184|504:232,1,120
480,288,23497,5,0
416,256,23813,1,2
352,288,24129,1,0
288,256,24445,1,2
224,288,24761,2,0,B|176:224|128:208,1,120
88,256,25392,2,2,B|24:208|16:152,1,120
32,96,26024,5,0
96,96,26339,1,2
96,96,26497,1,2
96,96,26655,2,0,B|224:96,1,120
280,96,27287,5,0
344,96,27603,1,2
344,96,27761,1,2
344,96,27918,2,0,B|472:96,1,120
472,160,28550,6,0,B|472:248|408:248,1,120
344,232,29182,2,0,B|272:248|272:320,1,120
216,352,29813,2,0,B|136:352|112:296,1,120,0|0
127,236,30445,2,0,B|117:165|30:164,1,120
392,304,35813,5,0
320,304,36129,1,2
256,280,36445,1,2
216,224,36761,1,0
216,152,37076,1,2
256,96,37392,1,2
320,72,37708,1,0
384,96,38024,1,0
424,152,38339,2,0,B|504:224|504:304|504:384|352:384|184:280|96:168,1,600,0|0
256,64,41182,5,0
320,96,41458,1,0
320,96,41616,1,0
352,160,41971,1,2
352,160,42129,1,2
352,224,42445,5,0
320,288,42761,1,0
320,288,42918,1,0
256,320,43234,1,2
256,320,43392,1,2
192,288,43708,5,0
160,224,44024,1,0
160,224,44182,1,0
162,155,44497,1,2
162,155,44655,1,2
192,96,44971,5,0
256,64,45287,1,0
256,64,45445,1,0
320,96,45761,1,2
320,96,45918,1,2
352,160,46234,5,2
352,224,46550,1,2
416,256,46866,1,2
480,224,47182,1,0
480,160,47497,5,2
416,128,47813,1,2
352,160,48129,1,2
352,224,48445,1,0
288,256,48761,5,2
224,224,49076,1,2
224,160,49392,1,2
288,128,49708,1,0
352,160,50024,5,2
416,128,50339,1,2
416,64,50655,1,2
352,32,50971,1,0
288,64,51287,2,0,B|128:160|224:256,1,240
352,256,52550,2,0,B|448:160|288:64,1,240
160,64,53813,5,2
96,96,54129,1,2
96,160,54445,1,2
160,192,54761,1,0
160,192,54918,1,0
160,192,55076,5,2
224,160,55392,1,2
288,192,55708,1,2
290,261,56024,1,0
290,261,56182,1,0
290,261,56339,5,2
356,290,56655,1,2
416,256,56971,1,2
416,192,57287,1,0
416,192,57445,1,0
416,192,57603,5,2
480,160,57918,1,2
480,96,58234,1,2
416,64,58550,1,0
416,64,58708,1,0
416,64,58867,6,2,B|288:64|288:192|224:192,1,240
168,160,59813,1,2
168,160,60129,2,0,B|120:208|160:272,1,120
200,320,60761,2,0,B|248:264|216:208,1,120,0|0
168,160,61392,6,2,B|32:160,2,120,2|0|2
208,104,62339,1,2
208,104,62655,2,0,B|360:144|320:296,1,240
168,304,63918,5,2
128,248,64234,1,2
168,192,64550,1,0
168,192,64708,1,0
168,192,64866,1,2
256,80,65182,5,2
296,136,65497,1,2
256,192,65813,1,0
256,192,65971,1,0
256,192,66129,1,2
344,304,66445,5,2
384,248,66761,1,2
344,192,67076,1,0
344,192,67234,1,0
344,192,67392,1,2
256,80,67708,5,0
208,128,68024,1,0
256,176,68339,1,0
304,128,68655,1,2
368,64,68971,5,2
432,128,69287,1,2
368,192,69603,1,0
304,128,69918,1,2
208,224,70234,5,0
304,320,70550,1,0
400,224,70866,1,2
304,128,71182,1,2
304,128,71339,1,0
304,128,71497,2,2,B|128:224|160:400|352:384|400:224,1,480,2|2
448,64,74024,5,2
352,64,74339,1,0
256,64,74655,1,2
160,64,74971,1,0
256,192,75287,12,0,76234
64,288,76550,5,2
160,288,76866,1,0
256,288,77182,1,2
352,288,77497,1,0
256,192,77813,12,0,78760
256,96,79076,5,0
160,192,79392,1,0
256,288,79708,1,0
352,192,80024,1,0
256,192,80339,12,0,80971
256,192,81287,5,2
