osu file format v5

[General]
AudioFilename: Mizuhuusen.mp3
AudioLeadIn: 1522
PreviewTime: -1
Countdown: 1
SampleSet: Soft
StackLeniency: 0.7
Mode: 0
LetterboxInBreaks: 1
EditorDistanceSpacing: 0.800000011920929

[Metadata]
Title:Mizuhuusen
Artist:Fujita Maiko
Creator:merimeri
Version:Easy
Source:Hisui no Shizuku
Tags:Nico Video

[Difficulty]
HPDrainRate:2
CircleSize:3
OverallDifficulty:2
SliderMultiplier:1.2
SliderTickRate:1

[Events]
//Background and Video events
1,0,"hisui.avi.avi"
0,0,"hisui1.jpg"
//Break Periods
2,31276,39622
//Storyboard Layer 0 (Background)
//Storyboard Layer 1 (Failing)
//Storyboard Layer 2 (Passing)
//Storyboard Layer 3 (Foreground)
//Storyboard Sound Samples
//Background Colour Transformations
3,100,163,162,255

[TimingPoints]
761,631.578947368421,4,2,0,80,1,0
53813,-100,4,2,0,81,0,1
81445,-100,4,2,2,100,0,1
81918,-100,4,2,0,0,0,1
84129,-100,4,2,0,32,0,1
86655,-100,4,2,0,70,0,1

[Colours]
Combo1 : 166,80,252
Combo2 : 36,146,255
Combo3 : 192,224,254
Combo4 : 0,198,198

[HitObjects]
128,64,10866,1,0
256,64,11497,1,0
384,64,12129,1,2
384,320,13392,5,0
256,320,14024,1,0
128,320,14655,1,2
128,64,15918,5,0
256,64,16550,1,0
384,64,17182,1,2
384,320,18445,5,0
256,320,19076,1,0
128,320,19708,1,2
384,64,20971,5,0
256,64,21603,1,0
128,64,22234,1,2
128,192,22866,1,0
128,320,23497,5,0
256,320,24129,1,0
384,320,24760,1,2
384,192,25392,1,0
384,64,26024,5,0
256,64,26655,1,0
128,64,27287,1,2
128,192,27918,1,0
128,320,28550,6,0,B|256:320,1,120
376,320,29813,2,0,B|448:192|368:88,1,240,0|0
384,320,41182,6,0,B|256:320,1,120
128,320,42445,2,2,B|128:192,1,120
128,64,43708,2,0,B|256:64,1,120
384,64,44971,2,2,B|384:192,1,120
384,320,46234,5,0
256,320,46866,1,0
128,320,47497,1,2
128,192,48129,1,0
256,192,48761,5,0
384,192,49392,1,0
384,64,50024,1,2
256,64,50655,1,0
128,64,51287,2,0,B|8:64|8:192|136:192,2,240
256,64,54445,5,2
256,192,55076,1,0
320,192,55392,1,0
384,192,55708,1,2
384,320,56339,5,0
256,320,56971,1,2
256,192,57603,1,0
192,192,57918,1,0
128,192,58234,1,2
128,64,58866,6,2,B|256:64|256:192|320:192,1,240
448,192,60761,1,0
448,64,61392,6,2,B|320:64|320:192|256:192,1,240
128,192,63287,1,2
128,320,63918,5,0
192,320,64234,1,0
256,320,64550,1,2
256,192,65182,5,0
320,192,65497,1,0
384,192,65813,1,2
384,64,66445,5,0
320,64,66761,1,0
256,64,67076,1,2
256,192,67708,5,0
192,192,68024,1,0
128,192,68339,1,2
128,64,68971,6,2,B|256:64,1,120
384,64,70234,2,0,B|384:192,1,120
384,320,71497,2,2,B|256:320,1,120
128,320,72761,2,0,B|128:192,1,120
128,64,74024,6,2,B|256:64|256:192|328:192,6,240
256,192,81918,12,0,86655
