osu file format v14

[General]
AudioFilename: 15 .mp3
AudioLeadIn: 1700
PreviewTime: 61396
Countdown: 0
SampleSet: Normal
StackLeniency: 0.7
Mode: 0
LetterboxInBreaks: 0
WidescreenStoryboard: 0

[Editor]
DistanceSpacing: 1.5
BeatDivisor: 4
GridSize: 4
TimelineZoom: 1

[Metadata]
Title:Fast as Lightning
TitleUnicode:ファスト・アズ・ライトニング
Artist:Fujisawa Kenji
ArtistUnicode:藤澤健至
Creator:Grlgrl
Version:YEEART!
Source:ニンジャスレイヤー フロムアニメイシヨン
Tags:Domo Ninja Slayer desu ar10 oh my buddha Trigger saving anime again ニンジャスレイヤー Yeeart aoty ニンジャ殺すべし ample sayonara
BeatmapID:748969
BeatmapSetID:338544

[Difficulty]
HPDrainRate:5
CircleSize:4
OverallDifficulty:7
ApproachRate:10
SliderMultiplier:1.4
SliderTickRate:1

[Events]
//Background and Video events
0,0,"1ns.jpg",0,0
//Break Periods
//Storyboard Layer 0 (Background)
//Storyboard Layer 1 (Fail)
//Storyboard Layer 2 (Pass)
//Storyboard Layer 3 (Foreground)
//Storyboard Sound Samples

[TimingPoints]
-854,300,4,1,0,40,1,0
46,-76.9230769230769,4,1,0,40,0,0
2146,-76.9230769230769,4,1,0,55,0,0
2746,-76.9230769230769,4,1,0,40,0,0
6271,-76.9230769230769,4,1,0,75,0,0
7396,-76.9230769230769,4,1,0,40,0,0
11071,-76.9230769230769,4,1,0,75,0,0
12196,-76.9230769230769,4,1,0,40,0,0
15871,-76.9230769230769,4,1,0,75,0,0
16996,-76.9230769230769,4,1,0,40,0,0
20746,-76.9230769230769,4,1,0,75,0,0
21796,-76.9230769230769,4,1,0,40,0,0
21946,-76.9230769230769,4,1,0,55,0,0
23146,-71.4285714285714,4,1,0,55,0,0
23671,-71.4285714285714,4,1,0,30,0,0
24271,-71.4285714285714,4,1,0,55,0,0
24871,-71.4285714285714,4,1,0,30,0,0
25471,-71.4285714285714,4,1,0,55,0,0
26671,-71.4285714285714,4,1,0,30,0,0
27571,-71.4285714285714,4,1,0,55,0,0
28471,-71.4285714285714,4,1,0,30,0,0
29071,-71.4285714285714,4,1,0,55,0,0
30346,-71.4285714285714,4,1,0,75,0,0
32596,-71.4285714285714,4,1,0,55,0,0
33271,-71.4285714285714,4,1,0,30,0,0
33871,-71.4285714285714,4,1,0,55,0,0
34471,-71.4285714285714,4,1,0,30,0,0
35146,-71.4285714285714,4,1,0,55,0,0
38071,-71.4285714285714,4,1,0,30,0,0
38746,-71.4285714285714,4,1,0,55,0,0
39946,-71.4285714285714,4,1,0,75,0,0
42496,-71.4285714285714,4,1,0,40,0,0
43396,-71.4285714285714,4,1,0,40,0,0
48271,-71.4285714285714,4,1,0,45,0,0
50671,-71.4285714285714,4,1,0,50,0,0
51871,-71.4285714285714,4,1,0,55,0,0
53296,-71.4285714285714,4,1,0,60,0,0
57946,-71.4285714285714,4,1,0,61,0,0
58096,-71.4285714285714,4,1,0,62,0,0
58246,-71.4285714285714,4,1,0,63,0,0
58396,-71.4285714285714,4,1,0,64,0,0
58546,-71.4285714285714,4,1,0,65,0,0
58696,-71.4285714285714,4,1,0,66,0,0
58846,-71.4285714285714,4,1,0,67,0,0
58996,-71.4285714285714,4,1,0,68,0,0
59146,-71.4285714285714,4,1,0,69,0,0
59296,-71.4285714285714,4,1,0,70,0,0
59446,-71.4285714285714,4,1,0,71,0,0
59596,-71.4285714285714,4,1,0,72,0,0
59746,-71.4285714285714,4,1,0,73,0,0
59896,-71.4285714285714,4,1,0,74,0,0
60046,-71.4285714285714,4,1,0,75,0,0
61171,-71.4285714285714,4,1,0,30,0,0
61396,-66.6666666666667,4,1,0,75,0,0
61546,-66.6666666666667,4,1,0,75,0,1
61696,-66.6666666666667,4,1,0,30,0,1
61996,-66.6666666666667,4,1,0,75,0,1
62146,-66.6666666666667,4,1,0,30,0,1
62446,-66.6666666666667,4,1,0,75,0,1
62596,-66.6666666666667,4,1,0,30,0,1
62746,-66.6666666666667,4,1,0,75,0,1
62896,-66.6666666666667,4,1,0,30,0,1
63046,-66.6666666666667,4,1,0,75,0,1
63346,-66.6666666666667,4,1,0,30,0,1
63646,-66.6666666666667,4,1,0,75,0,1
63796,-66.6666666666667,4,1,0,30,0,1
63946,-66.6666666666667,4,1,0,75,0,1
64096,-66.6666666666667,4,1,0,30,0,1
64396,-66.6666666666667,4,1,0,75,0,1
64546,-66.6666666666667,4,1,0,30,0,1
64846,-66.6666666666667,4,1,0,75,0,1
64996,-66.6666666666667,4,1,0,30,0,1
65146,-66.6666666666667,4,1,0,75,0,1
65296,-66.6666666666667,4,1,0,30,0,1
65446,-66.6666666666667,4,1,0,75,0,1
65746,-66.6666666666667,4,1,0,30,0,1
66046,-66.6666666666667,4,1,0,75,0,1
66196,-66.6666666666667,4,1,0,30,0,1
66346,-66.6666666666667,4,1,0,70,0,1
66496,-66.6666666666667,4,1,0,72,0,1
66646,-66.6666666666667,4,1,0,74,0,1
66796,-66.6666666666667,4,1,0,76,0,1
66946,-66.6666666666667,4,1,0,78,0,1
67096,-66.6666666666667,4,1,0,30,0,1
67246,-66.6666666666667,4,1,0,80,0,1
68746,-66.6666666666667,4,1,0,30,0,1
71146,-66.6666666666667,4,1,0,75,0,1
71296,-66.6666666666667,4,1,0,30,0,1
71596,-66.6666666666667,4,1,0,75,0,1
71746,-66.6666666666667,4,1,0,30,0,1
72046,-66.6666666666667,4,1,0,75,0,1
72196,-66.6666666666667,4,1,0,30,0,1
72346,-66.6666666666667,4,1,0,75,0,1
72496,-66.6666666666667,4,1,0,30,0,1
72646,-66.6666666666667,4,1,0,75,0,1
72946,-66.6666666666667,4,1,0,30,0,1
73246,-66.6666666666667,4,1,0,75,0,1
73696,-66.6666666666667,4,1,0,30,0,1
73996,-66.6666666666667,4,1,0,75,0,1
74146,-66.6666666666667,4,1,0,30,0,1
74446,-66.6666666666667,4,1,0,75,0,1
74596,-66.6666666666667,4,1,0,30,0,1
74746,-66.6666666666667,4,1,0,75,0,1
74896,-66.6666666666667,4,1,0,30,0,1
75046,-66.6666666666667,4,1,0,75,0,1
75346,-66.6666666666667,4,1,0,30,0,1
75646,-66.6666666666667,4,1,0,75,0,1
75796,-66.6666666666667,4,1,0,30,0,1
75946,-66.6666666666667,4,1,0,75,0,1
76096,-66.6666666666667,4,1,0,30,0,1
76396,-66.6666666666667,4,1,0,75,0,1
76546,-66.6666666666667,4,1,0,30,0,1
76846,-66.6666666666667,4,1,0,75,0,1
76996,-66.6666666666667,4,1,0,30,0,1
77146,-66.6666666666667,4,1,0,75,0,1
77296,-66.6666666666667,4,1,0,30,0,1
77446,-66.6666666666667,4,1,0,75,0,1
77746,-66.6666666666667,4,1,0,40,0,1
78346,-66.6666666666667,4,1,0,75,0,1
78496,-66.6666666666667,4,1,0,40,0,1
78796,-66.6666666666667,4,1,0,75,0,1
78946,-66.6666666666667,4,1,0,40,0,1
79246,-66.6666666666667,4,1,0,75,0,1
79396,-66.6666666666667,4,1,0,40,0,1
79696,-66.6666666666667,4,1,0,75,0,1
79846,-66.6666666666667,4,1,0,40,0,1
80146,-66.6666666666667,4,1,0,75,0,1
80746,-76.9230769230769,4,1,0,40,0,0
84346,-76.9230769230769,4,1,0,75,0,0
85396,-76.9230769230769,4,1,0,40,0,0
89146,-76.9230769230769,4,1,0,75,0,0
90346,-76.9230769230769,4,1,0,40,0,0
93946,-76.9230769230769,4,1,0,75,0,0
95146,-76.9230769230769,4,1,0,40,0,0
98746,-76.9230769230769,4,1,0,75,0,0
99946,-76.9230769230769,4,1,0,55,0,0
102646,-76.9230769230769,4,1,0,40,0,0
104746,-76.9230769230769,4,1,0,20,0,0

[Colours]
Combo1 : 255,128,0
Combo2 : 255,0,0
Combo3 : 230,230,0
Combo4 : 0,255,0

[HitObjects]
116,120,346,6,0,P|56:104|28:76,2,90.9999958343508,0|4|4,0:0|3:0|3:0,0:0:0:0:
396,120,796,2,0,P|456:104|484:76,2,90.9999958343508,0|4|4,0:0|3:0|3:0,0:0:0:0:
156,230,1246,2,0,P|96:214|68:186,2,90.9999958343508,0|4|4,0:0|3:0|3:0,0:0:0:0:
356,230,1696,2,0,P|416:214|444:186,2,90.9999958343508,0|4|4,0:0|3:0|3:0,0:0:0:0:
206,232,2146,1,8,0:0:0:0:
206,232,2296,1,8,0:0:0:0:
206,232,2446,1,8,0:0:0:0:
206,232,2596,1,8,0:0:0:0:
116,156,2746,6,0,P|120:92|144:72,1,90.9999958343508,0|2,0:0|2:0,0:0:0:0:
252,44,3046,1,0,0:0:0:0:
348,116,3196,1,2,2:0:0:0:
364,232,3346,2,0,P|340:279|313:304,1,90.9999958343508,0|2,0:0|2:0,0:0:0:0:
192,316,3646,1,0,0:0:0:0:
124,220,3796,1,2,2:0:0:0:
244,216,3946,5,0,0:0:0:0:
356,172,4096,1,2,2:0:0:0:
296,40,4246,1,0,0:0:0:0:
224,136,4396,1,2,2:0:0:0:
361,87,4546,1,0,0:0:0:0:
244,80,4696,1,2,2:0:0:0:
148,192,4846,1,0,0:0:0:0:
268,192,4996,1,2,2:0:0:0:
184,300,5146,6,0,L|288:300,1,90.9999958343508,0|2,0:0|2:0,0:0:0:0:
372,232,5446,1,0,0:0:0:0:
380,112,5596,1,2,2:0:0:0:
304,204,5746,2,0,L|208:232,1,90.9999958343508,0|2,0:0|2:0,0:0:0:0:
60,136,6046,1,0,0:0:0:0:
112,232,6196,1,2,2:0:0:0:
128,48,6346,6,0,L|180:132,1,90.9999958343508
256,236,6646,1,0,0:0:0:0:
252,44,6796,2,0,L|304:128,1,90.9999958343508
380,232,7096,1,0,0:0:0:0:
376,40,7246,2,0,L|428:124,1,90.9999958343508
504,228,7546,5,0,0:0:0:0:
416,304,7696,1,2,2:0:0:0:
280,316,7846,2,0,L|180:316,1,90.9999958343508,0|2,0:0|2:0,0:0:0:0:
112,204,8146,1,0,0:0:0:0:
232,200,8296,1,2,2:0:0:0:
128,112,8446,2,0,P|124:52|152:40,1,90.9999958343508,0|2,0:0|2:0,0:0:0:0:
280,28,8746,1,0,0:0:0:0:
224,132,8896,1,2,2:0:0:0:
333,51,9046,6,0,P|401:55|417:67,1,90.9999958343508,0|2,0:0|2:0,0:0:0:0:
464,196,9346,1,0,0:0:0:0:
400,296,9496,1,2,2:0:0:0:
264,292,9646,2,0,L|176:216,1,90.9999958343508,0|2,0:0|2:0,0:0:0:0:
272,116,9946,1,0,0:0:0:0:
367,187,10096,1,2,2:0:0:0:
440,72,10246,2,0,L|340:20,1,90.9999958343508,0|2,0:0|2:0,0:0:0:0:
291,189,10546,1,0,0:0:0:0:
321,103,10696,1,2,2:0:0:0:
268,268,10846,2,0,L|184:316,1,90.9999958343508,0|2,0:0|2:0,0:0:0:0:
88,220,11146,5,0,0:0:0:0:
55,68,11296,1,0,0:0:0:0:
202,115,11446,1,0,0:0:0:0:
88,220,11596,1,0,0:0:0:0:
55,68,11746,1,0,0:0:0:0:
202,115,11896,1,0,0:0:0:0:
88,220,12046,2,0,P|49:190|54:150,1,90.9999958343508
160,68,12346,5,0,0:0:0:0:
256,140,12496,1,2,2:0:0:0:
256,276,12646,2,0,L|256:368,1,90.9999958343508,0|2,0:0|2:0,0:0:0:0:
256,139,12946,2,0,L|256:47,1,90.9999958343508,0|2,0:0|2:0,0:0:0:0:
208,271,13246,6,0,L|162:351,1,90.9999958343508,0|2,0:0|2:0,0:0:0:0:
287,138,13546,2,0,L|333:58,1,90.9999958343508,0|2,0:0|2:0,0:0:0:0:
169,242,13846,6,0,L|89:289,1,90.9999958343508,0|2,0:0|2:0,0:0:0:0:
318,158,14146,2,0,L|398:112,1,90.9999958343508,0|2,0:0|2:0,0:0:0:0:
145,191,14446,6,0,L|53:192,1,90.9999958343508,0|2,0:0|2:0,0:0:0:0:
338,192,14746,2,0,L|430:192,1,90.9999958343508,0|2,0:0|2:0,0:0:0:0:
153,128,15046,6,0,L|73:82,1,90.9999958343508,0|2,0:0|2:0,0:0:0:0:
330,234,15346,2,0,L|410:280,1,90.9999958343508,0|2,0:0|2:0,0:0:0:0:
196,81,15646,2,0,L|150:1,1,90.9999958343508,0|2,0:0|2:0,0:0:0:0:
80,120,15946,5,0,0:0:0:0:
107,253,16096,1,0,0:0:0:0:
241,275,16246,1,0,0:0:0:0:
171,158,16396,1,0,0:0:0:0:
305,179,16546,1,0,0:0:0:0:
332,313,16696,1,0,0:0:0:0:
200,280,16846,2,0,P|144:224|136:204,1,90.9999958343508
164,92,17146,5,0,0:0:0:0:
228,4,17296,1,2,2:0:0:0:
276,100,17446,1,0,0:0:0:0:
372,48,17596,1,2,2:0:0:0:
368,156,17746,1,0,0:0:0:0:
476,164,17896,1,2,2:0:0:0:
388,228,18046,1,0,0:0:0:0:
464,308,18196,1,2,2:0:0:0:
284,344,18346,6,0,L|332:260,1,90.9999958343508,0|2,0:0|2:0,0:0:0:0:
172,172,18646,2,0,L|117:256,1,90.9999958343508,0|2,0:0|2:0,0:0:0:0:
280,160,18946,2,0,L|336:64,1,90.9999958343508,0|2,0:0|2:0,0:0:0:0:
160,0,19246,2,0,L|105:88,1,90.9999958343508,0|2,0:0|2:0,0:0:0:0:
120,216,19546,1,0,0:0:0:0:
204,300,19696,1,2,2:0:0:0:
328,248,19846,2,0,P|364:216|372:176,1,90.9999958343508,0|2,0:0|2:0,0:0:0:0:
280,68,20146,1,0,0:0:0:0:
216,168,20296,1,2,2:0:0:0:
116,72,20446,2,0,P|76:144|84:168,1,90.9999958343508,0|2,0:0|2:0,0:0:0:0:
144,244,20746,5,0,0:0:0:0:
286,279,20896,1,0,0:0:0:0:
192,166,21046,1,0,0:0:0:0:
202,313,21196,1,0,0:0:0:0:
280,188,21346,1,0,0:0:0:0:
144,244,21496,1,0,0:0:0:0:
232,329,21646,2,0,P|276:347|322:323,1,90.9999958343508
344,240,21946,5,4,0:0:0:0:
350,218,22021,1,4,0:0:0:0:
356,196,22096,1,4,3:0:0:0:
362,174,22171,1,4,3:0:0:0:
368,152,22246,1,4,3:0:0:0:
375,130,22321,1,4,3:0:0:0:
311,114,22396,5,4,0:0:0:0:
304,136,22471,1,4,0:0:0:0:
298,158,22546,1,4,3:0:0:0:
292,180,22621,1,4,3:0:0:0:
286,202,22696,1,4,3:0:0:0:
280,224,22771,1,4,3:0:0:0:
212,204,22846,5,4,0:0:0:0:
218,182,22921,1,4,0:0:0:0:
224,160,22996,1,4,3:0:0:0:
230,138,23071,1,4,3:0:0:0:
236,116,23146,2,0,B|269:76|269:76|336:76,1,97.9999970092774,0|2,0:0|2:0,0:0:0:0:
444,144,23446,5,0,0:0:0:0:
440,292,23596,2,0,B|424:340|424:340|332:344,4,97.9999970092774
444,124,24346,1,0,0:0:0:0:
320,232,24496,1,0,0:0:0:0:
336,68,24646,1,0,0:0:0:0:
184,136,24796,2,0,P|144:172|135:228,4,97.9999970092774
304,76,25546,5,0,0:0:0:0:
456,4,25696,1,0,0:0:0:0:
436,170,25846,1,0,0:0:0:0:
300,72,25996,1,0,0:0:0:0:
41,282,26296,1,0,0:0:0:0:
352,324,26596,2,0,L|456:344,6,97.9999970092774
208,284,27646,6,0,P|160:252|120:212,1,97.9999970092774
123,94,27946,1,0,0:0:0:0:
260,32,28096,1,0,0:0:0:0:
396,88,28246,1,0,0:0:0:0:
460,220,28396,2,0,P|460:276|420:308,4,97.9999970092774
408,84,29146,1,0,0:0:0:0:
268,36,29296,1,0,0:0:0:0:
352,156,29446,1,0,0:0:0:0:
208,104,29596,2,0,P|105:212|181:332,1,293.999991027832
400,304,30346,5,0,0:0:0:0:
246,138,30496,1,0,0:0:0:0:
422,229,30646,1,0,0:0:0:0:
198,201,30796,1,0,0:0:0:0:
392,156,30946,1,0,0:0:0:0:
202,279,31096,1,0,0:0:0:0:
322,121,31246,1,0,0:0:0:0:
256,337,31396,1,0,0:0:0:0:
246,138,31546,1,0,0:0:0:0:
334,346,31696,1,0,0:0:0:0:
198,201,31846,1,0,0:0:0:0:
400,303,31996,1,0,0:0:0:0:
202,279,32146,1,0,0:0:0:0:
422,229,32296,1,0,0:0:0:0:
256,337,32446,2,0,P|188:344|152:320,1,97.9999970092774
76,236,32746,5,0,0:0:0:0:
100,112,32896,1,0,0:0:0:0:
204,40,33046,1,0,0:0:0:0:
332,48,33196,2,0,P|396:84|412:108,4,97.9999970092774
204,52,33946,1,0,0:0:0:0:
124,152,34096,1,0,0:0:0:0:
77,33,34246,1,0,0:0:0:0:
204,52,34396,2,0,P|244:80|260:128,4,97.9999970092774
76,56,35146,5,0,0:0:0:0:
51,181,35296,1,0,0:0:0:0:
179,169,35446,1,0,0:0:0:0:
152,292,35596,1,0,0:0:0:0:
452,40,35896,1,0,0:0:0:0:
188,282,36196,1,0,0:0:0:0:
130,203,36346,5,0,0:0:0:0:
92,112,36496,1,0,0:0:0:0:
189,125,36646,1,0,0:0:0:0:
382,203,36946,1,0,0:0:0:0:
420,112,37096,1,0,0:0:0:0:
323,125,37246,1,0,0:0:0:0:
120,72,37546,5,0,0:0:0:0:
40,196,37696,1,0,0:0:0:0:
144,300,37846,1,0,0:0:0:0:
288,324,37996,2,0,P|352:328|388:320,4,97.9999970092774
148,280,38746,1,0,0:0:0:0:
288,240,38896,1,0,0:0:0:0:
144,208,39046,1,0,0:0:0:0:
275,142,39196,2,0,P|408:226|327:323,1,293.999991027832
164,351,39946,5,0,0:0:0:0:
72,200,40096,1,0,0:0:0:0:
248,196,40246,1,0,0:0:0:0:
80,280,40396,5,0,0:0:0:0:
170,127,40546,1,0,0:0:0:0:
256,281,40696,1,0,0:0:0:0:
68,168,40846,5,0,0:0:0:0:
240,212,40996,1,0,0:0:0:0:
404,152,41146,5,0,0:0:0:0:
310,2,41296,1,0,0:0:0:0:
227,159,41446,1,0,0:0:0:0:
384,57,41596,5,0,0:0:0:0:
206,50,41746,1,0,0:0:0:0:
290,208,41896,1,0,0:0:0:0:
304,24,42046,5,0,0:0:0:0:
159,124,42196,1,0,0:0:0:0:
344,148,42346,2,0,B|492:180|492:180|356:240|356:240|488:280|488:280|320:344,1,587.999982055665
104,273,43546,6,0,L|50:148,1,97.9999970092774
3,49,43846,1,0,0:0:0:0:
261,189,43996,2,0,L|357:129,1,97.9999970092774
472,63,44296,1,0,0:0:0:0:
325,318,44446,2,0,L|234:244,1,97.9999970092774
135,161,44746,1,0,0:0:0:0:
284,160,44896,2,0,P|348:136|368:104,2,97.9999970092774
138,160,45346,2,0,P|92:188|81:233,1,97.9999970092774
205,300,45646,2,0,P|254:269|260:222,1,97.9999970092774
184,108,45946,6,0,L|104:24,2,97.9999970092774
313,255,46396,2,0,L|393:339,2,97.9999970092774
248,145,46846,1,0,0:0:0:0:
347,65,46996,2,0,P|411:60|439:89,1,97.9999970092774
482,197,47296,1,0,0:0:0:0:
442,317,47446,2,0,P|387:342|346:342,1,97.9999970092774
159,295,47746,2,0,L|63:270,1,97.9999970092774
314,228,48046,2,0,L|414:213,1,97.9999970092774
176,43,48346,6,0,L|136:138,1,97.9999970092774
280,104,48646,1,0,0:0:0:0:
216,236,48796,2,0,L|275:322,1,97.9999970092774
328,180,49096,1,0,0:0:0:0:
418,294,49246,2,0,L|513:262,1,97.9999970092774
404,161,49546,1,0,0:0:0:0:
346,24,49696,2,0,L|230:49,1,97.9999970092774
148,122,49996,1,0,0:0:0:0:
163,249,50146,2,0,L|209:335,1,97.9999970092774
395,258,50446,2,0,L|335:160,1,97.9999970092774
220,148,50746,5,0,0:0:0:0:
92,148,50896,2,0,L|-8:148,1,97.9999970092774
220,148,51196,1,0,0:0:0:0:
129,238,51346,2,0,L|60:311,1,97.9999970092774
220,148,51646,2,0,P|280:136|312:156,1,97.9999970092774
404,264,51946,6,0,L|448:356,1,97.9999970092774
476,108,52246,2,0,L|408:12,1,97.9999970092774
268,224,52546,2,0,L|350:167,1,97.9999970092774
152,24,52846,2,0,L|208:116,1,97.9999970092774
16,268,53146,2,0,L|88:176,1,97.9999970092774
160,96,53446,5,0,0:0:0:0:
288,76,53596,1,0,0:0:0:0:
408,120,53746,2,0,P|444:168|444:212,1,97.9999970092774
376,312,54046,1,0,0:0:0:0:
252,336,54196,2,0,P|164:324|128:308,1,97.9999970092774
64,236,54496,1,0,0:0:0:0:
84,108,54646,2,0,P|104:64|144:36,1,97.9999970092774
340,32,54946,2,0,P|400:56|428:88,1,97.9999970092774
332,260,55246,2,0,P|272:236|240:200,1,97.9999970092774
104,72,55546,6,0,L|200:40,1,97.9999970092774
317,0,55846,1,0,0:0:0:0:
176,136,55996,2,0,L|272:104,1,97.9999970092774
389,64,56296,1,0,0:0:0:0:
256,208,56446,2,0,L|352:176,1,97.9999970092774
469,136,56746,1,0,0:0:0:0:
328,272,56896,2,0,L|232:304,1,97.9999970092774
115,344,57196,1,0,0:0:0:0:
236,188,57346,2,0,L|140:220,1,97.9999970092774
23,260,57646,1,0,0:0:0:0:
192,332,57946,5,0,0:0:0:0:
332,208,58096,1,0,0:0:0:0:
180,208,58246,1,0,0:0:0:0:
320,332,58396,1,0,0:0:0:0:
192,332,58546,5,0,0:0:0:0:
332,264,58696,1,0,0:0:0:0:
180,264,58846,1,0,0:0:0:0:
348,196,58996,1,0,0:0:0:0:
164,196,59146,1,0,0:0:0:0:
364,132,59296,1,0,0:0:0:0:
148,132,59446,1,0,0:0:0:0:
380,68,59596,1,0,0:0:0:0:
132,68,59746,1,0,0:0:0:0:
396,4,59896,1,0,0:0:0:0:
116,4,60046,1,0,0:0:0:0:
256,12,60196,2,0,B|304:40|304:40|208:76|208:76|304:112|304:112|208:144|208:144|304:188|304:188|208:216|208:216|300:260|300:260|260:304,1,685.999979064942
208,320,61546,6,0,P|156:344|96:352,2,105.000004005432
208,64,61996,2,0,P|156:40|96:32,2,105.000004005432
346,177,62446,2,0,L|418:301,1,105.000004005432
162,177,62746,2,0,L|90:301,1,105.000004005432
256,368,63046,1,0,0:0:0:0:
256,158,63196,2,0,L|256:50,2,105.000004005432
256,336,63646,6,0,L|364:364,1,105.000004005432
512,272,63946,2,0,L|388:236,1,105.000004005432
244,188,64246,1,0,0:0:0:0:
100,84,64396,2,0,L|8:20,2,105.000004005432
240,196,64846,2,0,L|240:68,1,105.000004005432
380,204,65146,2,0,L|380:339,1,105.000004005432
200,312,65446,1,0,0:0:0:0:
21,312,65596,2,0,L|-87:313,2,105.000004005432
200,312,66046,2,0,L|308:312,1,105.000004005432
451,250,66346,5,0,0:0:0:0:
280,38,66496,1,0,0:0:0:0:
512,100,66646,1,0,0:0:0:0:
279,206,66796,1,0,0:0:0:0:
404,38,66946,2,0,P|460:42|480:96,1,105.000004005432
387,268,67246,5,0,0:0:0:0:
177,89,67396,1,0,0:0:0:0:
177,268,67546,1,0,0:0:0:0:
387,89,67696,1,0,0:0:0:0:
387,268,67846,1,0,0:0:0:0:
177,89,67996,1,0,0:0:0:0:
177,268,68146,1,0,0:0:0:0:
387,89,68296,1,0,0:0:0:0:
387,268,68446,1,0,0:0:0:0:
256,196,68596,2,0,B|248:196|248:196|236:192|212:160|232:140|259:131|288:125|375:146|384:192|382:248|340:296|296:396|139:421|16:364|-16:29|92:-8|201:-5|246:8|272:66|416:54|423:94|428:126|426:173|470:240|440:281|411:407|294:453|151:500|83:352|8:204|74:164|68:128|119:54|143:45|199:17|236:-16|386:5|436:144,1,1575.00006008148
432,340,71146,6,0,L|432:216,2,105.000004005432
288,188,71596,2,0,L|288:68,2,105.000004005432
124,336,72046,2,0,L|232:336,1,105.000004005432
452,196,72346,2,0,L|324:196,1,105.000004005432
124,56,72646,1,0,0:0:0:0:
334,56,72796,2,0,L|440:56,2,105.000004005432
124,56,73246,1,0,0:0:0:0:
346,278,73546,6,0,L|430:361,2,105.000004005432
166,278,73996,2,0,L|82:361,2,105.000004005432
352,88,74446,2,0,P|408:88|440:148,1,105.000004005432
320,352,74746,2,0,P|264:352|232:292,1,105.000004005432
176,148,75046,1,0,0:0:0:0:
328,56,75196,2,0,P|380:40|432:48,2,105.000004005432
216,300,75646,6,0,L|156:208,1,105.000004005432
408,140,75946,2,0,L|496:80,2,105.000004005432
180,292,76396,2,0,L|92:352,2,105.000004005432
395,141,76846,2,0,L|503:142,1,105.000004005432
180,144,77146,2,0,L|72:145,1,105.000004005432
256,253,77446,1,0,0:0:0:0:
256,40,77596,1,0,0:0:0:0:
380,136,77746,2,0,L|472:196,1,105.000004005432,2|0,3:0|0:0,0:0:0:0:
332,272,78046,2,0,L|436:344,1,105.000004005432,2|0,3:0|0:0,0:0:0:0:
435,47,78346,6,0,L|435:152,2,105.000004005432,0|4|4,0:0|3:0|3:0,0:0:0:0:
386,328,78796,2,0,L|386:223,2,105.000004005432,0|4|4,0:0|3:0|3:0,0:0:0:0:
329,48,79246,2,0,L|329:153,2,105.000004005432,0|4|4,0:0|3:0|3:0,0:0:0:0:
272,328,79696,2,0,L|272:223,2,105.000004005432,0|4|4,0:0|3:0|3:0,0:0:0:0:
160,188,80146,1,8,0:0:0:0:
160,188,80296,1,8,0:0:0:0:
160,188,80446,1,8,0:0:0:0:
160,188,80596,1,8,0:0:0:0:
176,304,80746,6,0,P|216:336|264:336,1,90.9999958343508,0|2,0:0|2:0,0:0:0:0:
372,316,81046,1,0,0:0:0:0:
432,216,81196,1,2,2:0:0:0:
440,96,81346,2,0,L|440:-4,1,90.9999958343508,0|2,0:0|2:0,0:0:0:0:
344,76,81646,1,0,0:0:0:0:
344,196,81796,1,2,2:0:0:0:
228,56,81946,6,0,L|332:56,1,90.9999958343508,0|2,0:0|2:0,0:0:0:0:
408,136,82246,1,0,0:0:0:0:
412,256,82396,1,2,2:0:0:0:
324,336,82546,2,0,P|240:340|208:316,1,90.9999958343508,0|2,0:0|2:0,0:0:0:0:
192,228,82846,1,0,0:0:0:0:
96,296,82996,1,2,2:0:0:0:
0,184,83146,6,0,L|116:184,1,90.9999958343508,0|2,0:0|2:0,0:0:0:0:
88,40,83446,1,0,0:0:0:0:
184,108,83596,1,2,2:0:0:0:
356,48,83746,2,0,L|288:128,1,90.9999958343508,0|2,0:0|2:0,0:0:0:0:
356,304,84046,2,0,L|428:224,1,90.9999958343508,0|2,0:0|2:0,0:0:0:0:
244,292,84346,5,0,0:0:0:0:
416,352,84496,1,0,0:0:0:0:
378,173,84646,1,0,0:0:0:0:
192,156,84796,1,0,0:0:0:0:
357,78,84946,1,0,0:0:0:0:
338,259,85096,1,0,0:0:0:0:
268,92,85246,2,0,P|216:56|172:52,1,90.9999958343508
52,28,85546,5,0,0:0:0:0:
161,137,85696,1,2,2:0:0:0:
96,72,85846,1,0,0:0:0:0:
205,181,85996,1,2,2:0:0:0:
140,116,86146,1,0,0:0:0:0:
249,225,86296,1,2,2:0:0:0:
184,160,86446,1,0,0:0:0:0:
293,269,86596,1,2,2:0:0:0:
408,196,86746,6,0,L|315:123,1,90.9999958343508,0|2,0:0|2:0,0:0:0:0:
229,341,87046,2,0,L|340:274,1,90.9999958343508,0|2,0:0|2:0,0:0:0:0:
180,106,87346,2,0,L|184:230,1,90.9999958343508,0|2,0:0|2:0,0:0:0:0:
408,176,87646,2,0,L|296:184,1,90.9999958343508,0|2,0:0|2:0,0:0:0:0:
416,248,87946,5,0,0:0:0:0:
492,160,88096,1,2,2:0:0:0:
408,80,88246,2,0,P|344:44|304:40,1,90.9999958343508,0|2,0:0|2:0,0:0:0:0:
232,108,88546,1,0,0:0:0:0:
176,4,88696,1,2,2:0:0:0:
296,12,88846,2,0,P|348:36|368:68,1,90.9999958343508,0|2,0:0|2:0,0:0:0:0:
380,216,89146,5,0,0:0:0:0:
243,216,89296,1,0,0:0:0:0:
106,216,89446,1,0,0:0:0:0:
243,353,89596,1,0,0:0:0:0:
243,216,89746,1,0,0:0:0:0:
243,79,89896,1,0,0:0:0:0:
380,216,90046,1,0,0:0:0:0:
243,216,90196,1,0,0:0:0:0:
152,112,90346,6,0,L|108:200,1,90.9999958343508,0|2,0:0|2:0,0:0:0:0:
168,288,90646,1,0,0:0:0:0:
245,365,90796,1,2,2:0:0:0:
322,287,90946,1,0,0:0:0:0:
244,209,91096,1,2,2:0:0:0:
193,306,91246,1,0,0:0:0:0:
288,358,91396,1,2,2:0:0:0:
340,262,91546,5,0,0:0:0:0:
244,209,91696,1,2,2:0:0:0:
294,113,91846,1,0,0:0:0:0:
391,165,91996,1,2,2:0:0:0:
316,256,92146,1,0,0:0:0:0:
234,181,92296,1,2,2:0:0:0:
306,99,92446,1,0,0:0:0:0:
388,173,92596,1,2,2:0:0:0:
256,208,92746,6,0,L|296:296,1,90.9999958343508,0|2,0:0|2:0,0:0:0:0:
436,296,93046,1,0,0:0:0:0:
391,187,93196,1,2,2:0:0:0:
296,80,93346,2,0,P|224:72|180:92,1,90.9999958343508,0|2,0:0|2:0,0:0:0:0:
207,307,93646,2,0,P|252:314|296:304,1,90.9999958343508,0|2,0:0|2:0,0:0:0:0:
256,192,93946,5,0,0:0:0:0:
339,108,94096,1,0,0:0:0:0:
256,192,94246,1,0,0:0:0:0:
159,99,94396,1,0,0:0:0:0:
256,192,94546,1,0,0:0:0:0:
365,82,94696,1,0,0:0:0:0:
256,192,94846,1,0,0:0:0:0:
133,69,94996,1,0,0:0:0:0:
133,223,95146,6,0,L|133:339,1,90.9999958343508,0|2,0:0|2:0,0:0:0:0:
216,230,95446,1,0,0:0:0:0:
299,313,95596,1,2,2:0:0:0:
382,229,95746,2,0,L|382:127,1,90.9999958343508,0|2,0:0|2:0,0:0:0:0:
496,8,96046,2,0,L|496:104,1,90.9999958343508,0|2,0:0|2:0,0:0:0:0:
496,236,96346,5,0,0:0:0:0:
341,236,96496,1,2,2:0:0:0:
432,236,96646,1,0,0:0:0:0:
277,236,96796,1,2,2:0:0:0:
384,152,96946,1,0,0:0:0:0:
229,152,97096,1,2,2:0:0:0:
320,152,97246,1,0,0:0:0:0:
165,152,97396,1,2,2:0:0:0:
144,268,97546,6,0,P|199:323|226:326,1,90.9999958343508,0|2,0:0|2:0,0:0:0:0:
328,320,97846,1,0,0:0:0:0:
400,228,97996,1,2,2:0:0:0:
396,108,98146,2,0,P|344:52|316:48,1,90.9999958343508,0|2,0:0|2:0,0:0:0:0:
212,296,98446,2,0,P|171:275|149:237,1,90.9999958343508,0|2,0:0|2:0,0:0:0:0:
100,88,98746,5,0,0:0:0:0:
96,244,98896,1,0,0:0:0:0:
232,172,99046,1,0,0:0:0:0:
388,176,99196,1,0,0:0:0:0:
308,307,99346,1,0,0:0:0:0:
176,224,99496,1,0,0:0:0:0:
312,152,99646,1,0,0:0:0:0:
172,88,99796,1,0,0:0:0:0:
172,192,99946,5,4,0:0:0:0:
172,192,100021,1,4,0:0:0:0:
172,192,100096,1,4,3:0:0:0:
172,192,100171,1,4,3:0:0:0:
172,192,100246,1,4,3:0:0:0:
172,192,100321,1,4,3:0:0:0:
172,260,100396,5,4,0:0:0:0:
172,260,100471,1,4,0:0:0:0:
172,260,100546,1,4,3:0:0:0:
172,260,100621,1,4,3:0:0:0:
172,260,100696,1,4,3:0:0:0:
172,260,100771,1,4,3:0:0:0:
228,224,100846,6,0,L|305:224,3,45.4999979171754,4|4|4|4,0:0|0:0|3:0|3:0,0:0:0:0:
331,260,101146,5,4,3:0:0:0:
331,260,101221,1,4,3:0:0:0:
331,260,101296,1,4,3:0:0:0:
331,260,101371,1,4,3:0:0:0:
331,260,101446,1,4,0:0:0:0:
331,260,101521,1,4,0:0:0:0:
331,192,101596,5,4,3:0:0:0:
331,192,101671,1,4,3:0:0:0:
331,192,101746,1,4,3:0:0:0:
331,192,101821,1,4,3:0:0:0:
331,192,101896,1,4,0:0:0:0:
331,192,101971,1,4,0:0:0:0:
273,224,102046,5,4,0:0:0:0:
273,224,102121,1,4,0:0:0:0:
273,224,102196,1,4,3:0:0:0:
273,224,102271,1,4,3:0:0:0:
273,224,102346,1,4,3:1:0:0:
40,240,102646,1,0,3:0:0:0:
255,337,102946,1,0,3:0:0:0:
472,240,103246,1,0,3:0:0:0:
256,48,103546,1,4,0:0:0:0:
256,48,103696,1,4,0:0:0:0:
256,192,103771,12,0,104746,0:0:0:0:
