osu file format v12

[General]
AudioFilename: Love Shitai.mp3
AudioLeadIn: 0
PreviewTime: 58424
Countdown: 0
SampleSet: Normal
StackLeniency: 0.7
Mode: 0
LetterboxInBreaks: 1
WidescreenStoryboard: 1

[Editor]
Bookmarks: 16226,40700
DistanceSpacing: 1
BeatDivisor: 4
GridSize: 4

[Metadata]
Title:Love Shitai! -TV Size-
TitleUnicode:恋愛したいっ! -TV Size-
Artist:Fujijo Seitokai Shikkou-bu
ArtistUnicode:藤女生徒会執行部
Creator:Dosirack
Version:Normal
Source:love lab
Tags:opening numakura manami akasaki chinatsu minase inori sakura ayane taichi you 恋愛ラボ kurahashi riko maki natsuo tanahashi suzune enomoto yuiko mizushima sayori
BeatmapID:322508
BeatmapSetID:125811

[Difficulty]
HPDrainRate:3
CircleSize:3
OverallDifficulty:3
ApproachRate:5
SliderMultiplier:1.1
SliderTickRate:2

[Events]
//Background and Video events
0,0,"love.jpg",0,0
Video,0,"[Leopard-Raws] Love Lab OP (TBS 1280x720 x264).flv"
//Break Periods
//Storyboard Layer 0 (Background)
//Storyboard Layer 1 (Fail)
//Storyboard Layer 2 (Pass)
//Storyboard Layer 3 (Foreground)
//Storyboard Sound Samples
//Background Colour Transformations
3,100,163,162,255

[TimingPoints]
2952,329.67032967033,4,1,1,70,1,0
2952,-100,4,2,1,70,0,0
9545,-100,4,1,1,50,0,0
14160,-100,4,3,0,60,0,0
14407,-100,4,1,2,60,0,0
15149,-100,4,1,1,60,0,0
18446,-100,4,2,2,60,0,0
18611,-100,4,1,1,60,0,0
22649,-100,4,1,1,60,0,0
22731,-100,4,1,1,60,0,0
25039,-100,4,1,2,75,0,0
25122,-100,4,2,0,75,0,0
25204,-100,4,2,0,75,0,0
25304,-100,4,2,1,75,0,0
25698,-100,4,2,1,75,0,0
25781,-100,4,2,1,75,0,0
27512,-100,4,2,3,75,0,0
27594,-100,4,2,2,75,0,0
27759,-100,4,2,1,75,0,0
30314,-100,4,2,2,75,0,0
32457,-100,4,1,2,75,0,0
32622,-100,4,2,1,75,0,0
33281,-100,4,1,2,75,0,0
33363,-100,4,2,1,75,0,0
34600,-100,4,2,1,75,0,0
40698,-100,4,2,2,75,0,0
41028,-100,4,2,1,75,0,0
42347,-100,4,1,2,75,0,0
43006,-100,4,2,1,75,0,0
43501,-100,4,2,2,75,0,0
44160,-100,4,2,2,75,0,0
44242,-100,4,2,1,75,0,0
45808,-100,4,3,0,75,0,0
45891,-100,4,2,1,75,0,0
46224,-133.333333333333,4,2,1,75,0,0
46389,-133.333333333333,4,2,1,75,0,0
50753,-133.333333333333,4,2,2,75,0,0
50836,-133.333333333333,4,2,1,75,0,0
51499,-100,4,2,1,75,0,0
52072,-100,4,2,2,75,0,0
52154,-100,4,2,1,75,0,0
52567,-100,4,2,2,75,0,0
52814,-100,4,2,1,75,0,0
53391,-100,4,2,2,75,0,0
53473,-100,4,2,1,75,0,0
53885,-100,4,2,2,75,0,0
54132,-100,4,2,1,75,0,0
56028,-100,4,2,2,75,0,0
56111,-100,4,2,1,75,0,0
58501,-100,4,2,1,75,0,1
58995,-100,4,3,0,75,0,1
59325,-100,4,1,2,60,0,1
63281,-100,4,1,3,60,0,1
63363,-100,4,1,2,60,0,1
64929,-100,4,1,3,60,0,1
66578,-100,4,1,2,60,0,1
67567,-100,4,1,3,60,0,1
67649,-100,4,1,2,60,0,1
69297,-100,4,1,2,60,0,1
71852,-100,4,1,3,60,0,1
71935,-100,4,1,2,60,0,1
80094,-100,4,3,0,60,0,1
80341,-100,4,1,2,60,0,1
80753,-100,4,1,0,60,0,0
81083,-100,4,2,1,60,0,0
83226,-100,4,2,0,5,0,0
83720,-100,4,2,1,75,0,0
83803,-100,4,2,1,30,0,0
84050,-100,4,2,1,75,0,0
84380,-100,4,2,1,75,0,0
84462,-100,4,2,1,75,0,0
87017,-100,4,2,1,75,0,0
88995,-100,4,2,2,75,0,0
89078,-100,4,2,1,75,0,0
91142,-100,4,2,1,5,0,0

[Colours]
Combo1 : 255,255,255
Combo2 : 64,226,244
Combo3 : 60,207,48

[HitObjects]
72,200,3116,2,0,P|112:276|224:280,1,165
188,184,3940,2,0,L|304:184,1,110,0|12,0:0|0:0,0:0:0:0:
390,249,4929,6,0,P|410:193|398:141,1,110
298,185,5589,2,0,P|238:165|206:121,1,110,12|0,0:0|0:0,0:0:0:0:
304,76,6248,1,0,0:0:0:0:
208,24,6578,1,0,0:0:0:0:
208,24,6907,1,12,0:0:0:0:
72,200,7567,6,0,L|48:308,1,110
144,360,8226,2,0,P|216:376|268:360,1,110,12|0,0:0|0:0,0:0:0:0:
292,332,8720,2,0,P|360:296|404:300,1,110,12|0,0:0|0:0,0:0:0:0:
460,148,9545,5,8,0:0:0:0:
376,76,9874,1,8,0:0:0:0:
308,164,10204,1,8,0:0:0:0:
220,100,10534,1,8,0:0:0:0:
132,36,10863,6,0,P|108:86|117:141,1,110,8|8,0:0|0:0,0:0:0:0:
204,203,11523,2,0,P|227:152|218:97,1,110,8|8,0:0|0:0,0:0:0:0:
116,138,12182,6,0,L|60:134,3,55
16,236,13006,1,0,0:0:0:0:
88,316,13336,1,0,0:0:0:0:
244,260,13830,6,0,P|296:240|358:269,1,110,0|8,0:0|0:0,0:0:0:0:
300,356,14490,1,8,0:0:0:0:
300,356,14819,1,4,0:0:0:0:
408,340,15149,6,0,P|444:296|448:239,1,110,8|0,0:0|0:0,0:0:0:0:
404,144,15808,1,8,0:0:0:0:
296,168,16138,2,0,P|261:209|254:263,1,110,0|8,0:0|0:0,0:0:0:0:
321,350,16797,2,0,P|355:308|362:254,1,110,0|8,0:0|0:0,0:0:0:0:
254,264,17457,6,0,L|138:264,1,110,0|8,0:0|0:0,0:0:0:0:
52,204,18116,2,0,P|68:116|136:68,1,165,0|0,0:0|0:0,0:0:0:0:
202,148,18940,2,0,L|266:148,2,55,0|8|0,0:0|0:0|0:0,0:0:0:0:
107,204,19600,2,0,L|43:204,1,55,0|8,0:0|0:0,0:0:0:0:
8,304,20094,5,0,0:0:0:0:
100,364,20424,1,8,0:0:0:0:
208,340,20753,1,0,0:0:0:0:
244,236,21083,1,8,0:0:0:0:
328,164,21413,2,0,P|328:112|364:64,1,110,0|8,0:0|0:0,0:0:0:0:
436,148,22072,2,0,L|496:168,2,55,0|0|8,0:0|0:0|0:0,0:0:0:0:
328,164,22731,6,0,P|264:184|212:168,1,110,0|8,0:0|0:0,0:0:0:0:
260,72,23391,2,0,P|206:62|155:82,1,110,0|8,0:0|0:0,0:0:0:0:
112,184,24050,2,0,P|100:240|64:288,2,110,0|8|0,0:0|0:0|0:0,0:0:0:0:
112,184,25039,1,2,0:0:0:0:
192,260,25369,6,0,P|244:280|308:264,1,110,0|8,0:0|0:0,0:0:0:0:
388,332,26028,2,0,P|408:280|392:216,1,110,0|8,0:0|0:0,0:0:0:0:
308,168,26687,1,0,0:0:0:0:
368,76,27017,2,0,B|320:40|244:56|212:112|212:112|156:88,1,220,8|8,0:0|0:0,0:0:0:0:
68,128,28006,6,0,P|62:74|89:26,1,110,0|8,0:0|0:0,0:0:0:0:
176,96,28665,1,0,0:0:0:0:
152,204,28995,1,8,0:0:0:0:
64,272,29325,2,0,L|40:328,3,55,0|0|8|0,0:0|0:0|0:0|0:0,0:0:0:0:
152,332,30149,6,0,P|220:344|268:324,1,110,0|0,0:0|0:0,0:0:0:0:
340,256,30808,2,0,P|352:188|332:140,1,110,0|0,0:0|0:0,0:0:0:0:
244,208,31468,2,0,L|132:208,1,110,0|0,0:0|0:0,0:0:0:0:
56,132,32457,5,4,0:0:0:0:
128,48,32786,2,0,L|240:48,1,110,0|8,0:0|0:0,0:0:0:0:
336,96,33446,2,0,P|320:152|344:216,1,110,0|8,0:0|0:0,0:0:0:0:
428,260,34105,2,0,P|444:204|420:140,2,110,0|8|0,0:0|0:0|0:0,0:0:0:0:
328,304,35094,5,8,0:0:0:0:
220,276,35424,1,8,0:0:0:0:
120,316,35753,2,0,B|92:300|92:300|104:224|32:160,1,165,4|8,0:0|0:0,0:0:0:0:
104,84,36578,2,0,P|160:96|208:80,1,110,0|8,0:0|0:0,0:0:0:0:
252,44,37072,5,0,0:0:0:0:
416,72,37567,1,8,0:0:0:0:
484,160,37896,2,0,L|512:272,1,110,0|8,0:0|0:0,0:0:0:0:
424,336,38556,2,0,L|396:224,1,110,0|8,0:0|0:0,0:0:0:0:
308,164,39215,6,0,P|244:156|196:180,1,110,0|8,0:0|0:0,0:0:0:0:
256,272,39874,2,0,L|212:320,3,55,0|0|8|0,0:0|0:0|0:0|0:0,0:0:0:0:
112,340,40698,2,0,P|72:284|72:228,1,110,0|0,0:0|0:0,0:0:0:0:
96,136,41358,6,0,L|137:92,2,55,0|8|0,0:0|0:0|0:0,0:0:0:0:
200,172,42017,2,0,L|268:168,2,55,0|8|4,0:0|0:0|0:0,0:0:0:0:
144,268,42676,1,4,0:0:0:0:
240,324,43006,2,0,P|352:348|432:280,1,220,4|0,0:0|0:0,0:0:0:0:
384,184,43995,6,0,P|375:123|402:68,1,110
308,8,44654,1,0,0:0:0:0:
308,8,44984,1,8,0:0:0:0:
60,132,45808,6,0,P|41:189|53:236,1,110
140,188,46468,2,0,L|248:188,1,82.5000031471254,0|8,0:0|0:0,0:0:0:0:
308,236,47127,1,0,0:0:0:0:
328,332,47457,2,0,P|396:288|400:204,1,165.000006294251,8|8,0:0|0:0,0:0:0:0:
356,124,48446,2,0,P|344:80|352:40,1,82.5000031471254,0|8,0:0|0:0,0:0:0:0:
444,80,49105,5,0,0:0:0:0:
448,180,49435,1,8,0:0:0:0:
360,224,49764,1,0,0:0:0:0:
356,124,50094,1,8,0:0:0:0:
272,72,50424,2,0,P|192:36|116:60,1,165.000006294251,0|0,0:0|0:0,0:0:0:0:
72,144,51413,1,8,0:0:0:0:
120,240,51742,6,0,B|88:296|88:296|120:332|168:352|236:340,1,220,4|0,0:0|0:0,0:0:0:0:
320,276,52731,1,8,0:0:0:0:
412,336,53061,2,0,B|448:292|432:216|392:188|392:188|432:120,1,220,4|0,0:0|0:0,0:0:0:0:
388,36,54050,1,8,0:0:0:0:
288,80,54380,6,0,P|232:88|168:60,1,110,0|8,0:0|0:0,0:0:0:0:
88,132,55039,1,0,0:0:0:0:
160,216,55369,1,8,0:0:0:0:
88,300,55698,2,0,B|136:348|204:336|240:296|240:296|304:328,1,220,0|0,0:0|0:0,0:0:0:0:
396,284,56688,2,0,L|432:224,1,55,8|0,0:0|0:0,0:0:0:0:
368,144,57182,2,0,L|332:204,1,55,0|8,0:0|0:0,0:0:0:0:
256,192,57512,12,0,58501,0:0:0:0:
156,96,58995,5,0,0:0:0:0:
256,48,59325,1,8,0:0:0:0:
348,108,59654,2,0,P|376:176|416:200,1,110,4|8,0:0|0:0,0:0:0:0:
436,300,60314,6,0,P|384:320|316:308,1,110,0|8,0:0|0:0,0:0:0:0:
248,244,60973,2,0,P|193:238|143:258,1,110,0|8,0:0|0:0,0:0:0:0:
48,200,61632,2,0,L|16:84,2,110,0|8|0,0:0|0:0|0:0,0:0:0:0:
76,308,62622,1,8,0:0:0:0:
180,348,62951,6,0,P|293:309|389:361,1,220,0|0,0:0|0:0,0:0:0:0:
476,296,63940,2,0,L|500:232,1,55,8|0,0:0|0:0,0:0:0:0:
440,148,64435,1,0,0:0:0:0:
344,200,64764,6,0,P|287:185|241:122,1,110,0|0,0:0|0:0,0:0:0:0:
264,40,65424,2,0,P|200:52|160:96,1,110,0|0,0:0|0:0,0:0:0:0:
144,188,66083,2,0,P|136:252|104:296,2,110,0|0|8,0:0|0:0|0:0,0:0:0:0:
36,208,67072,1,8,0:0:0:0:
76,104,67402,6,0,B|120:68|188:72|224:112|224:112|284:76,1,220,8|8,0:0|0:0,0:0:0:0:
380,108,68391,1,0,0:0:0:0:
380,108,68720,1,8,0:0:0:0:
313,196,69050,6,0,P|303:295|347:344,1,165,12|8,0:0|0:0,0:0:0:0:
408,253,69874,2,0,P|425:193|409:145,1,110,8|0,0:0|0:0,0:0:0:0:
316,91,70534,1,8,0:0:0:0:
215,134,70863,2,0,P|151:146|101:120,1,110,0|8,0:0|0:0,0:0:0:0:
71,90,71358,6,0,P|84:209|24:292,1,220,0|0,0:0|0:0,0:0:0:0:
186,339,72512,2,0,P|246:319|304:336,1,110,8|0,0:0|0:0,0:0:0:0:
389,279,73171,6,0,P|401:217|388:169,1,110,8|0,0:0|0:0,0:0:0:0:
292,224,73830,1,8,0:0:0:0:
196,168,74160,2,0,P|184:230|197:278,2,110,0|8|0,0:0|0:0|0:0,0:0:0:0:
276,96,75149,1,8,0:0:0:0:
364,160,75479,5,0,0:0:0:0:
364,160,75973,1,0,0:0:0:0:
248,280,76468,1,8,0:0:0:0:
144,244,76797,5,0,0:0:0:0:
144,244,77292,1,0,0:0:0:0:
104,84,77786,1,8,0:0:0:0:
204,128,78116,6,0,P|268:136|324:116,1,110,0|8,0:0|0:0,0:0:0:0:
380,40,78775,2,0,P|416:92|416:148,1,110,0|8,0:0|0:0,0:0:0:0:
392,184,79270,1,0,0:0:0:0:
268,300,79764,5,8,0:0:0:0:
168,252,80094,2,0,L|56:236,2,110,0|8|12,0:0|0:0|0:0,0:0:0:0:
260,192,81083,6,0,P|276:132|264:84,1,110,8|0,0:0|0:0,0:0:0:0:
168,136,81742,1,8,0:0:0:0:
164,244,82072,2,0,P|212:292|284:296,1,110,0|8,0:0|0:0,0:0:0:0:
348,248,82731,2,0,P|300:200|228:196,1,110,0|8,0:0|0:0,0:0:0:0:
164,244,83391,5,0,0:0:0:0:
168,136,83720,2,0,P|154:74|171:27,2,110,8|0|8,0:0|0:0|0:0,0:0:0:0:
264,84,84709,2,0,L|384:84,1,110,0|8,0:0|0:0,0:0:0:0:
424,108,85204,2,0,P|464:172|444:272,1,165,0|8,0:0|0:0,0:0:0:0:
372,332,86028,6,0,P|344:277|353:225,1,110,0|8,0:0|0:0,0:0:0:0:
248,264,86687,2,0,P|248:209|218:164,1,110,0|8,0:0|0:0,0:0:0:0:
140,244,87347,2,0,L|64:324,2,110,0|8|0,0:0|0:0|0:0,0:0:0:0:
116,136,88336,1,8,0:0:0:0:
220,172,88665,6,0,P|288:176|392:68,1,220,0|0,0:0|0:0,0:0:0:0:
492,32,89654,1,8,0:0:0:0:
508,140,89984,2,0,L|520:252,1,110,0|8,0:0|0:0,0:0:0:0:
432,316,90643,2,0,L|420:204,1,110,0|8,0:0|0:0,0:0:0:0:
256,192,91138,12,0,93611,0:0:0:0:
