osu file format v14

[General]
AudioFilename: mmmppp333.mp3
AudioLeadIn: 2000
PreviewTime: 55061
Countdown: 0
SampleSet: Soft
StackLeniency: 0.7
Mode: 0
LetterboxInBreaks: 0
WidescreenStoryboard: 1

[Editor]
DistanceSpacing: 0.8
BeatDivisor: 4
GridSize: 4
TimelineZoom: 1.3

[Metadata]
Title:Best FriendS
TitleUnicode:Best FriendS
Artist:Fujijo Seitokai Shikkou-bu
ArtistUnicode:藤女生徒会執行部
Creator:No Dap
Version:SCV's Normal
Source:LOVE LAB
Tags:恋愛ラブラボ ending kaburagi kotetsu sonnyc helloscv setz setz206
BeatmapID:584935
BeatmapSetID:249939

[Difficulty]
HPDrainRate:3
CircleSize:3
OverallDifficulty:4
ApproachRate:5
SliderMultiplier:1.19999990463257
SliderTickRate:1

[Events]
//Background and Video events
0,0,"bgbgbgb.png",0,0
//Break Periods
2,91979,100882
2,216928,224194
//Storyboard Layer 0 (Background)
//Storyboard Layer 1 (Fail)
//Storyboard Layer 2 (Pass)
//Storyboard Layer 3 (Foreground)
//Storyboard Sound Samples

[TimingPoints]
491,368.098159509202,4,2,1,40,1,0
6380,-100,4,2,1,50,0,0
17607,-100,4,2,1,50,0,0
17975,-100,4,2,1,5,0,0
18159,-100,4,2,1,45,0,0
28466,-100,4,2,1,50,0,0
29938,-100,4,2,1,45,0,0
41717,-100,4,2,1,40,0,0
49816,-100,4,2,1,50,0,0
56441,-100,4,2,1,65,0,1
57546,-100,4,2,1,65,0,1
57914,-100,4,2,1,65,0,1
59018,-100,4,2,1,65,0,1
59386,-100,4,2,1,65,0,1
67852,-100,4,2,1,65,0,0
68221,-100,4,2,1,65,0,1
77055,-100,4,2,1,30,0,0
77607,-100,4,2,1,40,0,0
78159,-100,4,2,1,50,0,0
78527,-100,4,2,1,55,0,0
79079,-100,4,2,1,60,0,0
79632,-100,4,2,1,65,0,0
80000,-100,4,2,1,70,0,0
80552,-100,4,2,1,75,0,0
81288,-100,4,2,1,80,0,0
81656,-100,4,2,1,60,0,0
82944,-100,4,2,1,50,0,0
85889,-100,4,2,1,55,0,0
87546,-100,4,2,1,45,0,0
90306,-100,4,2,1,25,0,0
101349,-100,4,2,1,50,0,0
102086,-100,4,2,1,45,0,0
112392,-100,4,2,1,50,0,0
113865,-100,4,2,1,45,0,0
125644,-100,4,2,1,45,0,0
133742,-100,4,2,1,45,0,0
140368,-100,4,2,1,65,0,1
141472,-100,4,2,1,65,0,1
141840,-100,4,2,1,65,0,1
142944,-100,4,2,1,65,0,1
143313,-100,4,2,1,65,0,1
151779,-100,4,2,1,65,0,0
152147,-100,4,2,1,65,0,1
160981,-100,4,2,1,30,0,0
161533,-100,4,2,1,40,0,0
162086,-100,4,2,1,50,0,0
162454,-100,4,2,1,55,0,0
163006,-100,4,2,1,60,0,0
163558,-100,4,2,1,65,0,0
163926,-100,4,2,1,70,0,0
164478,-100,4,2,1,75,0,0
165214,-100,4,2,1,80,0,0
165583,-100,4,2,1,60,0,0
166871,-100,4,2,1,50,0,0
230184,-100,4,2,1,65,0,1
241595,-100,4,2,1,65,0,0
241963,-100,4,2,1,65,0,1
250797,-100,4,2,1,30,0,0
251349,-100,4,2,1,50,0,0
251902,-100,4,2,1,55,0,0
252270,-100,4,2,1,60,0,0
252822,-100,4,2,1,65,0,0
253374,-100,4,2,1,70,0,0
253742,-100,4,2,1,75,0,0
255030,-100,4,2,1,80,0,0
255398,-100,4,2,1,60,0,0
256687,-100,4,2,1,50,0,0
259632,-100,4,2,1,55,0,0
261288,-100,4,2,1,45,0,0
264785,-100,4,2,1,30,0,0
266257,-100,4,2,1,20,0,0
268466,-100,4,2,1,10,0,0
269754,-100,4,2,1,5,0,0

[Colours]
Combo1 : 0,164,82
Combo2 : 0,128,255
Combo3 : 255,128,64
Combo4 : 232,0,0
Combo5 : 173,90,90

[HitObjects]
124,240,491,6,0,P|172:264|236:252,1,119.999990463257,2|8,0:0|0:0,0:0:0:0:
328,176,1227,2,0,P|376:152|440:164,1,119.999990463257,2|10,0:0|0:0,0:0:0:0:
396,276,1963,2,0,L|408:348,2,59.9999952316285,2|0|8,0:0|0:0|0:0,0:0:0:0:
352,296,2515,2,0,L|156:312,1,179.999985694886,10|10,0:0|0:0,0:0:0:0:
52,304,3435,6,0,P|64:244|108:204,1,119.999990463257,2|8,0:0|0:0,0:0:0:0:
220,172,4171,2,0,P|246:119|236:60,1,119.999990463257,2|8,0:0|0:0,0:0:0:0:
352,92,4908,2,0,L|420:84,2,59.9999952316285,2|0|8,0:0|0:0|0:0,0:0:0:0:
368,136,5460,2,0,L|388:320,1,179.999985694886,2|8,0:0|0:0,0:0:0:0:
288,380,6380,5,4,0:0:0:0:
220,284,6748,2,0,P|160:272|108:300,2,119.999990463257,10|2|8,0:0|0:0|0:0,0:0:0:0:
252,320,7668,2,0,L|252:200,1,119.999990463257,2|2,0:0|0:0,0:0:0:0:
292,176,8221,2,0,L|292:116,1,59.9999952316285,10|10,0:0|0:0,0:0:0:0:
188,56,8773,2,0,L|188:116,2,59.9999952316285,2|8|2,0:0|0:0|0:0,0:0:0:0:
96,132,9509,6,0,L|96:72,2,59.9999952316285,0|12|0,0:0|0:0|0:0,0:0:0:0:
4,52,10245,2,0,L|4:112,1,59.9999952316285,2|8,0:0|0:0,0:0:0:0:
0,160,10613,1,2,0:0:0:0:
20,204,10797,2,0,P|73:233|133:222,1,119.999990463257,2|10,0:0|0:0,0:0:0:0:
236,164,11533,2,0,P|294:158|348:188,1,119.999990463257,2|10,0:0|0:0,0:0:0:0:
272,280,12270,5,2,0:0:0:0:
384,320,12638,1,12,0:0:0:0:
492,268,13006,2,0,L|502:327,2,59.9999952316285,2|0|10,0:0|0:0|0:0,0:0:0:0:
452,240,13558,2,0,P|436:192|456:120,1,119.999990463257,2|2,0:0|0:0,0:0:0:0:
488,96,14110,2,0,L|368:84,1,119.999990463257,8|2,0:0|0:0,0:0:0:0:
248,76,14846,1,10,0:0:0:0:
308,180,15214,6,0,L|316:248,2,59.9999952316285,2|2|10,0:0|0:0|0:0,0:0:0:0:
196,228,15951,2,0,L|188:296,2,59.9999952316285,2|2|10,0:0|0:0|0:0,0:0:0:0:
76,224,16687,2,0,L|68:164,2,59.9999952316285,2|2|10,0:0|0:0|0:0,0:0:0:0:
52,264,17239,1,10,0:0:0:0:
24,304,17423,2,0,L|31:363,1,59.9999952316285,10|10,0:0|0:0,0:0:0:0:
168,248,18159,6,0,P|220:224|320:284,1,179.999985694886,4|0,0:0|0:0,0:0:0:0:
332,328,18895,2,0,P|340:264|380:224,1,119.999990463257,2|8,0:0|0:0,0:0:0:0:
424,212,19448,1,0,0:0:0:0:
472,216,19632,2,0,L|456:96,2,119.999990463257,2|8|2,0:0|0:0|0:0,0:0:0:0:
464,336,20736,1,8,0:0:0:0:
352,296,21104,6,0,P|292:288|236:312,1,119.999990463257,2|8,0:0|0:0,0:0:0:0:
120,312,21840,2,0,P|80:268|67:210,1,119.999990463257,2|8,0:0|0:0,0:0:0:0:
88,168,22392,1,0,0:0:0:0:
100,120,22576,2,0,P|84:60|32:28,2,119.999990463257,2|8|2,0:0|0:0|0:0,0:0:0:0:
176,212,23681,1,8,0:0:0:0:
272,140,24049,5,2,0:0:0:0:
368,216,24417,2,0,L|492:228,2,119.999990463257,8|2|8,0:0|0:0|0:0,0:0:0:0:
272,288,25521,2,0,B|220:272|184:288|184:288|148:304|96:288,2,179.999985694886,2|2|8,0:0|0:0|0:0,0:0:0:0:
380,340,26994,6,0,L|360:160,2,179.999985694886,2|2|8,0:0|0:0|0:0,0:0:0:0:
340,364,28282,1,0,0:0:0:0:
300,336,28466,2,0,L|228:348,2,59.9999952316285,10|10|0,0:0|0:0|0:0,0:0:0:0:
228,240,29202,2,0,L|287:230,2,59.9999952316285,10|10|0,0:0|0:0|0:0,0:0:0:0:
112,216,29938,6,0,P|140:160|80:60,1,179.999985694886,4|0,0:0|0:0,0:0:0:0:
124,28,30675,2,0,L|252:16,1,119.999990463257,2|8,0:0|0:0,0:0:0:0:
284,44,31227,1,0,0:0:0:0:
324,72,31411,2,0,B|380:92|380:92|440:80,2,119.999990463257,2|8|2,0:0|0:0|0:0,0:0:0:0:
256,168,32515,1,8,0:0:0:0:
352,244,32883,6,0,L|344:368,1,119.999990463257,2|8,0:0|0:0,0:0:0:0:
252,288,33619,2,0,P|196:272|136:284,1,119.999990463257,2|8,0:0|0:0,0:0:0:0:
96,308,34171,1,0,0:0:0:0:
64,344,34356,2,0,P|24:300|20:236,2,119.999990463257,2|8|2,0:0|0:0|0:0,0:0:0:0:
180,380,35460,1,8,0:0:0:0:
292,332,35828,5,2,0:0:0:0:
336,316,36012,2,0,L|400:324,2,59.9999952316285,0|8|2,0:0|0:0|0:0,0:0:0:0:
240,244,36748,2,0,L|180:251,2,59.9999952316285,2|8|2,0:0|0:0|0:0,0:0:0:0:
340,176,37484,2,0,L|399:183,2,59.9999952316285,2|8|2,0:0|0:0|0:0,0:0:0:0:
232,120,38221,2,0,L|112:134,1,119.999990463257,2|2,0:0|0:0,0:0:0:0:
68,144,38773,6,0,P|104:196|104:268,1,119.999990463257,2|10,0:0|0:0,0:0:0:0:
56,360,39509,2,0,P|108:372|176:348,1,119.999990463257,2|10,0:0|0:0,0:0:0:0:
264,280,40245,2,0,P|320:260|388:280,1,119.999990463257,2|8,0:0|0:0,0:0:0:0:
412,304,40797,1,0,0:0:0:0:
440,344,40981,2,0,L|452:220,1,119.999990463257,8|8,0:0|0:0,0:0:0:0:
388,124,41717,6,0,P|448:104|508:124,2,119.999990463257,4|2|2,0:0|0:0|0:0,0:0:0:0:
304,212,42822,1,2,0:0:0:0:
224,304,43190,2,0,P|164:324|104:304,1,119.999990463257,2|2,0:0|0:0,0:0:0:0:
80,272,43742,2,0,L|72:144,1,119.999990463257,0|0,0:0|0:0,0:0:0:0:
100,112,44294,1,10,0:0:0:0:
220,96,44662,6,0,P|268:68|288:4,2,119.999990463257,2|2|2,0:0|0:0|0:0,0:0:0:0:
100,112,45767,1,2,0:0:0:0:
168,212,46135,2,0,L|152:344,1,119.999990463257,2|2,0:0|0:0,0:0:0:0:
180,372,46687,2,0,P|236:380|296:348,1,119.999990463257,0|0,0:0|0:0,0:0:0:0:
316,312,47239,1,10,0:0:0:0:
284,196,47607,6,0,P|356:196|400:232,1,119.999990463257,2|2,0:0|0:0,0:0:0:0:
464,320,48343,2,0,L|492:196,1,119.999990463257,2|2,0:0|0:0,0:0:0:0:
424,104,49079,2,0,L|416:44,2,59.9999952316285,2|0|2,0:0|0:0|0:0,0:0:0:0:
396,140,49632,1,0,0:0:0:0:
276,124,50000,6,0,L|212:136,2,59.9999952316285,2|8|2,0:0|0:0|0:0,0:0:0:0:
208,224,50736,2,0,L|146:202,2,59.9999952316285,2|8|2,0:0|0:0|0:0,0:0:0:0:
96,268,51472,2,0,L|53:218,1,59.9999952316285,2|8,0:0|0:0,0:0:0:0:
24,188,51840,2,0,P|32:256|0:316,1,119.999990463257,2|0,0:0|0:0,0:0:0:0:
16,348,52392,2,0,L|156:368,1,119.999990463257,8|2,0:0|0:0,0:0:0:0:
248,332,53129,1,8,0:0:0:0:
272,292,53313,6,0,P|344:268|388:284,2,119.999990463257,12|8|8,0:0|0:0|0:0,0:0:0:0:
224,296,54233,2,0,L|208:228,1,59.9999952316285,8|8,0:0|0:0,0:0:0:0:
196,192,54601,1,8,0:0:0:0:
224,156,54785,6,0,L|228:92,2,59.9999952316285,10|10|10,0:0|0:0|0:0,0:0:0:0:
344,144,55521,1,0,0:0:0:0:
384,120,55705,2,0,L|520:144,1,119.999990463257,8|8,0:0|0:0,0:0:0:0:
412,220,56441,6,0,P|364:248|300:240,1,119.999990463257,4|8,0:0|0:0,0:0:0:0:
264,212,56994,1,10,0:0:0:0:
228,180,57178,2,0,P|169:172|117:200,1,119.999990463257,2|10,0:0|0:0,0:0:0:0:
84,316,57914,2,0,P|29:293|2:235,1,119.999990463257,2|8,0:0|0:0,0:0:0:0:
8,192,58466,1,10,0:0:0:0:
44,160,58650,2,0,P|68:112|60:40,1,119.999990463257,2|10,0:0|0:0,0:0:0:0:
176,92,59386,6,0,L|295:82,1,119.999990463257,2|10,0:0|0:0,0:0:0:0:
320,200,60122,2,0,L|200:209,1,119.999990463257,2|8,0:0|0:0,0:0:0:0:
92,264,60859,2,0,P|88:292|100:328,1,59.9999952316285,2|0,0:0|0:0,0:0:0:0:
136,348,61227,2,0,L|204:344,1,59.9999952316285,8|10,0:0|0:0,0:0:0:0:
240,360,61595,2,0,P|288:328|356:340,1,119.999990463257,2|10,0:0|0:0,0:0:0:0:
456,380,62331,6,0,L|448:248,1,119.999990463257,2|8,0:0|0:0,0:0:0:0:
412,228,62883,1,10,0:0:0:0:
376,196,63067,2,0,L|384:64,1,119.999990463257,2|8,0:0|0:0,0:0:0:0:
276,20,63803,2,0,P|216:12|156:40,2,119.999990463257,2|8|2,0:0|0:0|0:0,0:0:0:0:
232,132,64908,1,8,0:0:0:0:
312,220,65276,6,0,P|320:272|288:340,1,119.999990463257,2|8,0:0|0:0,0:0:0:0:
256,304,65828,2,0,P|208:288|140:308,1,119.999990463257,8|2,0:0|0:0,0:0:0:0:
44,236,66564,2,0,L|32:108,1,119.999990463257,4|0,0:0|0:0,0:0:0:0:
68,84,67116,2,0,L|62:20,1,59.9999952316285,8|0,0:0|0:0,0:0:0:0:
108,44,67484,2,0,P|164:64|228:40,1,119.999990463257,10|10,0:0|0:0,0:0:0:0:
340,36,68221,6,0,P|380:72|388:148,1,119.999990463257,2|12,0:0|0:0,0:0:0:0:
300,212,68957,2,0,P|296:270|330:319,1,119.999990463257,0|8,0:0|0:0,0:0:0:0:
372,340,69509,1,0,0:0:0:0:
332,364,69693,2,0,L|196:372,1,119.999990463257,2|8,0:0|0:0,0:0:0:0:
120,296,70429,2,0,L|0:288,1,119.999990463257,2|8,0:0|0:0,0:0:0:0:
80,196,71165,6,0,B|96:132|96:132|76:76,1,119.999990463257,2|8,0:0|0:0,0:0:0:0:
188,132,71902,2,0,L|316:120,1,119.999990463257,2|8,0:0|0:0,0:0:0:0:
348,148,72454,1,0,0:0:0:0:
332,192,72638,2,0,P|340:252|380:296,1,119.999990463257,2|8,0:0|0:0,0:0:0:0:
452,200,73374,1,2,0:0:0:0:
436,80,73742,1,8,0:0:0:0:
320,56,74110,6,0,L|176:72,1,119.999990463257,4|8,0:0|0:0,0:0:0:0:
156,88,74662,1,10,0:0:0:0:
132,132,74846,2,0,P|152:188|136:252,1,119.999990463257,2|8,0:0|0:0,0:0:0:0:
52,328,75583,1,2,0:0:0:0:
164,372,75951,1,8,0:0:0:0:
272,320,76319,1,0,0:0:0:0:
388,296,76687,2,0,L|452:308,1,59.9999952316285,8|0,0:0|0:0,0:0:0:0:
492,320,77055,6,0,P|460:264|464:208,1,119.999990463257,10|8,0:0|0:0,0:0:0:0:
484,168,77607,2,0,P|516:112|512:56,1,119.999990463257,10|8,0:0|0:0,0:0:0:0:
396,80,78343,1,8,0:0:0:0:
352,100,78527,2,0,L|224:84,1,119.999990463257,10|8,0:0|0:0,0:0:0:0:
188,104,79079,2,0,L|60:88,1,119.999990463257,10|8,0:0|0:0,0:0:0:0:
188,224,80000,6,0,P|272:200|351:239,2,179.999985694886,10|10|8,0:0|0:0|0:0,0:0:0:0:
164,264,81288,1,12,0:0:0:0:
76,344,81656,2,0,P|52:304|52:244,4,89.9999928474428,4|2|4|2|2,0:0|0:0|0:0|0:0|0:0,0:0:0:0:
120,360,82944,6,0,L|248:352,1,119.999990463257,4|8,0:0|0:0,0:0:0:0:
336,280,83681,2,0,L|455:287,1,119.999990463257,0|8,0:0|0:0,0:0:0:0:
496,264,84233,1,0,0:0:0:0:
464,228,84417,2,0,P|448:176|468:116,1,119.999990463257,0|8,0:0|0:0,0:0:0:0:
488,72,84969,1,8,0:0:0:0:
372,48,85337,6,0,L|296:44,2,59.9999952316285,2|10|10,0:0|0:0|0:0,0:0:0:0:
308,148,86073,2,0,L|384:144,2,59.9999952316285,0|8|12,0:0|0:0|0:0,0:0:0:0:
356,256,86810,2,0,L|280:252,2,59.9999952316285,0|8|12,0:0|0:0|0:0,0:0:0:0:
468,296,87546,6,0,P|476:244|452:180,1,119.999990463257,2|2,0:0|0:0,0:0:0:0:
412,156,88098,2,0,P|404:104|428:40,1,119.999990463257,2|0,0:0|0:0,0:0:0:0:
464,12,88650,1,10,0:0:0:0:
344,24,89018,2,0,L|272:16,1,59.9999952316285,2|8,0:0|0:0,0:0:0:0:
172,56,89570,1,2,0:0:0:0:
224,164,89938,2,0,L|283:153,1,59.9999952316285,2|2,0:0|0:0,0:0:0:0:
256,192,90306,12,0,91779,0:0:0:0:
312,300,102086,6,0,P|340:248|336:188,1,119.999990463257,4|8,0:0|0:0,0:0:0:0:
252,104,102822,2,0,P|224:156|228:216,1,119.999990463257,2|8,0:0|0:0,0:0:0:0:
232,264,103374,1,0,0:0:0:0:
200,296,103558,2,0,L|80:284,2,119.999990463257,2|8|2,0:0|0:0|0:0,0:0:0:0:
300,364,104662,1,8,0:0:0:0:
408,308,105030,6,0,L|424:184,1,119.999990463257,2|8,0:0|0:0,0:0:0:0:
472,80,105767,2,0,P|420:68|356:92,1,119.999990463257,2|8,0:0|0:0,0:0:0:0:
328,124,106319,1,0,0:0:0:0:
312,168,106503,2,0,L|192:152,2,119.999990463257,2|8|2,0:0|0:0|0:0,0:0:0:0:
424,216,107607,1,8,0:0:0:0:
436,336,107975,5,2,0:0:0:0:
316,324,108343,2,0,P|252:336|208:376,2,119.999990463257,8|2|8,0:0|0:0|0:0,0:0:0:0:
232,240,109448,2,0,L|53:216,2,179.999985694886,2|2|8,0:0|0:0|0:0,0:0:0:0:
348,216,110920,5,2,0:0:0:0:
372,100,111288,1,8,0:0:0:0:
264,44,111656,1,2,0:0:0:0:
180,128,112024,1,8,0:0:0:0:
188,176,112208,1,0,0:0:0:0:
192,224,112392,2,0,L|142:258,2,59.9999952316285,0|0|0,0:0|0:0|0:0,0:0:0:0:
284,304,113129,2,0,L|256:360,2,59.9999952316285,0|0|0,0:0|0:0|0:0,0:0:0:0:
384,372,113865,6,0,P|376:316|412:256,1,119.999990463257,4|8,0:0|0:0,0:0:0:0:
452,244,114417,1,0,0:0:0:0:
500,248,114601,2,0,L|508:124,1,119.999990463257,2|8,0:0|0:0,0:0:0:0:
408,64,115337,2,0,P|452:24|516:16,2,119.999990463257,2|8|2,0:0|0:0|0:0,0:0:0:0:
380,180,116441,1,8,0:0:0:0:
336,160,116625,1,0,0:0:0:0:
288,160,116810,6,0,L|152:188,1,119.999990463257,2|8,0:0|0:0,0:0:0:0:
112,288,117546,1,2,0:0:0:0:
24,208,117914,2,0,L|12:144,1,59.9999952316285,8|0,0:0|0:0,0:0:0:0:
48,116,118282,2,0,L|60:52,2,59.9999952316285,2|0|8,0:0|0:0|0:0,0:0:0:0:
168,136,119018,1,2,0:0:0:0:
224,112,119202,2,0,L|292:124,1,59.9999952316285,2|8,0:0|0:0,0:0:0:0:
376,184,119754,5,2,0:0:0:0:
416,160,119938,2,0,L|424:96,2,59.9999952316285,0|8|2,0:0|0:0|0:0,0:0:0:0:
312,96,120675,2,0,L|303:32,2,59.9999952316285,2|8|2,0:0|0:0|0:0,0:0:0:0:
192,88,121411,2,0,L|166:28,2,59.9999952316285,2|8|2,0:0|0:0|0:0,0:0:0:0:
76,116,122147,2,0,L|60:244,1,119.999990463257,2|2,0:0|0:0,0:0:0:0:
56,284,122699,6,0,P|112:268|176:284,1,119.999990463257,2|10,0:0|0:0,0:0:0:0:
288,316,123435,2,0,P|344:298|380:248,1,119.999990463257,2|10,0:0|0:0,0:0:0:0:
272,200,124171,2,0,P|256:144|280:88,1,119.999990463257,2|8,0:0|0:0,0:0:0:0:
320,60,124724,2,0,L|200:48,1,119.999990463257,0|0,0:0|0:0,0:0:0:0:
152,44,125276,1,8,0:0:0:0:
52,112,125644,6,0,P|40:168|64:228,1,119.999990463257,4|2,0:0|0:0,0:0:0:0:
180,252,126380,2,0,P|201:307|189:365,1,119.999990463257,2|2,0:0|0:0,0:0:0:0:
304,324,127116,2,0,L|372:332,2,59.9999952316285,2|0|2,0:0|0:0|0:0,0:0:0:0:
332,284,127668,2,0,P|320:220|284:168,1,119.999990463257,0|0,0:0|0:0,0:0:0:0:
248,148,128221,1,10,0:0:0:0:
340,68,128589,6,0,L|468:80,1,119.999990463257,2|2,0:0|0:0,0:0:0:0:
412,188,129325,2,0,L|292:176,1,119.999990463257,2|2,0:0|0:0,0:0:0:0:
180,220,130061,2,0,L|120:214,2,59.9999952316285,2|0|2,0:0|0:0|0:0,0:0:0:0:
216,252,130613,2,0,P|184:292|196:364,1,119.999990463257,0|0,0:0|0:0,0:0:0:0:
232,384,131165,1,10,0:0:0:0:
336,324,131533,6,0,P|384:308|452:328,1,119.999990463257,2|2,0:0|0:0,0:0:0:0:
412,212,132270,2,0,L|420:80,1,119.999990463257,2|2,0:0|0:0,0:0:0:0:
300,76,133006,2,0,L|288:8,2,59.9999952316285,2|0|2,0:0|0:0|0:0,0:0:0:0:
268,112,133558,1,0,0:0:0:0:
148,112,133926,6,0,L|88:116,2,59.9999952316285,2|8|2,0:0|0:0|0:0,0:0:0:0:
228,204,134662,2,0,L|288:208,2,59.9999952316285,2|8|10,0:0|0:0|0:0,0:0:0:0:
140,284,135398,2,0,L|80:288,2,59.9999952316285,2|8|2,0:0|0:0|0:0,0:0:0:0:
248,340,136135,2,0,L|308:344,1,59.9999952316285,2|8,0:0|0:0,0:0:0:0:
356,332,136503,1,2,0:0:0:0:
388,296,136687,2,0,P|380:236|416:184,1,119.999990463257,0|2,0:0|0:0,0:0:0:0:
456,168,137239,6,0,P|448:104|336:72,1,179.999985694886,4|8,0:0|0:0,0:0:0:0:
252,132,138159,2,0,P|188:152|136:140,1,119.999990463257,8|8,0:0|0:0,0:0:0:0:
100,112,138711,2,0,P|84:88|80:52,2,59.9999952316285,10|10|10,0:0|0:0|0:0,0:0:0:0:
28,208,139448,1,0,0:0:0:0:
60,244,139632,2,0,L|188:260,1,119.999990463257,8|8,0:0|0:0,0:0:0:0:
272,336,140368,6,0,P|324:300|384:303,1,119.999990463257,4|8,0:0|0:0,0:0:0:0:
420,324,140920,1,10,0:0:0:0:
452,360,141104,2,0,L|460:240,1,119.999990463257,2|10,0:0|0:0,0:0:0:0:
380,152,141840,2,0,P|360:96|384:32,1,119.999990463257,2|8,0:0|0:0,0:0:0:0:
333,20,142392,1,10,0:0:0:0:
288,36,142576,2,0,L|156:36,1,119.999990463257,2|8,0:0|0:0,0:0:0:0:
64,96,143313,6,0,P|108:140|168:148,1,119.999990463257,2|8,0:0|0:0,0:0:0:0:
256,224,144049,2,0,P|314:234|355:276,1,119.999990463257,2|8,0:0|0:0,0:0:0:0:
436,368,144785,2,0,P|460:344|472:312,1,59.9999952316285,2|0,0:0|0:0,0:0:0:0:
460,272,145153,2,0,P|444:240|444:216,1,59.9999952316285,8|10,0:0|0:0,0:0:0:0:
464,172,145521,2,0,P|472:116|432:60,1,119.999990463257,2|8,0:0|0:0,0:0:0:0:
348,144,146257,6,0,L|216:140,1,119.999990463257,2|8,0:0|0:0,0:0:0:0:
188,168,146810,1,10,0:0:0:0:
148,196,146994,2,0,L|128:64,1,119.999990463257,2|8,0:0|0:0,0:0:0:0:
12,68,147730,2,0,L|29:186,1,119.999990463257,2|8,0:0|0:0,0:0:0:0:
56,304,148466,1,2,0:0:0:0:
168,264,148834,1,8,0:0:0:0:
280,308,149202,6,0,L|408:296,1,119.999990463257,2|8,0:0|0:0,0:0:0:0:
436,268,149754,2,0,P|408:216|420:152,1,119.999990463257,10|10,0:0|0:0,0:0:0:0:
456,132,150306,1,8,0:0:0:0:
432,88,150490,2,0,B|380:72|344:84|344:84|304:96|256:80,1,179.999985694886,4|8,0:0|0:0,0:0:0:0:
152,20,151411,2,0,L|160:148,1,119.999990463257,10|10,0:0|0:0,0:0:0:0:
160,260,152147,6,0,P|216:232|276:244,1,119.999990463257,0|12,0:0|0:0,0:0:0:0:
232,356,152883,2,2,P|176:384|116:372,1,119.999990463257,2|8,0:0|0:0,0:0:0:0:
84,344,153435,1,0,0:0:0:0:
64,300,153619,2,0,L|68:164,1,119.999990463257,2|8,0:0|0:0,0:0:0:0:
184,152,154356,2,0,L|180:16,1,119.999990463257,2|8,0:0|0:0,0:0:0:0:
284,96,155092,6,0,B|344:100|344:100|404:76,1,119.999990463257,2|8,0:0|0:0,0:0:0:0:
476,172,155828,2,0,L|352:222,1,119.999990463257,2|8,0:0|0:0,0:0:0:0:
320,232,156380,1,0,0:0:0:0:
276,212,156564,2,0,P|216:204|160:236,2,119.999990463257,2|8|2,0:0|0:0|0:0,0:0:0:0:
240,328,157668,1,8,0:0:0:0:
360,308,158037,6,0,L|376:176,1,119.999990463257,4|8,0:0|0:0,0:0:0:0:
416,164,158589,1,8,0:0:0:0:
460,144,158773,2,0,P|476:80|452:32,1,119.999990463257,2|8,0:0|0:0,0:0:0:0:
352,96,159509,1,2,0:0:0:0:
236,120,159877,1,8,0:0:0:0:
132,56,160245,1,2,0:0:0:0:
56,148,160613,2,0,L|64:212,1,59.9999952316285,8|0,0:0|0:0,0:0:0:0:
52,252,160981,6,0,P|108:228|164:244,1,119.999990463257,10|8,0:0|0:0,0:0:0:0:
196,280,161533,2,0,P|252:295|306:271,1,119.999990463257,10|8,0:0|0:0,0:0:0:0:
348,156,162270,1,8,0:0:0:0:
372,112,162454,2,0,P|420:88|488:108,1,119.999990463257,10|8,0:0|0:0,0:0:0:0:
496,148,163006,2,0,L|508:272,1,119.999990463257,10|8,0:0|0:0,0:0:0:0:
332,220,163926,6,0,L|314:40,2,179.999985694886,10|10|8,0:0|0:0|0:0,0:0:0:0:
312,264,165214,1,12,0:0:0:0:
208,328,165583,2,0,L|116:352,4,89.9999928474428,4|2|4|2|2,0:0|0:0|0:0|0:0|0:0,0:0:0:0:
228,284,166871,6,0,P|212:232|156:200,1,119.999990463257,4|8,0:0|0:0,0:0:0:0:
108,200,167423,2,0,P|70:155|73:96,1,119.999990463257,8|0,0:0|0:0,0:0:0:0:
108,64,167975,1,8,0:0:0:0:
224,100,168343,2,0,L|344:80,1,119.999990463257,12|8,0:0|0:0,0:0:0:0:
392,188,169079,2,0,L|273:207,1,119.999990463257,0|8,0:0|0:0,0:0:0:0:
152,196,169816,5,4,0:0:0:0:
192,308,170184,2,0,L|264:316,1,59.9999952316285,8|0,0:0|0:0,0:0:0:0:
368,284,170736,2,0,L|440:292,1,59.9999952316285,0|8,0:0|0:0,0:0:0:0:
496,192,171288,1,2,0:0:0:0:
456,80,171656,1,10,0:0:0:0:
336,72,172024,2,0,L|280:36,2,59.9999952316285,2|2|10,0:0|0:0|0:0,0:0:0:0:
264,168,172760,5,2,0:0:0:0:
160,108,173129,2,0,L|100:120,1,59.9999952316285,10|0,0:0|0:0,0:0:0:0:
88,164,173497,2,0,L|28:176,1,59.9999952316285,0|10,0:0|0:0,0:0:0:0:
20,296,174049,2,0,L|137:272,1,119.999990463257,0|0,0:0|0:0,0:0:0:0:
184,264,174601,1,8,0:0:0:0:
232,256,174785,2,0,P|288:268|328:328,1,119.999990463257,8|0,0:0|0:0,0:0:0:0:
324,364,175337,1,8,0:0:0:0:
440,332,175705,6,0,L|448:204,1,119.999990463257,4|8,0:0|0:0,0:0:0:0:
344,148,176441,2,0,L|336:20,1,119.999990463257,0|8,0:0|0:0,0:0:0:0:
228,84,177178,1,2,0:0:0:0:
112,60,177546,1,10,0:0:0:0:
36,152,177914,2,0,L|32:212,2,59.9999952316285,2|2|10,0:0|0:0|0:0,0:0:0:0:
152,176,178650,5,2,0:0:0:0:
216,276,179018,2,0,L|280:264,1,59.9999952316285,10|0,0:0|0:0,0:0:0:0:
316,288,179386,2,0,L|380:276,1,59.9999952316285,0|2,0:0|0:0,0:0:0:0:
496,288,179938,2,0,P|488:224|452:184,1,119.999990463257,0|0,0:0|0:0,0:0:0:0:
404,176,180490,1,8,0:0:0:0:
300,116,180859,2,0,P|272:72|268:28,2,89.9999928474428,8|0|0,0:0|0:0|0:0,0:0:0:0:
264,144,181595,6,0,L|252:264,1,119.999990463257,4|8,0:0|0:0,0:0:0:0:
140,304,182331,2,0,L|134:244,2,59.9999952316285,0|0|8,0:0|0:0|0:0,0:0:0:0:
244,368,183067,2,0,P|292:364|344:316,1,119.999990463257,2|10,0:0|0:0,0:0:0:0:
396,208,183803,2,0,P|421:220|441:246,2,59.9999952316285,2|2|10,0:0|0:0|0:0,0:0:0:0:
276,220,184540,5,2,0:0:0:0:
184,144,184908,2,0,L|176:80,1,59.9999952316285,10|0,0:0|0:0,0:0:0:0:
128,84,185276,2,0,L|156:20,1,59.9999952316285,0|2,0:0|0:0,0:0:0:0:
264,72,185828,2,0,L|384:64,1,119.999990463257,2|0,0:0|0:0,0:0:0:0:
432,60,186380,1,10,0:0:0:0:
372,164,186748,2,0,P|360:220|380:280,1,119.999990463257,10|10,0:0|0:0,0:0:0:0:
484,336,187484,6,0,L|296:328,2,179.999985694886,14|10|10,0:0|0:0|0:0,0:0:0:0:
420,232,188957,1,0,0:0:0:0:
392,196,189141,2,0,P|368:136|436:44,1,179.999985694886,10|10,0:0|0:0,0:0:0:0:
312,12,190061,1,10,0:0:0:0:
216,84,190429,6,0,L|198:263,2,179.999985694886,10|10|10,0:0|0:0|0:0,0:0:0:0:
168,84,191717,1,10,0:0:0:0:
124,60,191902,2,0,L|56:68,1,59.9999952316285,10|10,0:0|0:0,0:0:0:0:
20,88,192270,2,0,P|-7:142|2:199,2,119.999990463257,0|8|8,0:0|0:0|0:0,0:0:0:0:
120,156,193374,5,4,0:0:0:0:
224,216,193742,2,0,P|244:168|232:100,2,119.999990463257,2|2|2,0:0|0:0|0:0,0:0:0:0:
340,192,194846,2,0,P|404:188|452:216,1,119.999990463257,2|2,0:0|0:0,0:0:0:0:
484,332,195583,2,0,P|420:336|372:308,1,119.999990463257,2|10,0:0|0:0,0:0:0:0:
450,214,196319,6,0,B|448:164|476:132|476:132|504:100|500:40,2,179.999985694886,2|0|2,0:0|0:0|0:0,0:0:0:0:
344,160,197791,2,0,P|260:152|180:224,2,179.999985694886,2|0|10,0:0|0:0|0:0,0:0:0:0:
292,268,199264,5,2,0:0:0:0:
412,256,199632,2,0,P|445:229|462:151,2,119.999990463257,2|2|2,0:0|0:0|0:0,0:0:0:0:
344,160,200736,1,2,0:0:0:0:
236,108,201104,1,2,0:0:0:0:
120,136,201472,2,0,L|128:260,1,119.999990463257,2|10,0:0|0:0,0:0:0:0:
208,348,202208,6,0,P|276:292|420:324,1,239.999980926514,2|2,0:0|0:0,0:0:0:0:
512,248,203313,1,2,0:0:0:0:
472,224,203497,1,0,0:0:0:0:
432,200,203681,2,0,L|420:72,1,119.999990463257,10|8,0:0|0:0,0:0:0:0:
400,36,204233,2,0,P|340:30|284:50,1,119.999990463257,12|12,0:0|0:0,0:0:0:0:
92,60,205153,5,4,0:0:0:0:
140,168,205521,2,0,L|120:288,2,119.999990463257,2|2|2,0:0|0:0|0:0,0:0:0:0:
252,128,206625,1,2,0:0:0:0:
372,148,206994,1,2,0:0:0:0:
460,228,207362,2,0,P|468:284|440:344,1,119.999990463257,2|10,0:0|0:0,0:0:0:0:
348,264,208098,6,0,L|228:256,1,119.999990463257,2|2,0:0|0:0,0:0:0:0:
124,200,208834,2,0,P|96:147|106:89,1,119.999990463257,2|2,0:0|0:0,0:0:0:0:
220,52,209570,2,0,L|292:64,1,59.9999952316285,2|0,0:0|0:0,0:0:0:0:
312,96,209938,2,0,L|371:86,1,59.9999952316285,2|0,0:0|0:0,0:0:0:0:
384,204,210490,6,0,L|324:213,2,59.9999952316285,2|8|2,0:0|0:0|0:0,0:0:0:0:
452,304,211227,2,0,L|511:313,2,59.9999952316285,2|8|10,0:0|0:0|0:0,0:0:0:0:
504,196,211963,2,0,L|512:136,2,59.9999952316285,2|8|2,0:0|0:0|0:0,0:0:0:0:
384,204,212699,2,0,L|324:213,2,59.9999952316285,2|8|2,0:0|0:0|0:0,0:0:0:0:
412,164,213251,2,0,L|428:44,1,119.999990463257,0|8,0:0|0:0,0:0:0:0:
396,8,213803,5,12,0:0:0:0:
284,48,214171,2,0,L|208:48,2,59.9999952316285,8|8|8,0:0|0:0|0:0,0:0:0:0:
316,84,214724,1,8,0:0:0:0:
240,176,215092,1,8,0:0:0:0:
212,216,215276,2,0,L|216:280,2,59.9999952316285,10|10|10,0:0|0:0|0:0,0:0:0:0:
296,196,225398,6,0,L|284:132,1,59.9999952316285,8|0,0:0|0:0,0:0:0:0:
264,92,225767,2,0,P|224:140|160:152,1,119.999990463257,12|8,0:0|0:0,0:0:0:0:
124,152,226319,2,0,P|64:172|36:224,2,119.999990463257,8|8|12,0:0|0:0|0:0,0:0:0:0:
148,268,227423,6,0,L|196:320,2,59.9999952316285,8|8|8,0:0|0:0|0:0,0:0:0:0:
116,232,227975,1,8,0:0:0:0:
236,228,228343,1,8,0:0:0:0:
276,200,228527,2,0,L|292:132,2,59.9999952316285,10|10|10,0:0|0:0|0:0,0:0:0:0:
312,316,229264,1,8,0:0:0:0:
264,312,229448,2,0,L|140:360,1,119.999990463257,8|8,0:0|0:0,0:0:0:0:
32,336,230184,6,0,P|52:280|100:248,1,119.999990463257,4|8,0:0|0:0,0:0:0:0:
148,236,230736,1,10,0:0:0:0:
192,212,230920,2,0,P|208:160|188:96,1,119.999990463257,2|8,0:0|0:0,0:0:0:0:
284,20,231656,2,0,L|408:12,1,119.999990463257,2|8,0:0|0:0,0:0:0:0:
432,52,232208,1,10,0:0:0:0:
472,76,232392,2,0,L|460:212,1,119.999990463257,2|8,0:0|0:0,0:0:0:0:
384,288,233129,6,0,P|350:246|342:175,1,119.999990463257,2|8,0:0|0:0,0:0:0:0:
340,60,233865,2,0,P|288:40|224:60,1,119.999990463257,2|8,0:0|0:0,0:0:0:0:
208,100,234417,1,2,0:0:0:0:
192,144,234601,2,0,P|148:184|88:188,2,119.999990463257,2|8|2,0:0|0:0|0:0,0:0:0:0:
100,68,235705,1,8,0:0:0:0:
12,148,236073,6,0,P|8:212|44:264,1,119.999990463257,2|8,0:0|0:0,0:0:0:0:
80,272,236625,1,8,0:0:0:0:
128,276,236810,2,0,P|192:280|236:324,1,119.999990463257,2|8,0:0|0:0,0:0:0:0:
344,272,237546,2,0,L|480:284,1,119.999990463257,2|8,0:0|0:0,0:0:0:0:
432,168,238282,1,2,0:0:0:0:
488,60,238650,1,8,0:0:0:0:
376,100,239018,6,0,L|256:92,1,119.999990463257,2|8,0:0|0:0,0:0:0:0:
220,120,239570,2,0,L|100:112,1,119.999990463257,10|10,0:0|0:0,0:0:0:0:
68,76,240122,1,0,0:0:0:0:
52,120,240306,2,0,B|32:176|32:176|56:296,1,179.999985694886,12|8,0:0|0:0,0:0:0:0:
156,360,241227,2,0,P|176:304|160:244,1,119.999990463257,10|10,0:0|0:0,0:0:0:0:
136,128,241963,5,0,0:0:0:0:
248,168,242331,1,12,0:0:0:0:
348,104,242699,1,2,0:0:0:0:
468,116,243067,1,8,0:0:0:0:
448,160,243251,1,0,0:0:0:0:
428,204,243435,2,0,L|436:272,2,59.9999952316285,2|0|8,0:0|0:0|0:0,0:0:0:0:
328,272,244171,2,0,L|320:340,2,59.9999952316285,2|0|8,0:0|0:0|0:0,0:0:0:0:
208,288,244908,6,0,L|76:272,1,119.999990463257,2|8,0:0|0:0,0:0:0:0:
104,156,245644,2,0,L|223:170,1,119.999990463257,2|8,0:0|0:0,0:0:0:0:
256,204,246196,1,2,0:0:0:0:
304,196,246380,2,0,P|320:144|296:76,2,119.999990463257,0|8|2,0:0|0:0|0:0,0:0:0:0:
224,288,247484,1,10,0:0:0:0:
332,336,247852,6,0,L|464:320,1,119.999990463257,4|8,0:0|0:0,0:0:0:0:
488,292,248405,1,10,0:0:0:0:
452,260,248589,2,0,P|420:208|424:148,1,119.999990463257,2|8,0:0|0:0,0:0:0:0:
488,48,249325,1,2,0:0:0:0:
372,84,249693,1,8,0:0:0:0:
268,24,250061,1,2,0:0:0:0:
172,96,250429,2,0,L|176:172,1,59.9999952316285,8|0,0:0|0:0,0:0:0:0:
220,176,250797,6,0,P|188:244|236:336,2,179.999985694886,10|10|10,0:0|0:0|0:0,0:0:0:0:
268,164,252086,1,8,0:0:0:0:
308,192,252270,2,0,P|376:208|464:136,2,179.999985694886,10|10|10,0:0|0:0|0:0,0:0:0:0:
232,100,253742,6,0,L|92:120,1,119.999990463257,10|8,0:0|0:0,0:0:0:0:
92,160,254294,2,0,L|179:271,1,119.999990463257,10|10,0:0|0:0,0:0:0:0:
216,252,254846,2,0,L|242:186,1,59.9999952316285,8|12,0:0|0:0,0:0:0:0:
360,199,255398,2,0,P|404:195|443:215,4,89.9999928474428,4|2|4|2|2,0:0|0:0|0:0|0:0|0:0,0:0:0:0:
332,240,256687,6,0,L|324:120,1,119.999990463257,4|8,0:0|0:0,0:0:0:0:
232,44,257423,2,0,P|172:24|112:48,1,119.999990463257,2|8,0:0|0:0,0:0:0:0:
88,76,257975,1,0,0:0:0:0:
80,124,258159,2,0,L|96:244,1,119.999990463257,2|8,0:0|0:0,0:0:0:0:
132,280,258711,1,8,0:0:0:0:
244,320,259079,6,0,L|320:312,2,59.9999952316285,2|10|10,0:0|0:0|0:0,0:0:0:0:
228,200,259816,2,0,L|152:192,2,59.9999952316285,2|8|14,0:0|0:0|0:0,0:0:0:0:
292,96,260552,2,0,L|368:88,2,59.9999952316285,2|8|14,0:0|0:0|0:0,0:0:0:0:
352,200,261288,1,2,0:0:0:0:
384,236,261472,2,0,L|376:300,1,59.9999952316285,2|2,0:0|0:0,0:0:0:0:
344,332,261840,2,0,B|284:320|284:320|228:348|228:348|160:332,1,179.999985694886,2|10,0:0|0:0,0:0:0:0:
56,348,262760,6,0,L|48:284,1,59.9999952316285,2|10,0:0|0:0,0:0:0:0:
120,192,263313,1,10,0:0:0:0:
48,95,263681,2,0,L|56:36,1,59.9999952316285,10|10,0:0|0:0,0:0:0:0:
236,196,264601,5,4,0:0:0:0:
256,192,264785,12,0,269754,0:0:0:0:
