osu file format v14

[General]
AudioFilename: mmmppp333.mp3
AudioLeadIn: 2000
PreviewTime: 55061
Countdown: 0
SampleSet: Soft
StackLeniency: 0.7
Mode: 0
LetterboxInBreaks: 0
WidescreenStoryboard: 0

[Editor]
DistanceSpacing: 1.3
BeatDivisor: 4
GridSize: 4
TimelineZoom: 1.2

[Metadata]
Title:Best FriendS
TitleUnicode:Best FriendS
Artist:Fujijo Seitokai Shikkou-bu
ArtistUnicode:藤女生徒会執行部
Creator:No Dap
Version:Insane
Source:LOVE LAB
Tags:恋愛ラブラボ ending kaburagi kotetsu sonnyc helloscv setz setz206
BeatmapID:574471
BeatmapSetID:249939

[Difficulty]
HPDrainRate:6
CircleSize:4
OverallDifficulty:7.5
ApproachRate:9
SliderMultiplier:1.7
SliderTickRate:1

[Events]
//Background and Video events
0,0,"bgbgbgb.png",0,0
//Break Periods
2,170012,180991
2,217128,224794
//Storyboard Layer 0 (Background)
//Storyboard Layer 1 (Fail)
//Storyboard Layer 2 (Pass)
//Storyboard Layer 3 (Foreground)
//Storyboard Sound Samples

[TimingPoints]
491,368.098159509202,4,2,0,50,1,0
491,-125,4,2,0,50,0,0
5644,-125,4,2,1,50,0,0
6380,-100,4,2,1,60,0,0
17607,-125,4,2,1,60,0,0
17975,-100,4,2,1,5,0,0
18159,-100,4,2,1,55,0,0
28466,-100,4,2,1,60,0,0
29938,-100,4,2,1,55,0,0
41717,-142.857142857143,4,2,1,40,0,0
42086,-142.857142857143,4,2,1,50,0,0
49816,-100,4,2,1,60,0,0
56441,-100,4,2,1,75,0,1
57546,-66.6666666666667,4,2,1,75,0,1
57914,-100,4,2,1,75,0,1
59018,-66.6666666666667,4,2,1,75,0,1
59386,-100,4,2,1,75,0,1
68037,-100,4,2,1,75,0,0
68589,-100,4,2,1,85,0,1
68957,-100,4,2,1,75,0,1
77055,-100,4,2,1,40,0,1
77607,-100,4,2,1,50,0,1
78159,-100,4,2,1,60,0,1
78527,-100,4,2,1,65,0,1
79079,-100,4,2,1,70,0,1
79632,-100,4,2,1,75,0,1
80000,-100,4,2,1,80,0,1
80552,-100,4,2,1,85,0,1
81288,-100,4,2,1,90,0,1
81656,-76.9230769230769,4,2,1,70,0,1
82944,-100,4,2,0,60,0,0
85337,-100,4,2,1,60,0,0
85889,-100,4,2,1,65,0,0
87546,-133.333333333333,4,2,1,55,0,0
90675,-100,4,2,1,60,0,0
101349,-66.6666666666667,4,2,1,60,0,0
102086,-100,4,2,1,55,0,0
112392,-66.6666666666667,4,2,1,60,0,0
113865,-100,4,2,1,55,0,0
125644,-142.857142857143,4,2,1,40,0,0
126012,-142.857142857143,4,2,1,50,0,0
133742,-100,4,2,1,60,0,0
140368,-100,4,2,1,75,0,1
141472,-66.6666666666667,4,2,1,75,0,1
141840,-100,4,2,1,75,0,1
142944,-66.6666666666667,4,2,1,75,0,1
143313,-100,4,2,1,75,0,1
151963,-100,4,2,1,75,0,0
152515,-100,4,2,1,85,0,1
152883,-100,4,2,1,75,0,1
160981,-100,4,2,1,40,0,1
161533,-100,4,2,1,50,0,1
162086,-100,4,2,1,60,0,1
162454,-100,4,2,1,65,0,1
163006,-100,4,2,1,70,0,1
163558,-100,4,2,1,75,0,1
163926,-100,4,2,1,80,0,1
164478,-100,4,2,1,85,0,1
165214,-100,4,2,1,90,0,1
165583,-76.9230769230769,4,2,1,70,0,1
166871,-100,4,2,1,70,0,0
169816,-100,4,2,1,40,0,0
181595,-100,4,2,0,40,0,0
181963,-100,4,2,0,50,0,0
187484,-100,4,2,1,50,0,0
193374,-142.857142857143,4,2,1,30,0,0
193742,-142.857142857143,4,2,1,50,0,0
199264,-142.857142857143,4,2,1,30,0,0
199632,-142.857142857143,4,2,1,50,0,0
204233,-142.857142857143,4,2,1,40,0,0
204969,-142.857142857143,4,2,1,5,0,0
205153,-142.857142857143,4,2,1,50,0,0
210306,-100,4,2,1,60,0,0
216012,-100,4,2,1,40,0,0
216932,-100,4,2,1,30,0,0
225398,-100,4,2,1,65,0,0
225767,-100,4,2,1,60,0,0
230184,-100,4,2,1,75,0,1
231288,-66.6666666666667,4,2,1,75,0,1
231656,-100,4,2,1,75,0,1
232760,-66.6666666666667,4,2,1,75,0,1
233129,-100,4,2,1,75,0,1
241779,-100,4,2,1,75,0,0
242331,-100,4,2,1,85,0,1
242699,-100,4,2,1,75,0,1
250797,-100,4,2,1,40,0,1
251349,-100,4,2,1,50,0,1
251902,-100,4,2,1,60,0,1
252270,-100,4,2,1,65,0,1
252822,-100,4,2,1,70,0,1
253374,-100,4,2,1,75,0,1
253742,-100,4,2,1,80,0,1
254294,-100,4,2,1,85,0,1
255030,-100,4,2,1,90,0,1
255398,-76.9230769230769,4,2,1,70,0,1
256687,-100,4,2,0,60,0,0
259079,-100,4,2,1,60,0,0
259632,-100,4,2,1,65,0,0
261288,-133.333333333333,4,2,1,65,0,0
264601,-100,4,2,1,70,0,0
265521,-100,4,2,1,60,0,0
266257,-100,4,2,1,50,0,0
266994,-100,4,2,1,40,0,0
267730,-100,4,2,1,30,0,0
268466,-100,4,2,1,15,0,0
269570,-100,4,2,1,5,0,0

[Colours]
Combo1 : 0,164,82
Combo2 : 0,128,255
Combo3 : 255,128,64
Combo4 : 232,0,0
Combo5 : 173,90,90

[HitObjects]
192,304,491,6,0,P|124:288|84:220,1,136,2|8,0:0|0:0,0:0:0:0:
111,156,1043,1,8,0:0:0:0:
232,184,1227,2,0,P|203:202|173:219,1,68,2|0,0:0|0:0,0:0:0:0:
188,72,1595,1,10,0:0:0:0:
188,72,1963,6,0,L|260:68,1,68,2|0,0:0|0:0,0:0:0:0:
336,104,2331,1,8,0:0:0:0:
231,184,2515,2,0,P|166:193|110:156,1,136,10|0,0:0|0:0,0:0:0:0:
68,48,3067,1,10,0:0:0:0:
68,48,3435,6,0,L|76:204,1,136,2|8,0:0|0:0,0:0:0:0:
96,296,3987,1,8,0:0:0:0:
184,248,4171,2,0,P|232:244|276:248,1,68,2|0,0:0|0:0,0:0:0:0:
184,344,4540,2,0,P|136:348|92:344,1,68,8|0,0:0|0:0,0:0:0:0:
19,199,4908,6,0,P|52:210|79:230,1,68,2|0,0:0|0:0,0:0:0:0:
44,344,5276,1,8,0:0:0:0:
184,248,5460,1,2,0:0:0:0:
144,128,5644,1,8,0:0:0:0:
144,128,5736,1,8,0:0:0:0:
144,128,5828,1,8,0:0:0:0:
184,248,6012,1,8,0:0:0:0:
268,184,6196,1,8,0:0:0:0:
268,184,6288,1,8,0:0:0:0:
268,184,6380,6,0,P|349:172|415:222,1,170,4|10,0:0|0:0,0:0:0:0:
420,320,6932,1,0,0:0:0:0:
316,344,7116,2,0,L|328:252,1,85,2|0,0:0|0:0,0:0:0:0:
416,112,7484,1,8,0:0:0:0:
352,184,7668,1,2,0:0:0:0:
284,104,7852,6,0,P|242:96|199:92,1,85,0|2,0:0|0:0,0:0:0:0:
128,156,8221,1,10,0:0:0:0:
180,292,8405,2,0,P|197:253|200:192,1,85,10|0,0:0|0:0,0:0:0:0:
168,80,8773,1,2,0:0:0:0:
116,232,8957,1,8,0:0:0:0:
272,184,9141,1,2,0:0:0:0:
116,232,9325,6,0,P|95:311|101:340,1,85
192,184,9693,2,0,P|119:147|43:178,1,170,12|0,0:0|0:0,0:0:0:0:
56,296,10245,1,2,0:0:0:0:
180,292,10429,2,0,L|164:388,1,85,8|2,0:0|0:0,0:0:0:0:
192,184,10797,5,2,0:0:0:0:
116,232,10981,1,0,0:0:0:0:
56,80,11165,1,10,0:0:0:0:
112,148,11349,1,8,0:0:0:0:
192,108,11533,2,0,L|212:20,1,85,2|8,0:0|0:0,0:0:0:0:
216,256,11902,1,10,0:0:0:0:
276,144,12086,1,8,0:0:0:0:
276,144,12178,1,8,0:0:0:0:
276,144,12270,6,0,P|334:123|394:142,1,127.5,2|0,0:0|0:0,0:0:0:0:
416,160,12638,2,0,L|503:149,1,85,12|0,0:0|0:0,0:0:0:0:
336,208,13006,1,2,0:0:0:0:
412,64,13190,1,0,0:0:0:0:
336,208,13374,1,10,0:0:0:0:
460,208,13558,6,0,P|476:288|400:336,1,170,2|2,0:0|0:0,0:0:0:0:
336,208,14110,1,8,0:0:0:0:
296,312,14294,1,8,0:0:0:0:
156,224,14478,2,0,P|196:212|239:214,1,85,2|2,0:0|0:0,0:0:0:0:
296,312,14846,1,10,0:0:0:0:
296,312,14938,1,2,0:0:0:0:
296,312,15030,1,2,0:0:0:0:
312,136,15214,5,2,0:0:0:0:
248,240,15398,1,2,0:0:0:0:
376,312,15583,2,0,L|464:292,1,85,10|0,0:0|0:0,0:0:0:0:
400,204,15951,5,2,0:0:0:0:
296,312,16135,1,2,0:0:0:0:
216,200,16319,2,0,L|208:108,1,85,10|0,0:0|0:0,0:0:0:0:
288,84,16687,5,2,0:0:0:0:
184,232,16871,1,2,0:0:0:0:
296,312,17055,1,10,0:0:0:0:
296,164,17239,5,10,0:0:0:0:
296,164,17331,1,10,0:0:0:0:
296,164,17423,1,10,0:0:0:0:
184,232,17607,2,0,P|92:244|44:208,1,136,10|0,0:0|0:0,0:0:0:0:
24,336,18159,6,0,L|208:316,1,170,4|8,0:0|0:0,0:0:0:0:
296,312,18711,1,0,0:0:0:0:
240,156,18895,2,0,P|224:224|228:264,1,85,2|0,0:0|0:0,0:0:0:0:
296,312,19264,1,8,0:0:0:0:
384,244,19448,1,0,0:0:0:0:
328,152,19632,6,0,P|319:110|324:64,1,85,2|0,0:0|0:0,0:0:0:0:
460,212,20000,2,0,P|463:254|454:295,1,85,8|0,0:0|0:0,0:0:0:0:
304,232,20368,2,0,P|227:202|161:285,1,170,2|8,0:0|0:0,0:0:0:0:
328,152,20920,1,0,0:0:0:0:
244,288,21104,6,0,P|324:336|396:280,2,170,2|8|2,0:0|0:0|0:0,0:0:0:0:
304,232,22024,1,0,0:0:0:0:
236,160,22208,2,0,P|227:118|232:76,1,85,8|0,0:0|0:0,0:0:0:0:
404,172,22576,5,2,0:0:0:0:
304,232,22760,1,0,0:0:0:0:
312,116,22944,1,8,0:0:0:0:
404,172,23129,1,0,0:0:0:0:
304,232,23313,2,0,B|220:252|220:208|136:230,1,170,2|8,0:0|0:0,0:0:0:0:
180,312,23865,1,0,0:0:0:0:
260,148,24049,6,0,P|248:68|152:72,2,170,2|8|2,0:0|0:0|0:0,0:0:0:0:
212,240,24969,1,0,0:0:0:0:
128,128,25153,2,0,P|93:175|90:207,1,85,8|0,0:0|0:0,0:0:0:0:
116,288,25521,6,0,P|200:272|284:268,1,170,2|8,0:0|0:0,0:0:0:0:
384,256,26073,1,2,0:0:0:0:
308,112,26257,2,0,P|308:164|316:200,1,85,0|0,0:0|0:0,0:0:0:0:
448,196,26625,1,8,0:0:0:0:
384,96,26810,1,0,0:0:0:0:
306,232,26994,6,0,B|272:260|272:260|240:272|180:260|144:200,1,170,2|8,0:0|0:0,0:0:0:0:
120,132,27546,1,2,0:0:0:0:
228,88,27730,2,0,P|232:130|229:172,1,85,0|0,0:0|0:0,0:0:0:0:
120,40,28098,1,8,0:0:0:0:
36,168,28282,1,0,0:0:0:0:
32,56,28466,5,10,0:0:0:0:
124,256,28650,1,10,0:0:0:0:
120,132,29202,5,10,0:0:0:0:
224,340,29386,1,10,0:0:0:0:
304,240,29570,1,0,0:0:0:0:
224,340,29754,1,8,0:0:0:0:
224,340,29846,1,8,0:0:0:0:
224,340,29938,6,0,B|192:340|172:316|172:316|116:352|64:304,1,170,4|8,0:0|0:0,0:0:0:0:
24,232,30490,1,0,0:0:0:0:
126,173,30675,2,0,P|133:214|124:256,1,85,2|0,0:0|0:0,0:0:0:0:
24,120,31043,2,0,P|16:78|26:37,1,85,8|0,0:0|0:0,0:0:0:0:
129,85,31411,5,2,0:0:0:0:
23,230,31595,1,0,0:0:0:0:
126,173,31779,2,0,P|184:160|232:168,1,85,8|0,0:0|0:0,0:0:0:0:
296,268,32147,2,0,P|255:279|212:278,1,85,2|0,0:0|0:0,0:0:0:0:
312,180,32515,1,8,0:0:0:0:
392,256,32699,1,0,0:0:0:0:
312,180,32883,6,0,P|304:124|312:92,1,85,2|0,0:0|0:0,0:0:0:0:
392,256,33251,2,0,P|347:290|315:300,1,85,8|0,0:0|0:0,0:0:0:0:
416,144,33619,2,0,P|468:165|492:188,1,85,2|0,0:0|0:0,0:0:0:0:
312,180,33987,2,0,P|260:159|236:136,1,85,8|0,0:0|0:0,0:0:0:0:
208,60,34356,5,2,0:0:0:0:
168,184,34540,1,0,0:0:0:0:
92,36,34724,1,8,0:0:0:0:
16,172,34908,1,0,0:0:0:0:
104,128,35092,1,2,0:0:0:0:
92,264,35276,2,0,L|82:349,1,85,2|8,0:0|0:0,0:0:0:0:
228,264,35644,1,0,0:0:0:0:
228,264,35736,1,0,0:0:0:0:
228,264,35828,5,2,0:0:0:0:
400,200,36012,2,0,P|409:158|407:116,2,85,0|8|2,0:0|0:0|0:0,0:0:0:0:
340,292,36564,1,0,0:0:0:0:
228,264,36748,2,0,P|152:288|132:320,2,85,2|8|2,0:0|0:0|0:0,0:0:0:0:
340,292,37300,5,0,0:0:0:0:
400,200,37484,1,2,0:0:0:0:
348,92,37668,1,8,0:0:0:0:
256,152,37852,2,0,P|177:174|120:116,1,170,2|2,0:0|0:0,0:0:0:0:
256,152,38405,1,8,0:0:0:0:
248,304,38589,1,2,0:0:0:0:
128,248,38773,6,0,P|132:288|124:336,1,85,2|0,0:0|0:0,0:0:0:0:
36,135,39141,2,0,P|53:97|79:63,1,85,10|0,0:0|0:0,0:0:0:0:
56,291,39509,2,0,P|26:262|8:224,1,85,2|0,0:0|0:0,0:0:0:0:
200,156,39877,2,0,P|150:158|112:140,1,85,10|0,0:0|0:0,0:0:0:0:
248,72,40245,6,0,B|292:60|328:81|328:81|360:44|408:48,1,170,2|8,0:0|0:0,0:0:0:0:
496,152,40797,1,0,0:0:0:0:
412,212,40981,2,0,P|399:171|398:129,1,85,8|0,0:0|0:0,0:0:0:0:
504,248,41349,2,0,P|502:290|490:330,1,85,8|0,0:0|0:0,0:0:0:0:
344,276,41717,6,0,L|200:292,1,118.999996368408,4|2,0:0|0:0,0:0:0:0:
136,148,42454,2,0,L|254:134,1,118.999996368408,2|2,0:0|0:0,0:0:0:0:
412,84,43190,2,0,P|400:52|395:26,1,59.4999981842042,2|0,0:0|0:0,0:0:0:0:
496,84,43558,2,0,P|492:112|476:144,1,59.4999981842042,2|0,0:0|0:0,0:0:0:0:
400,164,43926,2,0,P|347:138|289:150,1,118.999996368408,2|10,0:0|0:0,0:0:0:0:
244,220,44478,1,0,0:0:0:0:
184,164,44662,6,0,B|180:136|164:112|164:112|172:76|163:49,1,118.999996368408,2|2,0:0|0:0,0:0:0:0:
36,156,45398,2,0,B|40:184|56:208|56:208|48:244|56:270,1,118.999996368408,2|2,0:0|0:0,0:0:0:0:
208,340,46135,2,0,L|280:332,1,59.4999981842042,2|0,0:0|0:0,0:0:0:0:
323,258,46503,1,2,0:0:0:0:
244,256,46687,1,0,0:0:0:0:
356,336,46871,2,0,P|400:292|400:224,1,118.999996368408,2|10,0:0|0:0,0:0:0:0:
344,84,47607,5,2,0:0:0:0:
276,132,47975,1,2,0:0:0:0:
192,124,48343,1,2,0:0:0:0:
128,68,48711,1,2,0:0:0:0:
192,124,49079,2,0,P|190:154|186:184,1,59.4999981842042,2|0,0:0|0:0,0:0:0:0:
110,223,49448,2,0,P|106:193|104:164,1,59.4999981842042,2|0,0:0|0:0,0:0:0:0:
184,304,49816,5,10,0:0:0:0:
184,304,50000,1,0,0:0:0:0:
264,160,50184,2,0,L|252:252,1,85,8|0,0:0|0:0,0:0:0:0:
184,304,50552,5,0,0:0:0:0:
184,304,50736,1,0,0:0:0:0:
356,200,50920,2,0,L|328:288,1,85,8|0,0:0|0:0,0:0:0:0:
408,116,51288,5,0,0:0:0:0:
408,116,51472,1,0,0:0:0:0:
248,52,51656,2,0,P|296:40|336:40,1,85,8|0,0:0|0:0,0:0:0:0:
408,116,52024,5,0,0:0:0:0:
408,116,52208,1,0,0:0:0:0:
212,152,52392,2,0,P|257:131|296:124,1,85,8|0,0:0|0:0,0:0:0:0:
408,116,52760,5,0,0:0:0:0:
252,264,52944,1,8,0:0:0:0:
320,88,53129,1,8,0:0:0:0:
452,228,53313,6,0,P|472:288|400:364,1,170,12|8,0:0|0:0,0:0:0:0:
308,172,53865,1,8,0:0:0:0:
392,280,54049,1,8,0:0:0:0:
268,280,54233,1,8,0:0:0:0:
360,116,54417,1,8,0:0:0:0:
204,236,54601,1,8,0:0:0:0:
336,332,54785,5,10,0:0:0:0:
336,332,54877,1,10,0:0:0:0:
336,332,54969,1,10,0:0:0:0:
352,72,55153,1,10,0:0:0:0:
352,204,55705,5,8,0:0:0:0:
256,80,55889,1,8,0:0:0:0:
171,168,56073,1,8,0:0:0:0:
167,172,56165,1,8,0:0:0:0:
163,176,56257,1,8,0:0:0:0:
159,180,56349,1,8,0:0:0:0:
155,184,56441,6,0,P|74:195|18:136,1,170,4|8,0:0|0:0,0:0:0:0:
100,48,56994,1,10,0:0:0:0:
159,188,57178,2,0,L|171:320,1,127.5,2|0,0:0|0:0,0:0:0:0:
195,336,57546,6,0,P|243:294|305:283,1,127.500004863739,10|2,0:0|0:0,0:0:0:0:
428,208,57914,6,0,P|347:211|304:142,1,170,2|8,0:0|0:0,0:0:0:0:
352,48,58466,1,10,0:0:0:0:
228,104,58650,2,0,P|167:120|106:104,1,127.5,2|0,0:0|0:0,0:0:0:0:
84,80,59018,6,0,L|96:248,1,127.500004863739,10|0,0:0|0:0,0:0:0:0:
176,296,59386,6,0,P|224:276|280:272,1,85,2|0,0:0|0:0,0:0:0:0:
400,232,59754,1,10,0:0:0:0:
344,344,59938,1,8,0:0:0:0:
400,232,60122,2,0,P|397:189|392:147,1,85,2|0,0:0|0:0,0:0:0:0:
240,128,60490,1,8,0:0:0:0:
308,48,60675,1,2,0:0:0:0:
308,180,60859,5,0,0:0:0:0:
228,48,61043,1,2,0:0:0:0:
384,76,61227,1,8,0:0:0:0:
240,128,61411,1,10,0:0:0:0:
328,208,61595,2,0,P|330:250|323:292,1,85,2|0,0:0|0:0,0:0:0:0:
184,260,61963,1,10,0:0:0:0:
240,348,62147,1,0,0:0:0:0:
103,271,62331,6,0,P|75:194|113:121,1,170,2|8,0:0|0:0,0:0:0:0:
184,260,62883,1,10,0:0:0:0:
280,192,63067,2,0,P|340:176|392:184,1,85,2|0,0:0|0:0,0:0:0:0:
304,96,63435,1,8,0:0:0:0:
332,260,63619,1,2,0:0:0:0:
208,152,63803,6,0,L|96:144,1,85,2|0,0:0|0:0,0:0:0:0:
184,260,64171,1,8,0:0:0:0:
300,152,64356,2,0,P|259:81|176:72,1,170,10|0,0:0|0:0,0:0:0:0:
200,184,64908,1,10,0:0:0:0:
268,284,65092,1,0,0:0:0:0:
375,208,65276,6,0,P|386:166|391:124,1,85,2|0,0:0|0:0,0:0:0:0:
424,280,65644,1,8,0:0:0:0:
292,204,65828,2,0,P|249:203|212:222,1,85,10|0,0:0|0:0,0:0:0:0:
92,272,66196,2,0,P|94:315|113:353,1,85,10|0,0:0|0:0,0:0:0:0:
80,80,66564,6,0,P|126:147|208:152,1,170,4|0,0:0|0:0,0:0:0:0:
304,24,67116,2,0,P|265:41|242:76,1,85,8|0,0:0|0:0,0:0:0:0:
296,252,67484,1,10,0:0:0:0:
380,84,67668,1,0,0:0:0:0:
176,160,67852,1,10,0:0:0:0:
236,316,68037,1,8,0:0:0:0:
236,316,68129,1,8,0:0:0:0:
236,316,68221,6,0,P|314:338|376:285,2,170,2|12|0,0:0|0:0|0:0,0:0:0:0:
148,348,69141,1,0,0:0:0:0:
168,176,69325,2,0,P|171:218|168:260,1,85,8|0,0:0|0:0,0:0:0:0:
104,120,69693,5,2,0:0:0:0:
240,136,69877,1,0,0:0:0:0:
104,120,70061,2,0,P|61:119|19:124,1,85,8|8,0:0|0:0,0:0:0:0:
168,176,70429,1,2,0:0:0:0:
132,44,70613,1,0,0:0:0:0:
168,176,70797,2,0,P|175:217|179:260,1,85,8|0,0:0|0:0,0:0:0:0:
111,368,71165,6,0,P|168:306|250:300,1,170,2|8,0:0|0:0,0:0:0:0:
168,176,71717,1,8,0:0:0:0:
276,124,71902,2,0,P|273:167|270:209,1,85,2|0,0:0|0:0,0:0:0:0:
168,40,72270,1,8,0:0:0:0:
300,32,72454,1,0,0:0:0:0:
192,124,72638,6,0,P|189:167|186:209,1,85,2|0,0:0|0:0,0:0:0:0:
300,32,73006,1,8,0:0:0:0:
276,124,73190,1,10,0:0:0:0:
168,40,73374,2,0,P|126:43|86:56,1,85,2|0,0:0|0:0,0:0:0:0:
68,192,73742,1,10,0:0:0:0:
152,256,73926,1,8,0:0:0:0:
152,256,74018,1,8,0:0:0:0:
152,256,74110,6,0,L|140:344,1,85,4|0,0:0|0:0,0:0:0:0:
344,296,74478,1,8,0:0:0:0:
236,280,74662,1,10,0:0:0:0:
307,208,74846,2,0,P|332:120|252:68,1,170,2|8,0:0|0:0,0:0:0:0:
176,156,75398,1,2,0:0:0:0:
208,56,75583,5,2,0:0:0:0:
256,148,75767,1,0,0:0:0:0:
124,76,75951,1,8,0:0:0:0:
227,224,76135,2,0,P|244:302|179:351,1,170,10|0,0:0|0:0,0:0:0:0:
28,276,76687,2,0,P|84:272|132:252,1,85,8|0,0:0|0:0,0:0:0:0:
176,156,77055,5,10,0:0:0:0:
112,232,77239,1,8,0:0:0:0:
32,120,77423,1,8,0:0:0:0:
204,80,77607,1,10,0:0:0:0:
112,232,77791,1,8,0:0:0:0:
104,56,77975,1,8,0:0:0:0:
264,176,78159,1,10,0:0:0:0:
176,324,78343,1,8,0:0:0:0:
176,324,78435,1,8,0:0:0:0:
176,324,78527,5,10,0:0:0:0:
144,144,78711,1,8,0:0:0:0:
296,264,78895,1,8,0:0:0:0:
100,272,79079,1,10,0:0:0:0:
224,124,79264,1,8,0:0:0:0:
256,360,79448,1,8,0:0:0:0:
160,176,79632,1,10,0:0:0:0:
84,372,79816,1,8,0:0:0:0:
16,168,80000,5,10,0:0:0:0:
208,328,80184,1,8,0:0:0:0:
124,100,80368,1,8,0:0:0:0:
20,320,80552,1,10,0:0:0:0:
32,60,80736,1,8,0:0:0:0:
256,156,80920,1,10,0:0:0:0:
100,312,81104,1,8,0:0:0:0:
140,32,81288,1,12,0:0:0:0:
256,120,81656,6,0,B|284:124|308:112|308:112|360:144|416:124,1,165.749992412568,4|2,0:0|0:0,0:0:0:0:
256,120,82208,2,0,B|228:124|204:112|204:112|152:144|96:124,2,165.749992412568,4|2|2,0:0|0:0|0:0,0:0:0:0:
208,216,82944,6,0,P|285:247|368:234,1,170,4|8,0:0|0:0,0:0:0:0:
412,148,83497,1,8,0:0:0:0:
312,56,83681,2,0,P|312:104|316:160,1,85
412,148,84049,1,8,0:0:0:0:
348,248,84233,1,0,0:0:0:0:
239,219,84417,6,0,P|225:180|222:137,1,85
144,80,84785,1,8,0:0:0:0:
104,188,84969,2,0,L|16:192,1,85,8|0,0:0|0:0,0:0:0:0:
48,352,85337,5,2,0:0:0:0:
116,288,85521,1,10,0:0:0:0:
145,287,85613,1,10,0:0:0:0:
173,291,85705,1,10,0:0:0:0:
199,300,85797,1,10,0:0:0:0:
223,316,85889,6,0,P|268:316|307:303,1,85,4|0,0:0|0:0,0:0:0:0:
352,232,86257,1,8,0:0:0:0:
240,144,86441,2,0,L|252:236,1,85,12|0,0:0|0:0,0:0:0:0:
332,148,86810,1,0,0:0:0:0:
296,304,86994,1,8,0:0:0:0:
432,196,87178,1,12,0:0:0:0:
432,196,87546,5,2,0:0:0:0:
352,232,87730,1,2,0:0:0:0:
376,308,87914,1,2,0:0:0:0:
296,176,88098,2,0,L|303:112,1,63.7500024318696,2|2,0:0|0:0,0:0:0:0:
312,28,88466,1,2,0:0:0:0:
180,104,88650,1,10,0:0:0:0:
180,104,89018,5,2,0:0:0:0:
180,104,89202,2,0,P|122:76|59:70,2,127.500004863739,2|2|2,0:0|0:0|0:0,0:0:0:0:
236,184,90122,2,0,P|293:156|356:150,1,127.500004863739,2|0,0:0|0:0,0:0:0:0:
255,268,90675,6,0,P|176:251|147:175,1,170,8|2,0:0|0:0,0:0:0:0:
216,80,91227,1,0,0:0:0:0:
283,155,91411,2,0,P|324:167|364:154,1,85,10|0,0:0|0:0,0:0:0:0:
416,60,91779,5,2,0:0:0:0:
400,168,91963,1,0,0:0:0:0:
316,72,92147,1,10,0:0:0:0:
400,168,92331,2,0,P|409:253|325:281,1,170,10|2,0:0|0:0,0:0:0:0:
260,228,92883,1,8,0:0:0:0:
228,336,93067,1,2,0:0:0:0:
144,208,93251,6,0,L|152:296,1,85,0|0,0:0|0:0,0:0:0:0:
212,148,93619,2,0,P|168:124|56:172,1,170,12|0,0:0|0:0,0:0:0:0:
108,288,94171,1,2,0:0:0:0:
28,344,94356,2,0,L|9:261,1,85,8|2,0:0|0:0,0:0:0:0:
184,212,94724,5,2,0:0:0:0:
108,288,94908,1,0,0:0:0:0:
0,124,95092,1,10,0:0:0:0:
28,228,95276,1,8,0:0:0:0:
144,56,95460,1,8,0:0:0:0:
96,172,95644,1,2,0:0:0:0:
52,56,95828,1,10,0:0:0:0:
176,144,96012,1,10,0:0:0:0:
176,144,96104,1,10,0:0:0:0:
176,144,96196,6,0,P|235:166|295:147,1,127.5
312,132,96564,2,0,L|411:139,1,85,12|0,0:0|0:0,0:0:0:0:
236,72,96932,1,2,0:0:0:0:
256,244,97116,2,0,L|244:348,1,85,2|8,0:0|0:0,0:0:0:0:
99,355,97484,6,0,B|64:320|64:320|44:260|85:206,1,170,2|2,0:0|0:0,0:0:0:0:
180,168,98037,1,8,0:0:0:0:
88,48,98221,2,0,P|90:90|107:129,1,85,8|2,0:0|0:0,0:0:0:0:
292,184,98589,1,0,0:0:0:0:
212,88,98773,1,10,0:0:0:0:
212,88,98865,1,2,0:0:0:0:
212,88,98957,1,2,0:0:0:0:
228,244,99141,5,2,0:0:0:0:
368,216,99325,1,2,0:0:0:0:
324,72,99509,2,0,L|208:148,1,127.5,10|0,0:0|0:0,0:0:0:0:
180,168,99877,5,2,0:0:0:0:
312,284,100061,1,2,0:0:0:0:
392,128,100245,2,0,L|256:108,1,127.5,10|0,0:0|0:0,0:0:0:0:
236,104,100613,5,2,0:0:0:0:
212,280,100797,1,2,0:0:0:0:
412,248,100981,1,10,0:0:0:0:
308,184,101165,5,10,0:0:0:0:
308,184,101257,1,10,0:0:0:0:
308,184,101349,2,0,L|328:372,1,127.500004863739,10|10,0:0|0:0,0:0:0:0:
321,310,102086,6,0,P|264:336|168:288,1,170,4|8,0:0|0:0,0:0:0:0:
128,208,102638,1,0,0:0:0:0:
236,132,102822,2,0,P|234:174|215:212,1,85,2|0,0:0|0:0,0:0:0:0:
132,120,103190,2,0,P|133:77|152:39,1,85,8|0,0:0|0:0,0:0:0:0:
260,36,103558,5,2,0:0:0:0:
236,132,103742,1,0,0:0:0:0:
400,104,103926,2,0,P|360:90|317:91,1,85,8|0,0:0|0:0,0:0:0:0:
400,192,104294,2,0,P|456:168|472:56,1,170,2|8,0:0|0:0,0:0:0:0:
400,192,104846,1,0,0:0:0:0:
456,296,105030,6,0,B|424:300|396:280|396:280|352:312|292:290,2,170,2|8|2,0:0|0:0|0:0,0:0:0:0:
400,192,105951,1,0,0:0:0:0:
224,240,106135,2,0,P|216:300|228:356,1,85,8|0,0:0|0:0,0:0:0:0:
320,220,106503,6,0,P|328:160|316:104,1,85,2|0,0:0|0:0,0:0:0:0:
252,24,106871,1,8,0:0:0:0:
228,132,107055,1,0,0:0:0:0:
328,56,107239,2,0,P|396:36|488:80,1,170,2|8,0:0|0:0,0:0:0:0:
460,192,107791,1,0,0:0:0:0:
346,236,107975,6,0,L|340:152,1,85,2|0,0:0|0:0,0:0:0:0:
420,280,108343,2,0,P|364:320|272:272,2,170,8|2|8,0:0|0:0|0:0,0:0:0:0:
460,192,109264,1,0,0:0:0:0:
388,40,109448,6,0,P|384:96|388:140,1,85,2|0,0:0|0:0,0:0:0:0:
460,192,109816,1,8,0:0:0:0:
308,180,110000,2,0,B|252:168|220:200|220:200|196:164|148:156,1,170,2|0,0:0|0:0,0:0:0:0:
284,268,110552,1,8,0:0:0:0:
232,100,110736,1,0,0:0:0:0:
138,243,110920,6,0,P|77:189|88:108,1,170,2|8,0:0|0:0,0:0:0:0:
232,188,111472,1,2,0:0:0:0:
208,352,111656,2,0,P|203:309|208:267,1,85,0|0,0:0|0:0,0:0:0:0:
356,304,112024,1,8,0:0:0:0:
232,188,112208,1,0,0:0:0:0:
352,104,112392,6,0,L|316:240,1,127.500004863739,10|10,0:0|0:0,0:0:0:0:
248,40,113129,5,10,0:0:0:0:
452,60,113313,1,10,0:0:0:0:
436,184,113497,1,0,0:0:0:0:
352,104,113681,1,8,0:0:0:0:
352,104,113773,1,8,0:0:0:0:
352,104,113865,6,0,B|322:119|306:150|306:150|270:107|212:122,1,170,4|8,0:0|0:0,0:0:0:0:
128,184,114417,1,0,0:0:0:0:
224,292,114601,2,0,P|233:250|236:208,1,85,2|0,0:0|0:0,0:0:0:0:
344,284,114969,2,0,P|334:325|331:367,1,85,8|0,0:0|0:0,0:0:0:0:
448,312,115337,5,2,0:0:0:0:
356,184,115521,1,0,0:0:0:0:
452,188,115705,1,8,0:0:0:0:
344,284,115889,1,0,0:0:0:0:
260,184,116073,2,0,P|250:142|246:100,1,85,2|0,0:0|0:0,0:0:0:0:
352,148,116441,1,8,0:0:0:0:
264,272,116625,1,0,0:0:0:0:
164,184,116810,6,0,P|82:170|15:218,1,170,2|8,0:0|0:0,0:0:0:0:
28,348,117362,1,0,0:0:0:0:
152,272,117546,2,0,L|132:368,1,85,2|0,0:0|0:0,0:0:0:0:
68,232,117914,2,0,L|85:148,1,85,8|0,0:0|0:0,0:0:0:0:
180,44,118282,5,2,0:0:0:0:
192,144,118466,1,0,0:0:0:0:
96,56,118650,2,0,P|53:56|12:66,1,85,8|0,0:0|0:0,0:0:0:0:
68,232,119018,1,2,0:0:0:0:
151,156,119202,2,0,P|193:148|235:152,1,85,2|8,0:0|0:0,0:0:0:0:
296,272,119570,1,0,0:0:0:0:
296,272,119662,1,0,0:0:0:0:
296,272,119754,5,2,0:0:0:0:
428,192,119938,2,0,P|427:149|420:103,2,85,0|8|2,0:0|0:0|0:0,0:0:0:0:
296,272,120490,1,0,0:0:0:0:
332,132,120675,2,0,P|312:96|268:68,2,85,2|8|2,0:0|0:0|0:0,0:0:0:0:
296,272,121227,5,0,0:0:0:0:
200,184,121411,2,0,P|191:142|191:100,1,85,2|8,0:0|0:0,0:0:0:0:
219,223,121779,2,0,B|139:259|139:207|52:228,1,170,2|2,0:0|0:0,0:0:0:0:
8,300,122331,1,8,0:0:0:0:
92,364,122515,1,2,0:0:0:0:
128,204,122699,6,0,L|121:119,1,85,2|0,0:0|0:0,0:0:0:0:
8,300,123067,2,0,L|14:384,1,85,10|0,0:0|0:0,0:0:0:0:
48,200,123435,2,0,P|30:161|4:128,1,85,2|0,0:0|0:0,0:0:0:0:
112,304,123803,2,0,P|156:320|204:316,1,85,10|0,0:0|0:0,0:0:0:0:
296,208,124171,6,0,P|283:289|330:357,1,170,2|8,0:0|0:0,0:0:0:0:
396,264,124724,1,0,0:0:0:0:
368,140,124908,1,8,0:0:0:0:
368,140,125000,1,8,0:0:0:0:
368,140,125092,1,8,0:0:0:0:
396,264,125276,2,0,P|440:240|464:204,1,85,8|0,0:0|0:0,0:0:0:0:
296,208,125644,6,0,L|156:200,1,118.999996368408,4|2,0:0|0:0,0:0:0:0:
96,196,126196,1,0,0:0:0:0:
128,272,126380,2,0,P|96:336|32:340,2,118.999996368408,2|2|2,0:0|0:0|0:0,0:0:0:0:
96,196,127300,1,0,0:0:0:0:
159,144,127484,2,0,P|159:114|153:85,1,59.4999981842042,2|0,0:0|0:0,0:0:0:0:
96,196,127852,2,0,P|140:220|172:216,1,59.4999981842042,2|0,0:0|0:0,0:0:0:0:
276,212,128221,2,0,P|252:194|224:188,1,59.4999981842042,10|0,0:0|0:0,0:0:0:0:
288,288,128589,6,0,P|345:272|404:276,1,118.999996368408,2|2,0:0|0:0,0:0:0:0:
468,124,129325,2,0,P|408:128|351:112,1,118.999996368408,2|2,0:0|0:0,0:0:0:0:
332,32,129877,1,0,0:0:0:0:
268,87,130061,2,0,P|266:116|272:146,1,59.4999981842042,2|0,0:0|0:0,0:0:0:0:
336,250,130429,2,0,P|341:221|340:192,1,59.4999981842042,2|0,0:0|0:0,0:0:0:0:
272,304,130797,2,0,L|416:292,1,118.999996368408,2|10,0:0|0:0,0:0:0:0:
216,196,131533,5,2,0:0:0:0:
136,220,131902,1,2,0:0:0:0:
88,152,132270,1,2,0:0:0:0:
4,148,132638,1,2,0:0:0:0:
88,152,133006,2,0,P|104:108|104:84,1,59.4999981842042,2|0,0:0|0:0,0:0:0:0:
44,220,133374,2,0,P|70:232|100:236,1,59.4999981842042,10|0,0:0|0:0,0:0:0:0:
176,144,133742,5,10,0:0:0:0:
176,144,133926,1,0,0:0:0:0:
260,36,134110,2,0,L|269:120,1,85,8|0,0:0|0:0,0:0:0:0:
176,144,134478,5,0,0:0:0:0:
176,144,134662,1,0,0:0:0:0:
360,80,134846,2,0,L|369:164,1,85,8|0,0:0|0:0,0:0:0:0:
300,288,135214,5,0,0:0:0:0:
300,288,135398,1,0,0:0:0:0:
216,232,135583,2,0,L|132:245,1,85,8|0,0:0|0:0,0:0:0:0:
300,288,135951,5,0,0:0:0:0:
300,288,136135,1,0,0:0:0:0:
260,128,136319,2,0,L|177:142,1,85,8|0,0:0|0:0,0:0:0:0:
300,288,136687,5,0,0:0:0:0:
264,132,136871,1,8,0:0:0:0:
232,376,137055,1,8,0:0:0:0:
203,171,137239,6,0,P|126:146|60:195,1,170,4|8,0:0|0:0,0:0:0:0:
132,368,137791,1,8,0:0:0:0:
144,240,137975,1,8,0:0:0:0:
240,304,138159,1,8,0:0:0:0:
40,288,138343,1,8,0:0:0:0:
80,164,138527,1,8,0:0:0:0:
132,368,138711,5,10,0:0:0:0:
132,368,138803,1,10,0:0:0:0:
132,368,138895,1,10,0:0:0:0:
230,96,139079,1,10,0:0:0:0:
230,96,139632,6,0,L|246:196,1,85,8|8,0:0|0:0,0:0:0:0:
318,243,140000,1,8,0:0:0:0:
293,264,140092,1,8,0:0:0:0:
263,275,140184,1,8,0:0:0:0:
232,276,140276,1,8,0:0:0:0:
201,267,140368,6,0,P|125:232|42:242,1,170,4|8,0:0|0:0,0:0:0:0:
104,348,140920,1,10,0:0:0:0:
147,212,141104,2,0,P|158:149|144:84,1,127.5,2|0,0:0|0:0,0:0:0:0:
124,64,141472,6,0,L|288:52,1,127.500004863739,10|2,0:0|0:0,0:0:0:0:
392,40,141840,6,0,P|364:124|400:192,1,170,2|8,0:0|0:0,0:0:0:0:
464,112,142392,1,10,0:0:0:0:
295,163,142576,2,0,P|296:228|304:292,1,127.5,2|0,0:0|0:0,0:0:0:0:
284,316,142944,6,0,P|234:277|172:266,1,127.500004863739,10|0,0:0|0:0,0:0:0:0:
6,218,143313,6,0,B|56:184|107:205|107:205|128:180|168:180,1,170,2|10,0:0|0:0,0:0:0:0:
64,280,143865,1,8,0:0:0:0:
84,120,144049,2,0,L|72:16,1,85,2|0,0:0|0:0,0:0:0:0:
204,32,144417,1,8,0:0:0:0:
188,128,144601,1,2,0:0:0:0:
352,104,144785,6,0,P|311:93|263:89,1,85,0|2,0:0|0:0,0:0:0:0:
320,272,145153,1,8,0:0:0:0:
260,168,145337,1,10,0:0:0:0:
200,280,145521,2,0,L|216:376,1,85,2|0,0:0|0:0,0:0:0:0:
120,212,145889,2,0,L|106:128,1,85,10|0,0:0|0:0,0:0:0:0:
12,68,146257,6,0,P|100:87|188:40,1,170,2|8,0:0|0:0,0:0:0:0:
260,168,146810,1,10,0:0:0:0:
364,64,146994,2,0,P|321:67|279:75,1,85,2|0,0:0|0:0,0:0:0:0:
260,168,147362,1,8,0:0:0:0:
180,80,147546,1,0,0:0:0:0:
136,188,147730,6,0,L|152:284,1,85,2|0,0:0|0:0,0:0:0:0:
224,344,148098,1,8,0:0:0:0:
359,273,148282,2,0,P|337:194|260:168,1,170,10|0,0:0|0:0,0:0:0:0:
303,335,148834,2,0,P|340:356|392:352,1,85,10|0,0:0|0:0,0:0:0:0:
244,260,149202,6,0,P|201:259|165:280,1,85,2|0,0:0|0:0,0:0:0:0:
304,336,149570,1,8,0:0:0:0:
367,187,149754,2,0,L|360:272,1,85,10|0,0:0|0:0,0:0:0:0:
244,260,150122,1,10,0:0:0:0:
300,100,150306,1,8,0:0:0:0:
164,184,150490,6,0,P|82:185|32:119,1,170,4|0,0:0|0:0,0:0:0:0:
220,52,151043,2,0,L|232:160,1,85,8|0,0:0|0:0,0:0:0:0:
116,92,151411,1,10,0:0:0:0:
328,40,151595,1,0,0:0:0:0:
272,280,151779,1,10,0:0:0:0:
376,176,151963,1,8,0:0:0:0:
376,176,152055,1,8,0:0:0:0:
377,176,152147,6,0,P|388:95|326:41,2,170,0|12|2,0:0|0:0|0:0,0:0:0:0:
272,136,153067,1,0,0:0:0:0:
216,208,153251,2,0,P|164:212|124:200,1,85,8|0,0:0|0:0,0:0:0:0:
80,108,153619,5,2,0:0:0:0:
56,256,153803,1,0,0:0:0:0:
80,108,153987,2,0,L|88:20,1,85,8|8,0:0|0:0,0:0:0:0:
160,140,154356,1,2,0:0:0:0:
24,176,154540,1,0,0:0:0:0:
160,140,154724,2,0,L|256:132,1,85,8|0,0:0|0:0,0:0:0:0:
356,180,155092,6,0,P|284:140|278:58,1,170,2|8,0:0|0:0,0:0:0:0:
388,40,155644,1,8,0:0:0:0:
460,144,155828,2,0,P|464:188|456:236,1,85,2|0,0:0|0:0,0:0:0:0:
352,300,156196,1,8,0:0:0:0:
356,180,156380,1,0,0:0:0:0:
248,216,156564,6,0,P|205:213|160:224,1,85,2|0,0:0|0:0,0:0:0:0:
80,328,156932,2,0,P|122:330|168:320,1,85,8|10,0:0|0:0,0:0:0:0:
96,168,157300,1,2,0:0:0:0:
8,268,157484,1,0,0:0:0:0:
8,128,157668,1,10,0:0:0:0:
112,252,157852,1,8,0:0:0:0:
112,252,157944,1,8,0:0:0:0:
112,252,158037,6,0,B|200:272|200:232|280:248,1,170,4|8,0:0|0:0,0:0:0:0:
368,268,158589,1,10,0:0:0:0:
328,96,158773,2,0,P|325:138|331:180,1,85,2|0,0:0|0:0,0:0:0:0:
432,140,159141,2,0,P|434:97|428:55,1,85,8|2,0:0|0:0,0:0:0:0:
328,96,159509,5,2,0:0:0:0:
400,236,159693,1,0,0:0:0:0:
432,140,159877,1,8,0:0:0:0:
284,240,160061,2,0,P|258:318|309:382,1,170,10|0,0:0|0:0,0:0:0:0:
284,240,160613,2,0,L|202:224,1,85,8|0,0:0|0:0,0:0:0:0:
112,112,160981,5,10,0:0:0:0:
136,260,161165,1,8,0:0:0:0:
28,204,161349,1,8,0:0:0:0:
176,176,161533,1,10,0:0:0:0:
56,288,161717,1,8,0:0:0:0:
32,112,161902,1,8,0:0:0:0:
184,56,162086,1,10,0:0:0:0:
136,260,162270,1,8,0:0:0:0:
136,260,162362,1,8,0:0:0:0:
136,260,162454,5,10,0:0:0:0:
116,84,162638,1,8,0:0:0:0:
280,188,162822,1,8,0:0:0:0:
232,340,163006,1,10,0:0:0:0:
160,164,163190,1,8,0:0:0:0:
316,84,163374,1,8,0:0:0:0:
348,292,163558,1,10,0:0:0:0:
216,92,163742,1,8,0:0:0:0:
168,300,163926,5,10,0:0:0:0:
368,160,164110,1,8,0:0:0:0:
304,384,164294,1,8,0:0:0:0:
188,144,164478,1,10,0:0:0:0:
76,368,164662,1,8,0:0:0:0:
16,112,164846,1,10,0:0:0:0:
260,240,165030,1,8,0:0:0:0:
16,308,165214,1,12,0:0:0:0:
176,228,165583,6,0,P|148:150|155:68,1,165.749992412568,4|2,0:0|0:0,0:0:0:0:
356,68,166135,2,0,P|363:150|336:228,2,165.749992412568,4|2|2,0:0|0:0|0:0,0:0:0:0:
236,64,166871,6,0,L|208:232,1,170,4|8,0:0|0:0,0:0:0:0:
188,332,167423,2,0,P|272:312|308:236,1,170,8|0,0:0|0:0,0:0:0:0:
308,136,167975,1,8,0:0:0:0:
208,232,168159,1,8,0:0:0:0:
208,232,168251,1,8,0:0:0:0:
208,232,168343,5,12,0:0:0:0:
256,192,168435,12,4,169816,0:0:0:0:
88,216,181595,6,0,B|172:192|172:236|256:213,1,170,4|8,0:0|0:0,0:0:0:0:
328,124,182147,1,8,0:0:0:0:
328,124,182515,1,0,0:0:0:0:
372,208,182699,2,0,L|376:296,1,85,8|0,0:0|0:0,0:0:0:0:
248,356,183067,6,0,P|211:280|227:198,1,170,0|8,0:0|0:0,0:0:0:0:
200,112,183619,1,8,0:0:0:0:
128,168,183803,2,0,L|32:160,1,85
200,112,184171,2,0,L|284:104,1,85,8|0,0:0|0:0,0:0:0:0:
396,88,184540,5,2,0:0:0:0:
396,88,184908,2,0,P|412:132|412:171,1,85,10|8,0:0|0:0,0:0:0:0:
332,232,185276,2,0,P|316:188|315:148,1,85,2|0,0:0|0:0,0:0:0:0:
412,169,185644,1,8,0:0:0:0:
407,284,185828,6,0,P|337:325|261:294,1,170,2|0,0:0|0:0,0:0:0:0:
160,252,186380,2,0,P|151:293|154:335,1,85,10|8,0:0|0:0,0:0:0:0:
252,200,186748,1,2,0:0:0:0:
172,136,186932,1,0,0:0:0:0:
87,196,187116,2,0,P|45:193|6:177,1,85,10|0,0:0|0:0,0:0:0:0:
116,72,187484,5,14,0:0:0:0:
116,72,187668,2,0,L|224:56,1,85,0|0,0:0|0:0,0:0:0:0:
336,140,188037,1,10,0:0:0:0:
336,140,188221,2,0,L|228:124,1,85
172,216,188589,2,0,P|175:258|186:299,1,85,10|0,0:0|0:0,0:0:0:0:
356,240,188957,5,0,0:0:0:0:
284,336,189141,2,0,P|280:293|269:252,2,85,10|0|0,0:0|0:0|0:0,0:0:0:0:
172,216,189693,2,0,P|175:173|186:132,1,85,10|0,0:0|0:0,0:0:0:0:
280,88,190061,2,0,P|276:130|265:171,1,85,10|0,0:0|0:0,0:0:0:0:
192,44,190429,5,10,0:0:0:0:
192,44,190613,2,0,L|100:56,1,85
280,88,190981,1,10,0:0:0:0:
280,88,191165,2,0,L|372:100,1,85
192,148,191533,1,10,0:0:0:0:
240,292,191717,5,10,0:0:0:0:
240,292,191810,1,10,0:0:0:0:
240,292,191902,1,10,0:0:0:0:
280,88,192086,1,10,0:0:0:0:
256,192,192178,12,4,193374,0:0:0:0:
140,288,193742,6,0,P|136:240|124:156,2,118.999996368408,2|2|2,0:0|0:0|0:0,0:0:0:0:
260,176,194846,6,0,P|315:157|375:160,1,118.999996368408,2|2,0:0|0:0,0:0:0:0:
444,224,195398,1,0,0:0:0:0:
392,304,195583,2,0,P|336:322|276:319,1,118.999996368408,2|10,0:0|0:0,0:0:0:0:
156,268,196319,6,0,P|111:230|53:233,1,118.999996368408,2|2,0:0|0:0,0:0:0:0:
184,140,197055,2,0,P|228:177|286:174,1,118.999996368408,2|2,0:0|0:0,0:0:0:0:
436,84,197791,6,0,B|400:68|372:84|372:84|349:64|320:64,1,118.999996368408,2|2,0:0|0:0,0:0:0:0:
252,104,198343,1,0,0:0:0:0:
311,159,198527,2,0,P|312:189|307:218,1,59.4999981842042,2|0,0:0|0:0,0:0:0:0:
248,280,198895,2,0,P|306:271|366:270,1,118.999996368408,10|4,0:0|0:0,0:0:0:0:
456,132,199632,5,2,0:0:0:0:
400,72,200000,1,2,0:0:0:0:
328,116,200368,1,2,0:0:0:0:
268,56,200736,6,0,P|208:55|149:62,1,118.999996368408,2|2,0:0|0:0,0:0:0:0:
88,116,201288,1,0,0:0:0:0:
148,171,201472,2,0,P|145:231|134:289,1,118.999996368408,2|10,0:0|0:0,0:0:0:0:
288,352,202208,6,0,P|290:292|301:234,2,118.999996368408,2|2|2,0:0|0:0|0:0,0:0:0:0:
428,260,203313,2,0,L|420:192,1,59.4999981842042,2|0,0:0|0:0,0:0:0:0:
380,104,203681,5,10,0:0:0:0:
316,200,203865,1,8,0:0:0:0:
316,200,203957,1,8,0:0:0:0:
316,200,204049,1,8,0:0:0:0:
236,108,204233,2,0,L|164:104,1,59.4999981842042,12|0,0:0|0:0,0:0:0:0:
88,52,204601,2,0,B|60:96|80:144|80:144|40:128|-8:160,1,178.499994552612,12|4,0:0|0:0,0:0:0:0:
92,292,205521,5,2,0:0:0:0:
156,240,205889,1,2,0:0:0:0:
236,264,206257,1,2,0:0:0:0:
272,340,206625,1,2,0:0:0:0:
236,264,206994,5,2,0:0:0:0:
256,184,207362,1,2,0:0:0:0:
328,140,207730,1,10,0:0:0:0:
256,184,208098,6,0,P|199:166|140:160,1,118.999996368408,2|2,0:0|0:0,0:0:0:0:
168,324,208834,2,0,P|224:341|283:347,1,118.999996368408,2|2,0:0|0:0,0:0:0:0:
372,328,209386,1,0,0:0:0:0:
316,208,209570,6,0,L|308:276,1,59.4999981842042,2|0,0:0|0:0,0:0:0:0:
396,184,209938,2,0,L|402:124,1,59.4999981842042,2|0,0:0|0:0,0:0:0:0:
336,44,210306,5,0,0:0:0:0:
304,124,210490,1,0,0:0:0:0:
156,64,210675,2,0,P|196:52|238:54,1,85,8|0,0:0|0:0,0:0:0:0:
232,216,211043,5,0,0:0:0:0:
164,152,211227,1,0,0:0:0:0:
120,260,211411,2,0,L|136:360,1,85,8|0,0:0|0:0,0:0:0:0:
164,152,211779,5,0,0:0:0:0:
72,196,211963,1,0,0:0:0:0:
84,32,212147,2,0,P|86:74|95:115,1,85,8|0,0:0|0:0,0:0:0:0:
196,48,212515,5,0,0:0:0:0:
164,152,212699,1,0,0:0:0:0:
328,136,212883,2,0,P|288:121|245:118,1,85,8|0,0:0|0:0,0:0:0:0:
396,256,213251,5,0,0:0:0:0:
384,44,213435,1,8,0:0:0:0:
484,168,213619,1,8,0:0:0:0:
280,72,213803,2,0,P|196:96|192:192,1,170,12|8,0:0|0:0,0:0:0:0:
304,284,214356,5,8,0:0:0:0:
264,152,214540,1,8,0:0:0:0:
160,244,214724,1,8,0:0:0:0:
332,208,214908,1,8,0:0:0:0:
184,80,215092,1,8,0:0:0:0:
228,288,215276,1,10,0:0:0:0:
228,288,215368,1,10,0:0:0:0:
228,288,215460,1,10,0:0:0:0:
296,32,215644,1,10,0:0:0:0:
332,208,216012,5,8,0:0:0:0:
332,208,216104,1,8,0:0:0:0:
332,208,216196,2,0,L|416:204,1,85,8|8,0:0|0:0,0:0:0:0:
240,248,216564,2,0,L|156:244,1,85,8|8,0:0|0:0,0:0:0:0:
296,324,216932,5,12,0:0:0:0:
331,229,225398,6,0,P|332:186|334:144,1,85,8|0,0:0|0:0,0:0:0:0:
364,300,225767,6,0,P|284:324|204:264,1,170,12|8,0:0|0:0,0:0:0:0:
188,172,226319,1,8,0:0:0:0:
72,204,226503,1,8,0:0:0:0:
112,120,226687,1,8,0:0:0:0:
132,284,226871,1,8,0:0:0:0:
192,80,227055,6,0,P|125:32|48:61,1,170,12|8,0:0|0:0,0:0:0:0:
56,260,227607,1,8,0:0:0:0:
112,120,227791,1,8,0:0:0:0:
172,216,227975,1,8,0:0:0:0:
24,184,228159,1,8,0:0:0:0:
148,300,228343,1,8,0:0:0:0:
220,116,228527,5,10,0:0:0:0:
220,116,228619,1,10,0:0:0:0:
220,116,228711,1,10,0:0:0:0:
260,352,228895,1,10,0:0:0:0:
328,208,229264,5,8,0:0:0:0:
328,208,229356,1,8,0:0:0:0:
328,208,229448,2,0,L|332:292,1,85,8|8,0:0|0:0,0:0:0:0:
410,135,229816,1,8,0:0:0:0:
388,112,229908,1,8,0:0:0:0:
360,97,230000,1,8,0:0:0:0:
329,92,230092,1,8,0:0:0:0:
297,96,230184,6,0,P|223:135|143:116,1,170,4|8,0:0|0:0,0:0:0:0:
64,48,230736,1,10,0:0:0:0:
112,192,230920,2,0,P|124:272|100:320,1,127.5,2|0,0:0|0:0,0:0:0:0:
88,340,231288,6,0,P|152:324|232:320,1,127.500004863739,10|2,0:0|0:0,0:0:0:0:
324,344,231656,6,0,P|296:260|332:192,1,170,2|8,0:0|0:0,0:0:0:0:
396,272,232208,1,10,0:0:0:0:
227,221,232392,2,0,L|236:92,1,127.5,2|0,0:0|0:0,0:0:0:0:
216,68,232760,6,0,P|166:107|104:118,1,127.500004863739,10|0,0:0|0:0,0:0:0:0:
47,219,233129,6,0,P|89:226|132:224,1,85,2|0,0:0|0:0,0:0:0:0:
152,332,233497,2,0,P|191:316|226:293,1,85,10|8,0:0|0:0,0:0:0:0:
248,112,233865,2,0,P|227:149|217:190,1,85,2|0,0:0|0:0,0:0:0:0:
320,292,234233,1,8,0:0:0:0:
300,180,234417,1,2,0:0:0:0:
452,220,234601,6,0,P|410:227|367:226,1,85,0|2,0:0|0:0,0:0:0:0:
404,112,234969,2,0,P|445:104|488:105,1,85,8|10,0:0|0:0,0:0:0:0:
452,220,235337,1,2,0:0:0:0:
404,112,235521,1,2,0:0:0:0:
300,180,235705,2,0,P|256:164|225:139,1,85,10|0,0:0|0:0,0:0:0:0:
207,30,236073,6,0,L|168:196,1,170,2|8,0:0|0:0,0:0:0:0:
136,308,236625,1,10,0:0:0:0:
96,148,236810,2,0,P|168:108|244:152,1,170,2|8,0:0|0:0,0:0:0:0:
280,248,237362,1,2,0:0:0:0:
180,280,237546,6,0,L|168:196,1,85,2|0,0:0|0:0,0:0:0:0:
224,92,237914,1,8,0:0:0:0:
280,248,238098,2,0,P|328:288|432:248,1,170,10|0,0:0|0:0,0:0:0:0:
348,119,238650,2,0,P|348:162|356:204,1,85,10|0,0:0|0:0,0:0:0:0:
256,128,239018,6,0,P|256:85|248:43,1,85,2|0,0:0|0:0,0:0:0:0:
208,224,239386,1,8,0:0:0:0:
59,164,239570,2,0,L|152:148,1,85,10|0,0:0|0:0,0:0:0:0:
92,272,239938,2,0,L|8:257,1,85,10|0,0:0|0:0,0:0:0:0:
192,332,240306,6,0,L|275:317,1,85,12|0,0:0|0:0,0:0:0:0:
348,260,240675,1,2,0:0:0:0:
240,144,240859,2,0,P|239:186|249:227,1,85,8|2,0:0|0:0,0:0:0:0:
336,116,241227,1,10,0:0:0:0:
196,56,241411,1,0,0:0:0:0:
249,227,241595,1,10,0:0:0:0:
280,60,241779,1,8,0:0:0:0:
284,54,241871,1,8,0:0:0:0:
288,48,241963,6,0,P|352:36|416:120,2,170,10|12|2,0:0|0:0|0:0,0:0:0:0:
240,144,242883,1,0,0:0:0:0:
180,72,243067,2,0,P|138:65|95:66,1,85,8|0,0:0|0:0,0:0:0:0:
112,240,243435,6,0,P|124:199|131:157,1,85,2|0,0:0|0:0,0:0:0:0:
28,244,243803,1,8,0:0:0:0:
88,344,243987,1,8,0:0:0:0:
183,280,244171,2,0,P|225:272|268:270,1,85,2|0,0:0|0:0,0:0:0:0:
404,260,244540,1,8,0:0:0:0:
344,348,244724,1,0,0:0:0:0:
304,180,244908,6,0,P|331:105|411:105,2,170,2|8|2,0:0|0:0|0:0,0:0:0:0:
276,284,245828,1,0,0:0:0:0:
167,261,246012,2,0,P|172:303|184:344,1,85,8|2,0:0|0:0,0:0:0:0:
176,136,246380,5,0,0:0:0:0:
264,236,246564,1,2,0:0:0:0:
276,120,246748,1,8,0:0:0:0:
172,232,246932,1,8,0:0:0:0:
172,232,247024,1,0,0:0:0:0:
172,232,247116,2,0,L|72:224,1,85,2|2,0:0|0:0,0:0:0:0:
251,298,247484,2,0,L|336:292,1,85,10|8,0:0|0:0,0:0:0:0:
360,276,247760,1,8,0:0:0:0:
380,256,247852,6,0,P|408:196|360:100,1,170,4|8,0:0|0:0,0:0:0:0:
288,168,248405,1,10,0:0:0:0:
236,88,248589,2,0,P|194:79|151:81,1,85,2|0,0:0|0:0,0:0:0:0:
136,252,248957,1,8,0:0:0:0:
208,160,249141,1,2,0:0:0:0:
240,288,249325,6,0,L|228:384,1,85,2|0,0:0|0:0,0:0:0:0:
288,168,249693,1,8,0:0:0:0:
136,252,249877,2,0,P|76:180|104:112,1,170,10|0,0:0|0:0,0:0:0:0:
234,205,250429,2,0,P|246:246|240:288,1,85,8|0,0:0|0:0,0:0:0:0:
176,128,250797,5,10,0:0:0:0:
136,252,250981,1,8,0:0:0:0:
280,220,251165,1,8,0:0:0:0:
96,144,251349,1,10,0:0:0:0:
216,316,251533,1,8,0:0:0:0:
256,124,251717,1,8,0:0:0:0:
56,252,251902,1,10,0:0:0:0:
208,208,252086,1,8,0:0:0:0:
208,208,252178,1,8,0:0:0:0:
208,208,252270,5,10,0:0:0:0:
84,76,252454,1,8,0:0:0:0:
124,312,252638,1,8,0:0:0:0:
280,168,252822,1,10,0:0:0:0:
72,164,253006,1,8,0:0:0:0:
216,304,253190,1,8,0:0:0:0:
220,76,253374,1,10,0:0:0:0:
124,232,253558,1,8,0:0:0:0:
312,88,253742,5,10,0:0:0:0:
124,28,253926,1,8,0:0:0:0:
236,264,254110,1,8,0:0:0:0:
32,116,254294,1,10,0:0:0:0:
104,344,254478,1,8,0:0:0:0:
220,104,254662,1,10,0:0:0:0:
8,216,254846,1,8,0:0:0:0:
228,376,255030,1,12,0:0:0:0:
323,280,255398,6,0,P|357:226|368:112,1,165.749992412568,4|2,0:0|0:0,0:0:0:0:
141,126,255951,2,0,P|147:208|188:280,2,165.749992412568,4|2|2,0:0|0:0|0:0,0:0:0:0:
280,60,256687,6,0,L|264:172,1,85,4|0,0:0|0:0,0:0:0:0:
324,280,257055,1,8,0:0:0:0:
232,224,257239,1,8,0:0:0:0:
368,116,257423,2,0,L|355:200,1,85
280,60,257791,1,8,0:0:0:0:
364,24,257975,1,0,0:0:0:0:
288,140,258159,6,0,P|245:133|204:125,1,85
108,32,258527,1,8,0:0:0:0:
124,160,258711,2,0,P|116:201|104:243,1,85,8|0,0:0|0:0,0:0:0:0:
0,260,259079,5,2,0:0:0:0:
79,342,259264,1,10,0:0:0:0:
107,343,259356,1,10,0:0:0:0:
135,337,259448,1,10,0:0:0:0:
160,325,259540,1,10,0:0:0:0:
182,307,259632,6,0,P|224:300|272:296,1,85,4|0,0:0|0:0,0:0:0:0:
360,296,260000,1,8,0:0:0:0:
328,140,260184,2,0,L|308:236,1,85,12|0,0:0|0:0,0:0:0:0:
416,132,260552,2,0,L|433:48,1,85,0|8,0:0|0:0,0:0:0:0:
440,264,260920,1,12,0:0:0:0:
440,264,261288,6,0,L|512:256,2,63.7500024318696,2|2|2,0:0|0:0|0:0,0:0:0:0:
360,296,261840,2,0,L|288:288,2,63.7500024318696,2|2|2,0:0|0:0|0:0,0:0:0:0:
424,352,262392,1,10,0:0:0:0:
424,352,262760,5,2,0:0:0:0:
371,233,262944,2,0,L|360:296,1,63.7500024318696,2|0,0:0|0:0,0:0:0:0:
444,156,263313,1,2,0:0:0:0:
320,144,263497,1,10,0:0:0:0:
320,144,263589,1,10,0:0:0:0:
320,144,263681,1,10,0:0:0:0:
252,248,263865,6,0,B|224:272|180:276|148:252|148:252|116:228|64:268|108:320|160:300,1,255.000009727478,10|4,0:0|0:0,0:0:0:0:
256,192,264693,12,0,269570,0:0:0:0:
