osu file format v6

[General]
AudioFilename: Fuja Lurdes - Espero.mp3
AudioLeadIn: 0
PreviewTime: -1
Countdown: 1
SampleSet: Soft
StackLeniency: 0.7
Mode: 0
LetterboxInBreaks: 1

[Editor]
DistanceSpacing: 0.800000011920929
BeatDivisor: 4
GridSize: 8

[Metadata]
Title:Espero
Artist:Fuja Lurdes
Creator:enrique123carol
Version:Normal
Source:
Tags:Caroline Eu Te Amo

[Difficulty]
HPDrainRate:5
CircleSize:5
OverallDifficulty:5
SliderMultiplier:1.4
SliderTickRate:1

[Events]
//Background and Video events
0,0,"OgAAALQPPXxPmaS63d6NYrTPZGOMCAfEvzP2xi0XwldFm7qyGFahFXqHP7DC3utM7mIo2BRlUKqd1zXs8JL7wHxVfacAm1T1UHeTM7K5ezytzLK3EDF3Qd_0VdLh.jpg"
//Break Periods
2,120200,125550
//Storyboard Layer 0 (Background)
//Storyboard Layer 1 (Fail)
//Storyboard Layer 2 (Pass)
//Storyboard Layer 3 (Foreground)
//Storyboard Sound Samples
//Background Colour Transformations
3,100,163,162,255

[TimingPoints]
0,1000,4,2,0,100,1,0

[Colours]
Combo1 : 255,150,0
Combo2 : 5,240,5
Combo3 : 5,5,240
Combo4 : 240,5,5

[HitObjects]
104,77,9500,1,0
272,84,10250,1,0
395,111,11000,1,0
120,166,11750,1,0
98,82,12250,1,0
250,75,12750,1,0
169,228,13500,1,0
127,147,14000,1,0
209,113,14500,1,0
350,149,14750,1,0
181,238,15750,1,0
113,128,16250,1,0
225,101,16750,1,0
350,156,17000,1,0
196,231,18000,1,0
144,151,18250,1,0
168,84,18500,1,0
269,132,19250,1,0
120,145,20250,1,0
235,64,21250,1,0
189,122,21750,1,0
348,106,22500,1,0
294,164,22750,1,0
120,103,23500,1,0
172,183,24500,1,0
248,158,24750,1,0
333,93,25250,1,0
258,201,26250,1,0
163,140,26750,1,0
123,93,27000,1,0
123,93,27250,1,0
266,124,28250,1,0
141,211,29250,1,0
197,161,30000,1,0
231,93,30250,1,0
320,124,30750,1,0
145,125,31500,1,0
98,138,31750,1,0
112,210,32000,1,0
227,221,32750,1,0
330,194,33000,1,0
231,78,33750,1,0
148,53,34500,1,0
81,121,35000,1,0
148,233,35500,1,0
234,307,36000,1,0
320,272,36750,1,0
373,160,37250,1,0
357,79,37750,1,0
251,47,38250,1,0
176,77,39000,1,0
97,41,39500,1,0
131,162,40250,1,0
265,171,40750,1,0
296,243,41000,1,0
176,222,41250,1,0
172,106,41750,1,0
310,70,42750,1,0
306,172,43500,1,0
187,138,44000,1,0
90,113,45250,1,0
105,191,45500,1,0
198,245,45750,1,0
221,130,46250,1,0
360,133,47500,1,0
134,123,48500,1,0
117,218,49250,1,0
254,257,49500,1,0
251,150,50000,1,0
157,124,50750,1,0
339,107,51250,1,0
275,130,52500,5,0
149,229,53000,1,0
150,114,53500,1,0
268,193,54000,1,0
386,165,54250,1,0
198,137,54750,1,0
85,232,55250,1,0
207,236,56000,1,0
125,121,56500,1,0
287,97,57000,1,0
302,168,57250,1,0
207,236,57500,1,0
298,285,58000,1,0
376,161,58500,1,0
252,105,58750,1,0
182,128,59000,1,0
116,199,59250,1,0
183,273,60000,1,0
176,156,61000,1,0
282,158,62000,1,0
209,228,62750,1,0
127,166,63000,1,0
161,126,63250,1,0
248,122,63500,1,0
344,145,64000,1,0
274,239,64500,1,0
177,151,65500,1,0
128,256,66750,1,0
214,277,67000,1,0
318,245,67500,1,0
387,267,67750,1,0
406,238,68000,1,0
384,168,68250,1,0
168,170,69000,1,0
132,220,69250,1,0
239,262,70000,1,0
87,172,70500,1,0
90,255,71250,1,0
165,201,71750,1,0
294,250,72250,1,0
162,310,73000,1,0
256,208,74250,12,0,76250
146,154,77500,5,0
261,173,78000,1,0
170,238,78250,1,0
105,255,78500,1,0
78,127,79000,1,0
281,197,80000,1,0
237,132,80250,1,0
370,105,80750,1,0
387,202,81500,1,0
220,213,82000,1,0
146,251,83250,1,0
219,305,83750,1,0
264,204,84250,1,0
183,172,84750,1,0
227,99,85000,1,0
340,98,85750,1,0
370,123,86250,1,0
400,206,86500,1,0
258,224,87000,1,0
158,176,88000,1,0
124,217,88750,1,0
142,249,89000,1,0
295,207,89500,1,0
297,91,90750,5,0
183,138,91250,1,0
155,201,91750,1,0
212,255,92250,1,0
289,232,92750,1,0
176,129,93250,1,0
264,126,93750,1,0
374,117,94000,1,0
297,230,95000,1,0
149,148,95500,1,0
200,96,95750,1,0
283,77,96000,1,0
383,93,96250,1,0
410,257,97250,1,0
245,187,97750,1,0
58,226,100000,1,0
256,208,101750,12,0,110250
229,72,111250,6,0,B|194:26|173:11|149:-2|125:-14|99:-18|78:-17|52:-7|41:19|26:52|29:83|27:118|33:144|46:165|55:198|65:231|80:264|102:285|130:309|148:328|185:354|207:382|211:403|229:406|244:401|254:390|270:381|291:367|312:347|329:337|345:327|360:314|368:298|404:266|421:246|430:233|446:206|450:173|464:139|467:89|455:64|436:50|369:9|335:13|314:13|300:25|288:36|263:79|240:104|226:98|226:108,1,1225
155,98,126750,5,8
324,76,127250,1,8
222,176,127750,1,8
104,211,128000,1,8
267,273,128500,1,8
385,197,129000,1,8
238,98,129500,1,8
185,179,130000,1,8
266,188,130500,1,8
327,74,131250,1,8
243,72,131500,1,8
148,82,131750,1,8
85,175,132250,1,8
215,267,133500,1,8
337,241,134000,1,8
391,106,134500,1,8
440,231,135250,1,8
240,128,135750,1,8
376,63,136250,1,8
330,164,136750,1,8
174,213,137750,1,8
116,124,138000,1,8
223,61,138500,1,8
378,146,139250,1,8
350,77,142500,1,8
376,168,143000,1,8
247,225,143500,1,8
138,261,144250,1,8
112,136,144750,1,8
184,111,145000,1,8
326,118,145250,1,8
372,214,146000,1,8
162,74,146500,6,0,B|130:55|88:43|43:45|1:76|-5:130|5:186|21:255|38:297|76:302|124:327|166:300|187:260|215:235|217:216,1,525
313,68,150750,2,0,B|274:38|219:24|180:36|153:73|128:119|146:161|190:189|249:199|304:199|338:192|355:193|297:198|255:202|221:205|198:206|182:228|140:252|116:286|116:317|160:336|209:343|258:354|316:337|376:306|393:257|345:307,1,700
