osu file format v14

[General]
AudioFilename: Fubuki feat. Flower - Drumstep [ dj-Jo Remix ] (1).mp3
AudioLeadIn: 0
PreviewTime: -1
Countdown: 1
SampleSet: None
StackLeniency: 0.7
Mode: 0
LetterboxInBreaks: 1
WidescreenStoryboard: 1

[Editor]
DistanceSpacing: 1
BeatDivisor: 6
GridSize: 4
TimelineZoom: 2.1

[Metadata]
Title:Drumstep [ dj-Jo Remix ]
TitleUnicode:Drumstep [ dj-Jo Remix ]
Artist:Fubuki feat. Flower
ArtistUnicode:Fubuki feat. Flower
Creator:Ginoshi
Version:Insane
Source:
Tags:
BeatmapID:707732
BeatmapSetID:310945

[Difficulty]
HPDrainRate:5
CircleSize:5
OverallDifficulty:5
ApproachRate:5
SliderMultiplier:1.6
SliderTickRate:1

[Events]
//Background and Video events
0,0,"images (2).jpg",0,0
//Break Periods
//Storyboard Layer 0 (Background)
//Storyboard Layer 1 (Fail)
//Storyboard Layer 2 (Pass)
//Storyboard Layer 3 (Foreground)
//Storyboard Sound Samples

[TimingPoints]
801,331.491712707182,4,2,0,100,1,0

[HitObjects]
192,188,801,5,0,0:0:0:0:
312,188,1132,1,0,0:0:0:0:
252,188,1463,2,0,L|252:24,1,160
368,304,2126,2,0,P|280:276|300:220,1,160
368,232,2624,1,0,0:0:0:0:
436,280,2789,1,0,0:0:0:0:
36,36,3452,6,0,P|36:120|116:116,1,160
108,200,3950,1,0,0:0:0:0:
464,48,4115,2,0,L|344:164,1,160
284,200,4613,1,0,0:0:0:0:
472,352,4778,6,0,L|472:176,1,160
472,132,5276,1,0,0:0:0:0:
472,56,5441,1,0,0:0:0:0:
56,356,6436,6,0,L|56:176,1,160
472,40,7099,2,0,L|472:200,1,160
56,36,7762,2,0,L|56:212,1,160
476,364,8425,2,0,L|476:192,1,160
476,144,8922,1,0,0:0:0:0:
476,84,9088,1,0,0:0:0:0:
88,172,9419,6,0,L|88:88,2,80
156,176,9917,1,0,0:0:0:0:
224,176,10082,2,0,P|220:136|252:120,2,80
292,176,10580,1,0,0:0:0:0:
356,176,10745,1,0,0:0:0:0:
360,324,11077,6,0,L|176:324,2,160
256,192,12071,12,0,14557,0:0:0:0:
80,48,14723,6,0,L|80:216,1,160
80,272,15220,1,0,0:0:0:0:
152,272,15386,1,0,0:0:0:0:
472,40,15718,1,0,0:0:0:0:
40,344,16049,1,0,0:0:0:0:
376,140,16381,2,0,L|376:308,1,160
468,348,16878,1,0,0:0:0:0:
44,36,17044,1,0,0:0:0:0:
120,40,17375,6,0,L|120:208,1,160
336,208,18038,2,0,L|336:48,1,160
132,168,18701,5,0,0:0:0:0:
196,168,18922,1,0,0:0:0:0:
260,168,19088,1,0,0:0:0:0:
324,168,19254,1,0,0:0:0:0:
388,168,19364,2,0,L|192:72,1,213.333333333333
472,348,20138,2,0,L|328:240,1,160
196,216,20635,2,0,L|196:144,1,53.3333333333333
44,356,21353,6,0,L|44:280,1,53.3333333333333
268,208,22016,2,0,L|328:160,1,53.3333333333333
32,32,22458,1,0,0:0:0:0:
292,60,22789,6,0,P|416:52|424:36,1,160
476,176,23287,1,0,0:0:0:0:
356,340,23397,1,0,0:0:0:0:
44,44,24005,2,0,L|44:116,1,53.3333333333333
256,56,24447,1,0,0:0:0:0:
472,40,24778,2,0,L|320:160,1,186.666666666667
325,155,25331,1,0,0:0:0:0:
325,155,25497,1,0,0:0:0:0:
101,108,27044,1,0,0:0:0:0:
474,333,27099,1,0,0:0:0:0:
