osu file format v14

[General]
AudioFilename: Fubuki feat. Flower - Drumstep [ dj-Jo Remix ] (1).mp3
AudioLeadIn: 0
PreviewTime: -1
Countdown: 1
SampleSet: Soft
StackLeniency: 0.7
Mode: 0
LetterboxInBreaks: 1
WidescreenStoryboard: 0

[Editor]
DistanceSpacing: 1
BeatDivisor: 2
GridSize: 4
TimelineZoom: 0.1

[Metadata]
Title:Drumstep [ dj-Jo Remix ]
TitleUnicode:Drumstep [ dj-Jo Remix ]
Artist:Fubuki feat. Flower
ArtistUnicode:Fubuki feat. Flower
Creator:Ginoshi
Version:Hard
Source:
Tags:
BeatmapID:694752
BeatmapSetID:310945

[Difficulty]
HPDrainRate:5
CircleSize:5
OverallDifficulty:5
ApproachRate:5
SliderMultiplier:1.6
SliderTickRate:1

[Events]
//Background and Video events
0,0,"images (2).jpg",0,0
//Break Periods
2,45753,53646
//Storyboard Layer 0 (Background)
//Storyboard Layer 1 (Fail)
//Storyboard Layer 2 (Pass)
//Storyboard Layer 3 (Foreground)
//Storyboard Sound Samples

[TimingPoints]
1500,331.878651685392,4,2,0,100,1,0

[HitObjects]
176,60,1496,6,0,L|416:60,1,240
416,124,2160,1,0,0:0:0:0:
416,192,2658,2,0,L|336:192,1,80
104,52,3488,2,0,L|104:296,1,240
168,292,4151,1,0,0:0:0:0:
240,292,4649,1,0,0:0:0:0:
308,292,4815,2,0,L|308:44,1,240
376,52,5479,1,0,0:0:0:0:
380,152,6475,5,0,0:0:0:0:
452,152,6806,1,0,0:0:0:0:
452,220,7470,1,0,0:0:0:0:
380,220,8134,1,0,0:0:0:0:
308,220,8798,1,0,0:0:0:0:
236,220,9461,2,0,L|68:156,1,160
240,132,10125,2,0,L|416:132,1,160
236,220,10789,2,0,L|88:104,1,160
316,136,11453,2,0,L|488:136,1,160
476,208,11951,1,0,0:0:0:0:
476,272,12116,1,0,0:0:0:0:
256,192,12199,12,0,14689,0:0:0:0:
416,88,14771,6,0,L|416:264,1,160
348,252,15269,2,0,L|348:160,1,80
348,172,15601,1,0,0:0:0:0:
264,172,15933,2,0,L|264:256,1,80
192,256,16265,2,0,L|192:160,1,80
192,112,16597,1,0,0:0:0:0:
232,112,16680,1,0,0:0:0:0:
272,112,16763,1,0,0:0:0:0:
348,112,17095,6,0,L|188:256,1,200
348,192,17924,2,0,L|240:192,1,80
420,200,18588,2,0,L|420:112,1,80
416,60,19252,2,0,L|320:60,1,80
336,60,19501,1,0,0:0:0:0:
336,60,19584,1,0,0:0:0:0:
276,68,19750,1,0,0:0:0:0:
424,140,20082,2,0,L|344:140,1,80
324,140,20413,2,0,L|324:344,1,200
208,72,21492,6,0,L|208:236,1,160
268,232,21907,1,0,0:0:0:0:
304,232,21990,1,0,0:0:0:0:
344,236,22073,1,0,0:0:0:0:
420,240,22488,1,0,0:0:0:0:
184,232,22820,2,0,L|184:60,1,160
252,72,23234,1,0,0:0:0:0:
288,72,23317,1,0,0:0:0:0:
316,76,23400,1,0,0:0:0:0:
264,236,24064,6,0,L|264:188,1,40
328,240,24396,2,0,L|328:196,1,40
392,240,24728,2,0,L|392:188,1,40
456,240,25060,2,0,L|456:184,1,40
456,168,25475,2,0,B|312:48|428:120,1,160
456,96,26052,1,0,0:0:0:0:
396,116,26304,1,0,0:0:0:0:
342,139,26470,1,0,0:0:0:0:
260,148,26802,2,0,L|260:56,1,80
260,68,27134,1,0,0:0:0:0:
184,72,27300,1,0,0:0:0:0:
240,204,27466,2,0,L|240:324,1,120
240,324,27798,1,0,0:0:0:0:
340,328,28130,6,0,L|340:164,1,160
340,260,28793,2,0,L|340:96,1,160
340,188,29457,2,0,L|340:20,1,160
340,120,30121,2,0,L|144:120,1,160
272,120,30785,2,0,L|272:304,1,160
192,120,31282,1,0,0:0:0:0:
272,188,31448,2,0,L|80:188,1,160
192,120,31946,1,0,0:0:0:0:
188,192,32112,2,0,L|-8:192,1,160
192,120,32610,1,0,0:0:0:0:
272,124,32776,2,0,L|436:124,2,160
268,52,33606,1,0,0:0:0:0:
336,52,33772,2,0,L|424:52,4,80
336,120,34601,1,0,0:0:0:0:
264,124,34767,6,0,L|264:208,1,80
196,124,35099,2,0,L|196:220,1,80
128,124,35431,2,0,L|128:212,1,80
128,208,35763,1,0,0:0:0:0:
336,128,36095,6,0,L|336:220,1,80
336,208,36427,1,0,0:0:0:0:
336,208,36758,2,0,L|232:208,1,80
256,208,37090,1,0,0:0:0:0:
260,212,37256,1,0,0:0:0:0:
188,212,37588,6,0,L|188:80,1,80
188,132,37920,1,0,0:0:0:0:
192,104,38086,1,0,0:0:0:0:
192,68,38252,1,0,0:0:0:0:
192,40,38418,1,0,0:0:0:0:
488,360,38750,5,0,0:0:0:0:
44,40,39082,2,0,L|44:128,1,80
44,120,39413,1,0,0:0:0:0:
468,44,39745,6,0,L|468:136,1,80
468,124,40077,1,0,0:0:0:0:
472,208,40409,6,0,L|376:208,1,80
392,208,40741,1,0,0:0:0:0:
396,136,41073,6,0,L|300:136,1,80
316,136,41405,1,0,0:0:0:0:
288,140,41571,1,0,0:0:0:0:
256,140,41737,1,0,0:0:0:0:
228,140,41903,1,0,0:0:0:0:
204,144,42068,1,0,0:0:0:0:
256,192,43230,12,0,45553,0:0:0:0:
256,192,54846,12,0,58662,0:0:0:0:
136,84,60156,6,0,L|300:84,1,160
296,84,60654,1,0,0:0:0:0:
300,88,60986,2,0,L|124:84,1,160
140,84,61483,1,0,0:0:0:0:
144,300,61815,2,0,L|336:300,1,160
304,300,62313,1,0,0:0:0:0:
304,300,62645,2,0,L|120:296,1,160
144,296,63143,1,0,0:0:0:0:
256,304,63309,1,0,0:0:0:0:
380,304,63475,1,0,0:0:0:0:
180,192,63807,6,0,L|352:192,1,160
340,192,64304,1,0,0:0:0:0:
344,192,64470,1,0,0:0:0:0:
176,92,65466,6,0,L|344:92,4,160
196,92,67125,1,0,0:0:0:0:
256,92,67291,1,0,0:0:0:0:
316,92,67457,1,0,0:0:0:0:
256,324,67789,6,0,L|256:148,1,160
256,164,68287,1,0,0:0:0:0:
256,108,68453,1,0,0:0:0:0:
252,48,68619,1,0,0:0:0:0:
196,80,68785,1,0,0:0:0:0:
200,144,68951,1,0,0:0:0:0:
176,240,69117,6,0,L|384:240,1,160
416,88,70112,6,0,L|420:232,2,80
176,80,70776,6,0,L|176:256,1,160
240,80,71274,2,0,L|240:264,1,160
240,80,71938,1,0,0:0:0:0:
388,112,72269,6,0,L|388:204,2,80
256,108,72767,6,0,L|88:108,1,160
256,240,73431,2,0,L|464:240,1,160
416,240,73929,1,0,0:0:0:0:
416,240,74095,1,0,0:0:0:0:
120,208,74427,2,0,P|264:88|360:212,1,320
345,148,75256,1,0,0:0:0:0:
345,148,75422,1,0,0:0:0:0:
136,104,75754,6,0,L|296:104,2,160
132,104,76750,1,0,0:0:0:0:
136,192,77414,6,0,L|312:192,2,160
136,192,78409,1,0,0:0:0:0:
384,96,78741,6,0,L|384:288,2,160
388,100,79737,1,0,0:0:0:0:
256,84,80069,5,0,0:0:0:0:
256,152,80400,1,0,0:0:0:0:
256,216,80732,1,0,0:0:0:0:
256,280,81064,1,0,0:0:0:0:
256,192,81396,12,0,82890,0:0:0:0:
256,192,84217,12,0,86872,0:0:0:0:
