osu file format v14

[General]
AudioFilename: 7-01 Pictured as Perfect and Plus.mp3
AudioLeadIn: 0
PreviewTime: 70054
Countdown: 0
SampleSet: Soft
StackLeniency: 0.7
Mode: 3
LetterboxInBreaks: 0
SpecialStyle: 0
WidescreenStoryboard: 0

[Editor]
DistanceSpacing: 1
BeatDivisor: 4
GridSize: 4
TimelineZoom: 2.499999

[Metadata]
Title:Pictured as Perfect and Plus
TitleUnicode:Pictured as Perfect and Plus
Artist:Frums
ArtistUnicode:Frums
Creator:Blocko
Version:Dream // 7K
Source:
Tags:BMS Groundbreaking GdbG G2R2018 GO BACK 2 YOUR ROOTS 2018 CLIMAX COMPILATION ALBUM VII END DREAMS Seville Film Studio experimental electronic instrumental papap -mint- qqqant Jakads
BeatmapID:2140933
BeatmapSetID:1023425

[Difficulty]
HPDrainRate:8.3
CircleSize:7
OverallDifficulty:8
ApproachRate:10
SliderMultiplier:1.4
SliderTickRate:1

[Events]
//Background and Video events
0,0,"pictured.png",0,0
//Break Periods
2,91517,99320
2,243320,249004
2,292635,299227
//Storyboard Layer 0 (Background)
//Storyboard Layer 1 (Fail)
//Storyboard Layer 2 (Pass)
//Storyboard Layer 3 (Foreground)
//Storyboard Sound Samples

[TimingPoints]
-472,631.578947368421,4,2,1,45,1,0
3949,-23.1481481481481,4,2,1,45,0,0
3975,-92.5925925925926,4,2,1,45,0,0
4001,-200,4,2,1,45,0,0
4028,-1000,4,2,1,45,0,0
4054,-200,4,2,1,45,0,0
4080,-1000,4,2,1,45,0,0
4106,-200,4,2,1,45,0,0
4133,-1000,4,2,1,45,0,0
4159,-200,4,2,1,45,0,0
4185,-1000,4,2,1,45,0,0
4212,-200,4,2,1,45,0,0
4238,-1000,4,2,1,45,0,0
4264,-200,4,2,1,45,0,0
4291,-1000,4,2,1,45,0,0
4317,-133.333333333333,4,2,1,45,0,0
4343,-1000,4,2,1,45,0,0
4370,-90.9090909090909,4,2,1,45,0,0
4396,-1000,4,2,1,45,0,0
4422,-62.5,4,2,1,45,0,0
4449,-1000,4,2,1,45,0,0
4475,-43.859649122807,4,2,1,45,0,0
4501,-833.333333333333,4,2,1,45,0,0
4528,-43.859649122807,4,2,1,45,0,0
4554,-833.333333333333,4,2,1,45,0,0
4580,-100,4,2,1,45,0,0
6475,-18.5185185185185,4,2,1,45,0,0
6528,-166.666666666667,4,2,1,45,0,0
7106,-100,4,2,1,45,0,0
9001,-18.5185185185185,4,2,1,45,0,0
9054,-90.9090909090909,4,2,1,45,0,0
9080,-1000,4,2,1,45,0,0
9106,-90.9090909090909,4,2,1,45,0,0
9133,-1000,4,2,1,45,0,0
9159,-90.9090909090909,4,2,1,45,0,0
9185,-1000,4,2,1,45,0,0
9212,-90.9090909090909,4,2,1,45,0,0
9238,-1000,4,2,1,45,0,0
9264,-90.9090909090909,4,2,1,45,0,0
9291,-1000,4,2,1,45,0,0
9317,-90.9090909090909,4,2,1,45,0,0
9343,-1000,4,2,1,45,0,0
9370,-90.9090909090909,4,2,1,45,0,0
9396,-1000,4,2,1,45,0,0
9422,-90.9090909090909,4,2,1,45,0,0
9449,-1000,4,2,1,45,0,0
9475,-90.9090909090909,4,2,1,45,0,0
9501,-1000,4,2,1,45,0,0
9528,-90.9090909090909,4,2,1,45,0,0
9554,-1000,4,2,1,45,0,0
9580,-90.9090909090909,4,2,1,45,0,0
9606,-1000,4,2,1,45,0,0
9633,-100,4,2,1,45,0,0
11528,-18.5185185185185,4,2,1,45,0,0
11580,-333.333333333333,4,2,1,45,0,0
11896,-238.095238095238,4,2,1,45,0,0
11949,-166.666666666667,4,2,1,45,0,0
12001,-119.047619047619,4,2,1,45,0,0
12054,-83.3333333333333,4,2,1,45,0,0
12159,-100,4,2,1,45,0,0
16580,-18.5185185185185,4,2,1,45,0,0
16633,-166.666666666667,4,2,1,45,0,0
17211,-100,4,2,1,45,0,0
19106,-18.5185185185185,4,2,1,45,0,0
19159,-90.9090909090909,4,2,1,45,0,0
19185,-1000,4,2,1,45,0,0
19211,-90.9090909090909,4,2,1,45,0,0
19238,-1000,4,2,1,45,0,0
19264,-90.9090909090909,4,2,1,45,0,0
19290,-1000,4,2,1,45,0,0
19317,-90.9090909090909,4,2,1,45,0,0
19343,-1000,4,2,1,45,0,0
19369,-90.9090909090909,4,2,1,45,0,0
19396,-1000,4,2,1,45,0,0
19422,-90.9090909090909,4,2,1,45,0,0
19448,-1000,4,2,1,45,0,0
19475,-90.9090909090909,4,2,1,45,0,0
19501,-1000,4,2,1,45,0,0
19527,-90.9090909090909,4,2,1,45,0,0
19554,-1000,4,2,1,45,0,0
19580,-90.9090909090909,4,2,1,45,0,0
19606,-1000,4,2,1,45,0,0
19633,-90.9090909090909,4,2,1,45,0,0
19659,-1000,4,2,1,45,0,0
19685,-90.9090909090909,4,2,1,45,0,0
19711,-1000,4,2,1,45,0,0
19738,-100,4,2,1,45,0,0
21633,-18.5185185185185,4,2,1,45,0,0
21685,-333.333333333333,4,2,1,45,0,0
22001,-238.095238095238,4,2,1,45,0,0
22054,-166.666666666667,4,2,1,45,0,0
22106,-119.047619047619,4,2,1,45,0,0
22159,-83.3333333333333,4,2,1,45,0,0
22264,-100,4,2,1,45,0,0
26685,-18.5185185185185,4,2,1,45,0,0
26738,-166.666666666667,4,2,1,45,0,0
27316,-100,4,2,1,45,0,0
29211,-62.5,4,2,1,45,0,0
29264,-166.666666666667,4,2,1,45,0,0
29343,-100,4,2,1,45,0,0
29395,-37.037037037037,4,2,1,45,0,0
29422,-90.9090909090909,4,2,1,45,0,0
29448,-1000,4,2,1,45,0,0
29474,-90.9090909090909,4,2,1,45,0,0
29501,-1000,4,2,1,45,0,0
29527,-90.9090909090909,4,2,1,45,0,0
29553,-1000,4,2,1,45,0,0
29580,-90.9090909090909,4,2,1,45,0,0
29606,-1000,4,2,1,45,0,0
29632,-90.9090909090909,4,2,1,45,0,0
29659,-1000,4,2,1,45,0,0
29685,-90.9090909090909,4,2,1,45,0,0
29711,-1000,4,2,1,45,0,0
29738,-90.9090909090909,4,2,1,45,0,0
29764,-1000,4,2,1,45,0,0
29790,-90.9090909090909,4,2,1,45,0,0
29816,-1000,4,2,1,45,0,0
29843,-100,4,2,1,45,0,0
31738,-18.5185185185185,4,2,1,45,0,0
31790,-333.333333333333,4,2,1,45,0,0
32106,-238.095238095238,4,2,1,45,0,0
32159,-166.666666666667,4,2,1,45,0,0
32211,-119.047619047619,4,2,1,45,0,0
32264,-83.3333333333333,4,2,1,45,0,0
32369,-100,4,2,1,45,0,0
36791,-18.5185185185185,4,2,1,45,0,0
36844,-166.666666666667,4,2,1,45,0,0
37422,-100,4,2,1,45,0,0
39317,-20,4,2,1,45,0,0
39370,-100,4,2,1,45,0,0
39422,-133.333333333333,4,2,1,45,0,0
39475,-166.666666666667,4,2,1,45,0,0
39528,-196.078431372549,4,2,1,45,0,0
39580,-232.558139534884,4,2,1,45,0,0
39633,-277.777777777778,4,2,1,45,0,0
39686,-333.333333333333,4,2,1,45,0,0
39738,-393.700787401575,4,2,1,45,0,0
39949,-100,4,2,1,45,0,0
41843,-18.5185185185185,4,2,1,45,0,0
41896,-333.333333333333,4,2,1,45,0,0
42212,-238.095238095238,4,2,1,45,0,0
42264,-166.666666666667,4,2,1,45,0,0
42317,-119.047619047619,4,2,1,45,0,0
42370,-83.3333333333333,4,2,1,45,0,0
42475,-100,4,2,1,45,0,0
49422,-66.6666666666667,4,2,1,45,0,0
49449,-200,4,2,1,45,0,0
49475,-64.5161290322581,4,2,1,45,0,0
49501,-222.222222222222,4,2,1,45,0,0
49528,-61.7283950617284,4,2,1,45,0,0
49554,-263.157894736842,4,2,1,45,0,0
49580,-59.1715976331361,4,2,1,45,0,0
49606,-322.58064516129,4,2,1,45,0,0
49633,-56.8181818181818,4,2,1,45,0,0
49659,-416.666666666667,4,2,1,45,0,0
49685,-54.6448087431694,4,2,1,45,0,0
49712,-588.235294117647,4,2,1,45,0,0
49738,-52.6315789473684,4,2,1,45,0,0
49764,-1000,4,2,1,45,0,0
49791,-52.6315789473684,4,2,1,45,0,0
49817,-1000,4,2,1,45,0,0
49843,-52.6315789473684,4,2,1,45,0,0
49870,-1000,4,2,1,45,0,0
49896,-52.6315789473684,4,2,1,45,0,0
49922,-1000,4,2,1,45,0,0
49949,-52.6315789473684,4,2,1,45,0,0
49975,-1000,4,2,1,45,0,0
50001,-52.6315789473684,4,2,1,45,0,0
50028,-1000,4,2,1,45,0,0
50053,-33.3333333333333,4,2,1,45,0,0
50080,-100,4,2,1,45,0,0
50106,-333.333333333333,4,2,1,45,0,0
50212,-238.095238095238,4,2,1,45,0,0
50264,-166.666666666667,4,2,1,45,0,0
50317,-119.047619047619,4,2,1,45,0,0
50370,-83.3333333333333,4,2,1,45,0,0
50475,-100,4,2,1,45,0,0
67738,-142.857142857143,4,2,1,45,0,0
67765,-1000,4,2,1,45,0,0
67791,-333.333333333333,4,2,1,45,0,0
67817,-1000,4,2,1,45,0,0
67844,-333.333333333333,4,2,1,45,0,0
67870,-1000,4,2,1,45,0,0
67896,-333.333333333333,4,2,1,45,0,0
67923,-1000,4,2,1,45,0,0
67949,-142.857142857143,4,2,1,45,0,0
67975,-1000,4,2,1,45,0,0
68002,-333.333333333333,4,2,1,45,0,0
68028,-1000,4,2,1,45,0,0
68054,-333.333333333333,4,2,1,45,0,0
68081,-1000,4,2,1,45,0,0
68107,-333.333333333333,4,2,1,45,0,0
68133,-1000,4,2,1,45,0,0
68159,-333.333333333333,4,2,1,45,0,0
68186,-1000,4,2,1,45,0,0
68212,-333.333333333333,4,2,1,45,0,0
68238,-1000,4,2,1,45,0,0
68265,-142.857142857143,4,2,1,45,0,0
68291,-1000,4,2,1,45,0,0
68317,-333.333333333333,4,2,1,45,0,0
68344,-1000,4,2,1,45,0,0
68370,-333.333333333333,4,2,1,45,0,0
68396,-1000,4,2,1,45,0,0
68423,-333.333333333333,4,2,1,45,0,0
68449,-1000,4,2,1,45,0,0
68475,-333.333333333333,4,2,1,45,0,0
68502,-1000,4,2,1,45,0,0
68528,-142.857142857143,4,2,1,45,0,0
68554,-1000,4,2,1,45,0,0
68581,-333.333333333333,4,2,1,45,0,0
68607,-1000,4,2,1,45,0,0
68633,-142.857142857143,4,2,1,45,0,0
68659,-1000,4,2,1,45,0,0
68686,-142.857142857143,4,2,1,45,0,0
68712,-1000,4,2,1,45,0,0
68738,-333.333333333333,4,2,1,45,0,0
68765,-1000,4,2,1,45,0,0
68791,-333.333333333333,4,2,1,45,0,0
68817,-1000,4,2,1,45,0,0
68844,-333.333333333333,4,2,1,45,0,0
68870,-1000,4,2,1,45,0,0
68896,-333.333333333333,4,2,1,45,0,0
68923,-1000,4,2,1,45,0,0
68949,-142.857142857143,4,2,1,45,0,0
68975,-1000,4,2,1,45,0,0
69002,-333.333333333333,4,2,1,45,0,0
69028,-1000,4,2,1,45,0,0
69054,-333.333333333333,4,2,1,45,0,0
69081,-1000,4,2,1,45,0,0
69107,-333.333333333333,4,2,1,45,0,0
69133,-1000,4,2,1,45,0,0
69159,-333.333333333333,4,2,1,45,0,0
69186,-1000,4,2,1,45,0,0
69212,-333.333333333333,4,2,1,45,0,0
69238,-1000,4,2,1,45,0,0
69265,-333.333333333333,4,2,1,45,0,0
69291,-1000,4,2,1,45,0,0
69317,-333.333333333333,4,2,1,45,0,0
69344,-142.857142857143,4,2,1,45,0,0
69370,-333.333333333333,4,2,1,45,0,0
69396,-1000,4,2,1,45,0,0
69423,-333.333333333333,4,2,1,45,0,0
69449,-1000,4,2,1,45,0,0
69475,-142.857142857143,4,2,1,45,0,0
69502,-909.090909090909,4,2,1,45,0,0
69528,-277.777777777778,4,2,1,45,0,0
69554,-714.285714285714,4,2,1,45,0,0
69581,-222.222222222222,4,2,1,45,0,0
69607,-526.315789473684,4,2,1,45,0,0
69633,-175.438596491228,4,2,1,45,0,0
69659,-400,4,2,1,45,0,0
69686,-140.845070422535,4,2,1,45,0,0
69712,-303.030303030303,4,2,1,45,0,0
69738,-113.636363636364,4,2,1,45,0,0
69765,-227.272727272727,4,2,1,45,0,0
69791,-90.0900900900901,4,2,1,45,0,0
69817,-169.491525423729,4,2,1,45,0,0
69844,-78.125,4,2,1,45,0,0
69870,-138.888888888889,4,2,1,45,0,0
69896,-80,4,2,1,45,0,0
69923,-133.333333333333,4,2,1,45,0,0
69949,-84.7457627118644,4,2,1,45,0,0
69962,-121.951219512195,4,2,1,45,0,0
69975,-73.5294117647059,4,2,1,45,0,0
69988,-156.25,4,2,1,45,0,0
70002,-64.9350649350649,4,2,1,45,0,0
70015,-217.391304347826,4,2,1,45,0,0
70028,-58.1395348837209,4,2,1,45,0,0
70041,-357.142857142857,4,2,1,45,0,0
70054,-52.6315789473684,4,2,1,45,0,0
70067,-1000,4,2,1,45,0,0
70081,-52.6315789473684,4,2,1,45,0,0
70094,-1000,4,2,1,45,0,0
70107,-52.6315789473684,4,2,1,45,0,0
70120,-1000,4,2,1,45,0,0
70133,-52.6315789473684,4,2,1,45,0,0
70146,-1000,4,2,1,45,0,0
70159,-52.6315789473684,4,2,1,45,0,0
70173,-1000,4,2,1,45,0,0
70186,-52.6315789473684,4,2,1,45,0,0
70199,-1000,4,2,1,45,0,0
70212,-52.6315789473684,4,2,1,45,0,0
70225,-1000,4,2,1,45,0,0
70238,-52.6315789473684,4,2,1,45,0,0
70252,-1000,4,2,1,45,0,0
70265,-100,4,2,1,45,0,0
87949,-20,4,2,1,45,0,0
87975,-40,4,2,1,45,0,0
88001,-100,4,2,1,45,0,0
88028,-400,4,2,1,45,0,0
88264,-294.117647058824,4,2,1,45,0,0
88317,-217.391304347826,4,2,1,45,0,0
88370,-161.290322580645,4,2,1,45,0,0
88422,-120.481927710843,4,2,1,45,0,0
88475,-94.3396226415094,4,2,1,45,0,0
88580,-16.6666666666667,4,2,1,45,0,0
88606,-33.3333333333333,4,2,1,45,0,0
88633,-100,4,2,1,45,0,0
88659,-400,4,2,1,45,0,0
88896,-285.714285714286,4,2,1,45,0,0
88949,-204.081632653061,4,2,1,45,0,0
89001,-144.927536231884,4,2,1,45,0,0
89054,-104.166666666667,4,2,1,45,0,0
89106,-85.4700854700855,4,2,1,45,0,0
89212,-25,4,2,1,45,0,0
89238,-50,4,2,1,45,0,0
89264,-100,4,2,1,45,0,0
89291,-400,4,2,1,45,0,0
89527,-277.777777777778,4,2,1,45,0,0
89580,-188.679245283019,4,2,1,45,0,0
89633,-131.578947368421,4,2,1,45,0,0
89685,-90.9090909090909,4,2,1,45,0,0
89738,-62.5,4,2,1,45,0,0
89791,-100,4,2,1,45,0,0
89843,-14.2857142857143,4,2,1,45,0,0
89870,-28.5714285714286,4,2,1,45,0,0
89896,-100,4,2,1,45,0,0
89923,-400,4,2,1,45,0,0
90159,-263.157894736842,4,2,1,45,0,0
90212,-178.571428571429,4,2,1,45,0,0
90265,-119.047619047619,4,2,1,45,0,0
90317,-78.7401574803149,4,2,1,45,0,0
90370,-52.6315789473684,4,2,1,45,0,0
90423,-100,4,2,1,45,0,0
90475,-10,4,2,1,45,0,0
90510,-128.205128205128,4,2,1,45,0,0
90545,-131.578947368421,4,2,1,45,0,0
90580,-133.333333333333,4,2,1,45,0,0
90615,-135.135135135135,4,2,1,45,0,0
90650,-138.888888888889,4,2,1,45,0,0
90685,-140.845070422535,4,2,1,45,0,0
90720,-144.927536231884,4,2,1,45,0,0
90755,-147.058823529412,4,2,1,45,0,0
90790,-149.253731343284,4,2,1,45,0,0
90825,-153.846153846154,4,2,1,45,0,0
90860,-156.25,4,2,1,45,0,0
90896,-158.730158730159,4,2,1,45,0,0
90931,-161.290322580645,4,2,1,45,0,0
90966,-163.934426229508,4,2,1,45,0,0
91001,-169.491525423729,4,2,1,45,0,0
91036,-172.413793103448,4,2,1,45,0,0
91071,-175.438596491228,4,2,1,45,0,0
91106,-178.571428571429,4,2,1,45,0,0
91141,-181.818181818182,4,2,1,45,0,0
91176,-185.185185185185,4,2,1,45,0,0
91211,-188.679245283019,4,2,1,45,0,0
91246,-192.307692307692,4,2,1,45,0,0
91281,-196.078431372549,4,2,1,45,0,0
91317,-200,4,2,1,45,0,0
91352,-204.081632653061,4,2,1,45,0,0
91387,-208.333333333333,4,2,1,45,0,0
91422,-212.765957446809,4,2,1,45,0,0
91457,-217.391304347826,4,2,1,45,0,0
91492,-222.222222222222,4,2,1,45,0,0
91527,-227.272727272727,4,2,1,45,0,0
91597,-232.558139534884,4,2,1,45,0,0
91632,-238.095238095238,4,2,1,45,0,0
91667,-243.90243902439,4,2,1,45,0,0
91702,-250,4,2,1,45,0,0
91773,-256.410256410256,4,2,1,45,0,0
91808,-263.157894736842,4,2,1,45,0,0
91843,-270.27027027027,4,2,1,45,0,0
91913,-277.777777777778,4,2,1,45,0,0
91948,-285.714285714286,4,2,1,45,0,0
91983,-294.117647058824,4,2,1,45,0,0
92053,-303.030303030303,4,2,1,45,0,0
92088,-312.5,4,2,1,45,0,0
92159,-322.58064516129,4,2,1,45,0,0
92212,-250,4,2,1,45,0,0
92264,-344.827586206897,4,2,1,45,0,0
92334,-357.142857142857,4,2,1,45,0,0
92404,-370.37037037037,4,2,1,45,0,0
92422,-250,4,2,1,45,0,0
92474,-384.615384615385,4,2,1,45,0,0
92544,-400,4,2,1,45,0,0
92615,-416.666666666667,4,2,1,45,0,0
92685,-434.782608695652,4,2,1,45,0,0
92738,-250,4,2,1,45,0,0
92791,-454.545454545455,4,2,1,45,0,0
92860,-476.190476190476,4,2,1,45,0,0
92930,-500,4,2,1,45,0,0
93475,-250,4,2,1,45,0,0
93527,-500,4,2,1,45,0,0
93685,-250,4,2,1,45,0,0
93738,-500,4,2,1,45,0,0
94001,-250,4,2,1,45,0,0
94054,-500,4,2,1,45,0,0
94738,-250,4,2,1,45,0,0
94790,-500,4,2,1,45,0,0
94948,-250,4,2,1,45,0,0
95001,-500,4,2,1,45,0,0
95106,-250,4,2,1,45,0,0
95159,-500,4,2,1,45,0,0
95264,-250,4,2,1,45,0,0
95317,-500,4,2,1,45,0,0
95475,-250,4,2,1,45,0,0
95528,-500,4,2,1,45,0,0
96001,-250,4,2,1,45,0,0
96053,-500,4,2,1,45,0,0
96211,-250,4,2,1,45,0,0
96264,-500,4,2,1,45,0,0
96527,-250,4,2,1,45,0,0
96580,-500,4,2,1,45,0,0
97264,-250,4,2,1,45,0,0
97317,-500,4,2,1,45,0,0
97475,-250,4,2,1,45,0,0
97528,-500,4,2,1,45,0,0
97791,-250,4,2,1,45,0,0
97843,-500,4,2,1,45,0,0
98528,-250,4,2,1,45,0,0
98580,-500,4,2,1,45,0,0
98738,-250,4,2,1,45,0,0
98791,-500,4,2,1,45,0,0
99054,-250,4,2,1,45,0,0
99106,-500,4,2,1,45,0,0
99791,-250,4,2,1,45,0,0
99843,-500,4,2,1,45,0,0
99949,-10,4,2,1,45,0,0
99975,-333.333333333333,4,2,1,45,0,0
99988,-1000,4,2,1,45,0,0
100002,-333.333333333333,4,2,1,45,0,0
100015,-1000,4,2,1,45,0,0
100028,-333.333333333333,4,2,1,45,0,0
100041,-1000,4,2,1,45,0,0
100054,-333.333333333333,4,2,1,45,0,0
100067,-1000,4,2,1,45,0,0
100081,-333.333333333333,4,2,1,45,0,0
100094,-1000,4,2,1,45,0,0
100107,-333.333333333333,4,2,1,45,0,0
100120,-1000,4,2,1,45,0,0
100133,-333.333333333333,4,2,1,45,0,0
100146,-1000,4,2,1,45,0,0
100159,-333.333333333333,4,2,1,45,0,0
100173,-1000,4,2,1,45,0,0
100186,-33.3333333333333,4,2,1,45,0,0
100212,-333.333333333333,4,2,1,45,0,0
100225,-1000,4,2,1,45,0,0
100238,-333.333333333333,4,2,1,45,0,0
100252,-1000,4,2,1,45,0,0
100265,-333.333333333333,4,2,1,45,0,0
100278,-1000,4,2,1,45,0,0
100291,-333.333333333333,4,2,1,45,0,0
100304,-1000,4,2,1,45,0,0
100317,-33.3333333333333,4,2,1,45,0,0
100344,-333.333333333333,4,2,1,45,0,0
100357,-1000,4,2,1,45,0,0
100370,-333.333333333333,4,2,1,45,0,0
100383,-1000,4,2,1,45,0,0
100396,-333.333333333333,4,2,1,45,0,0
100409,-1000,4,2,1,45,0,0
100423,-33.3333333333333,4,2,1,45,0,0
100449,-333.333333333333,4,2,1,45,0,0
100462,-1000,4,2,1,45,0,0
100475,-333.333333333333,4,2,1,45,0,0
100488,-1000,4,2,1,45,0,0
100502,-33.3333333333333,4,2,1,45,0,0
100528,-333.333333333333,4,2,1,45,0,0
100541,-1000,4,2,1,45,0,0
100554,-33.3333333333333,4,2,1,45,0,0
100580,-50,4,2,1,45,0,0
100633,-133.333333333333,4,2,1,45,0,0
101159,-100,4,2,1,45,0,0
103106,-50,4,2,1,45,0,0
103159,-133.333333333333,4,2,1,45,0,0
103685,-100,4,2,1,45,0,0
105633,-50,4,2,1,45,0,0
105685,-133.333333333333,4,2,1,45,0,0
106212,-100,4,2,1,45,0,0
108159,-50,4,2,1,45,0,0
108212,-200,4,2,1,45,0,0
108317,-100,4,2,1,45,0,0
108896,-50,4,2,1,45,0,0
108949,-200,4,2,1,45,0,0
109054,-100,4,2,1,45,0,0
109422,-33.3333333333333,4,2,1,45,0,0
109475,-200,4,2,1,45,0,0
109685,-100,4,2,1,45,0,0
109738,-33.3333333333333,4,2,1,45,0,0
109791,-200,4,2,1,45,0,0
110001,-100,4,2,1,45,0,0
110054,-50,4,2,1,45,0,0
110106,-200,4,2,1,45,0,0
110212,-100,4,2,1,45,0,0
110264,-50,4,2,1,45,0,0
110317,-200,4,2,1,45,0,0
110422,-100,4,2,1,45,0,0
110475,-50,4,2,1,45,0,0
110528,-200,4,2,1,45,0,0
110633,-100,4,2,1,45,0,0
110685,-50,4,2,1,45,0,0
110738,-133.333333333333,4,2,1,45,0,0
111264,-100,4,2,1,45,0,0
113212,-50,4,2,1,45,0,0
113264,-133.333333333333,4,2,1,45,0,0
113791,-100,4,2,1,45,0,0
115738,-50,4,2,1,45,0,0
115791,-133.333333333333,4,2,1,45,0,0
116317,-100,4,2,1,45,0,0
118263,-50,4,2,1,45,0,0
118316,-200,4,2,1,45,0,0
118421,-100,4,2,1,45,0,0
119000,-50,4,2,1,45,0,0
119053,-200,4,2,1,45,0,0
119158,-100,4,2,1,45,0,0
119526,-33.3333333333333,4,2,1,45,0,0
119579,-200,4,2,1,45,0,0
119789,-100,4,2,1,45,0,0
119842,-33.3333333333333,4,2,1,45,0,0
119895,-200,4,2,1,45,0,0
120105,-100,4,2,1,45,0,0
120158,-50,4,2,1,45,0,0
120210,-200,4,2,1,45,0,0
120316,-100,4,2,1,45,0,0
120368,-50,4,2,1,45,0,0
120421,-200,4,2,1,45,0,0
120526,-100,4,2,1,45,0,0
120579,-58.8235294117647,4,2,1,45,0,0
120632,-333.333333333333,4,2,1,45,0,0
120685,-58.8235294117647,4,2,1,45,0,0
120738,-333.333333333333,4,2,1,45,0,0
120791,-50,4,2,1,45,0,0
120843,-100,4,2,1,45,0,0
123317,-50,4,2,1,45,0,0
123370,-100,4,2,1,45,0,0
125843,-50,4,2,1,45,0,0
125896,-100,4,2,1,45,0,0
128369,-50,4,2,1,45,0,0
128422,-200,4,2,1,45,0,0
128527,-100,4,2,1,45,0,0
129106,-58.8235294117647,4,2,1,45,0,0
129159,-333.333333333333,4,2,1,45,0,0
129212,-100,4,2,1,45,0,0
129632,-33.3333333333333,4,2,1,45,0,0
129685,-200,4,2,1,45,0,0
129895,-100,4,2,1,45,0,0
129948,-33.3333333333333,4,2,1,45,0,0
130001,-200,4,2,1,45,0,0
130211,-100,4,2,1,45,0,0
130264,-50,4,2,1,45,0,0
130316,-200,4,2,1,45,0,0
130422,-100,4,2,1,45,0,0
130474,-50,4,2,1,45,0,0
130527,-200,4,2,1,45,0,0
130632,-100,4,2,1,45,0,0
130685,-52.6315789473684,4,2,1,45,0,0
130712,-1000,4,2,1,45,0,0
130738,-52.6315789473684,4,2,1,45,0,0
130764,-1000,4,2,1,45,0,0
130791,-52.6315789473684,4,2,1,45,0,0
130817,-1000,4,2,1,45,0,0
130843,-52.6315789473684,4,2,1,45,0,0
130870,-1000,4,2,1,45,0,0
130896,-50,4,2,1,45,0,0
130948,-100,4,2,1,45,0,0
133422,-50,4,2,1,45,0,0
133475,-100,4,2,1,45,0,0
135949,-50,4,2,1,45,0,0
136001,-100,4,2,1,45,0,0
138475,-50,4,2,1,45,0,0
138528,-200,4,2,1,45,0,0
138633,-100,4,2,1,45,0,0
139212,-50,4,2,1,45,0,0
139264,-200,4,2,1,45,0,0
139370,-100,4,2,1,45,0,0
139738,-33.3333333333333,4,2,1,45,0,0
139791,-200,4,2,1,45,0,0
140001,-100,4,2,1,45,0,0
140054,-33.3333333333333,4,2,1,45,0,0
140106,-200,4,2,1,45,0,0
140316,-100,4,2,1,45,0,0
140370,-50,4,2,1,45,0,0
140422,-200,4,2,1,45,0,0
140528,-100,4,2,1,45,0,0
140580,-58.8235294117647,4,2,1,45,0,0
140633,-333.333333333333,4,2,1,45,0,0
140685,-58.8235294117647,4,2,1,45,0,0
140738,-333.333333333333,4,2,1,45,0,0
140791,-52.6315789473684,4,2,1,45,0,0
140804,-1000,4,2,1,45,0,0
140817,-52.6315789473684,4,2,1,45,0,0
140830,-1000,4,2,1,45,0,0
140843,-52.6315789473684,4,2,1,45,0,0
140856,-1000,4,2,1,45,0,0
140870,-52.6315789473684,4,2,1,45,0,0
140883,-1000,4,2,1,45,0,0
140896,-52.6315789473684,4,2,1,45,0,0
140909,-1000,4,2,1,45,0,0
140922,-52.6315789473684,4,2,1,45,0,0
140935,-1000,4,2,1,45,0,0
140949,-52.6315789473684,4,2,1,45,0,0
140962,-1000,4,2,1,45,0,0
140975,-52.6315789473684,4,2,1,45,0,0
140988,-1000,4,2,1,45,0,0
141001,-30.000300003,4,2,1,45,0,0
141028,-400,4,2,1,45,0,0
141054,-277.777777777778,4,2,1,45,0,0
141080,-192.307692307692,4,2,1,45,0,0
141106,-133.333333333333,4,2,1,45,0,0
141133,-93.4579439252336,4,2,1,45,0,0
141159,-64.5161290322581,4,2,1,45,0,0
141185,-45.0004500045,4,2,1,45,0,0
141212,-52.6315789473684,4,2,1,45,0,1
141238,-1000,4,2,1,45,0,1
141265,-52.6315789473684,4,2,1,45,0,1
141291,-1000,4,2,1,45,0,1
141317,-52.6315789473684,4,2,1,45,0,1
141344,-1000,4,2,1,45,0,1
141370,-52.6315789473684,4,2,1,45,0,1
141396,-1000,4,2,1,45,0,1
141423,-52.6315789473684,4,2,1,45,0,1
141449,-1000,4,2,1,45,0,1
141475,-52.6315789473684,4,2,1,45,0,1
141502,-1000,4,2,1,45,0,1
141528,-52.6315789473684,4,2,1,45,0,1
141554,-1000,4,2,1,45,0,1
141581,-52.6315789473684,4,2,1,45,0,1
141607,-1000,4,2,1,45,0,1
141633,-52.6315789473684,4,2,1,45,0,1
141659,-1000,4,2,1,45,0,1
141686,-52.6315789473684,4,2,1,45,0,1
141712,-1000,4,2,1,45,0,1
141738,-52.6315789473684,4,2,1,45,0,1
141765,-1000,4,2,1,45,0,1
141791,-52.6315789473684,4,2,1,45,0,1
141817,-1000,4,2,1,45,0,1
141844,-52.6315789473684,4,2,1,45,0,1
141870,-1000,4,2,1,45,0,1
141896,-52.6315789473684,4,2,1,45,0,1
141923,-1000,4,2,1,45,0,1
141949,-52.6315789473684,4,2,1,45,0,1
141975,-1000,4,2,1,45,0,1
142002,-52.6315789473684,4,2,1,45,0,1
142028,-1000,4,2,1,45,0,1
142054,-52.6315789473684,4,2,1,45,0,1
142081,-1000,4,2,1,45,0,1
142107,-52.6315789473684,4,2,1,45,0,1
142133,-1000,4,2,1,45,0,1
142159,-52.6315789473684,4,2,1,45,0,1
142186,-1000,4,2,1,45,0,1
142212,-52.6315789473684,4,2,1,45,0,1
142238,-1000,4,2,1,45,0,1
142265,-52.6315789473684,4,2,1,45,0,1
142291,-1000,4,2,1,45,0,1
142317,-52.6315789473684,4,2,1,45,0,1
142344,-1000,4,2,1,45,0,1
142370,-52.6315789473684,4,2,1,45,0,1
142396,-1000,4,2,1,45,0,1
142423,-52.6315789473684,4,2,1,45,0,1
142449,-1000,4,2,1,45,0,1
142475,-52.6315789473684,4,2,1,45,0,1
142502,-1000,4,2,1,45,0,1
142528,-52.6315789473684,4,2,1,45,0,1
142554,-1000,4,2,1,45,0,1
142581,-52.6315789473684,4,2,1,45,0,1
142607,-1000,4,2,1,45,0,1
142633,-52.6315789473684,4,2,1,45,0,1
142659,-1000,4,2,1,45,0,1
142686,-52.6315789473684,4,2,1,45,0,1
142712,-1000,4,2,1,45,0,1
142738,-52.6315789473684,4,2,1,45,0,1
142765,-1000,4,2,1,45,0,1
142791,-52.6315789473684,4,2,1,45,0,1
142817,-1000,4,2,1,45,0,1
142844,-52.6315789473684,4,2,1,45,0,1
142870,-1000,4,2,1,45,0,1
142896,-52.6315789473684,4,2,1,45,0,1
142923,-1000,4,2,1,45,0,1
142949,-52.6315789473684,4,2,1,45,0,1
142975,-1000,4,2,1,45,0,1
143002,-52.6315789473684,4,2,1,45,0,1
143028,-1000,4,2,1,45,0,1
143054,-52.6315789473684,4,2,1,45,0,1
143081,-1000,4,2,1,45,0,1
143107,-52.6315789473684,4,2,1,45,0,1
143133,-1000,4,2,1,45,0,1
143159,-52.6315789473684,4,2,1,45,0,1
143186,-1000,4,2,1,45,0,1
143212,-52.6315789473684,4,2,1,45,0,1
143238,-1000,4,2,1,45,0,1
143265,-52.6315789473684,4,2,1,45,0,1
143291,-1000,4,2,1,45,0,1
143317,-52.6315789473684,4,2,1,45,0,1
143344,-1000,4,2,1,45,0,1
143370,-52.6315789473684,4,2,1,45,0,1
143396,-1000,4,2,1,45,0,1
143423,-52.6315789473684,4,2,1,45,0,1
143449,-1000,4,2,1,45,0,1
143475,-52.6315789473684,4,2,1,45,0,1
143502,-1000,4,2,1,45,0,1
143528,-52.6315789473684,4,2,1,45,0,1
143554,-1000,4,2,1,45,0,1
143580,-52.6315789473684,4,2,1,45,0,1
143607,-1000,4,2,1,45,0,1
143633,-52.6315789473684,4,2,1,45,0,1
143659,-1000,4,2,1,45,0,1
143686,-52.6315789473684,4,2,1,45,0,1
143712,-1000,4,2,1,45,0,1
143738,-52.6315789473684,4,2,1,45,0,1
143765,-1000,4,2,1,45,0,1
143791,-52.6315789473684,4,2,1,45,0,1
143817,-1000,4,2,1,45,0,1
143844,-52.6315789473684,4,2,1,45,0,1
143870,-1000,4,2,1,45,0,1
143896,-52.6315789473684,4,2,1,45,0,1
143922,-1000,4,2,1,45,0,1
143949,-52.6315789473684,4,2,1,45,0,1
143975,-1000,4,2,1,45,0,1
144001,-52.6315789473684,4,2,1,45,0,1
144028,-1000,4,2,1,45,0,1
144054,-52.6315789473684,4,2,1,45,0,1
144080,-1000,4,2,1,45,0,1
144107,-52.6315789473684,4,2,1,45,0,1
144133,-1000,4,2,1,45,0,1
144159,-52.6315789473684,4,2,1,45,0,1
144186,-1000,4,2,1,45,0,1
144212,-52.6315789473684,4,2,1,45,0,1
144238,-1000,4,2,1,45,0,1
144265,-52.6315789473684,4,2,1,45,0,1
144291,-1000,4,2,1,45,0,1
144317,-52.6315789473684,4,2,1,45,0,1
144344,-1000,4,2,1,45,0,1
144370,-52.6315789473684,4,2,1,45,0,1
144396,-1000,4,2,1,45,0,1
144422,-52.6315789473684,4,2,1,45,0,1
144449,-1000,4,2,1,45,0,1
144475,-52.6315789473684,4,2,1,45,0,1
144501,-1000,4,2,1,45,0,1
144528,-52.6315789473684,4,2,1,45,0,1
144554,-1000,4,2,1,45,0,1
144580,-52.6315789473684,4,2,1,45,0,1
144607,-1000,4,2,1,45,0,1
144633,-52.6315789473684,4,2,1,45,0,1
144659,-1000,4,2,1,45,0,1
144686,-52.6315789473684,4,2,1,45,0,1
144712,-1000,4,2,1,45,0,1
144738,-52.6315789473684,4,2,1,45,0,1
144765,-1000,4,2,1,45,0,1
144791,-52.6315789473684,4,2,1,45,0,1
144817,-1000,4,2,1,45,0,1
144843,-52.6315789473684,4,2,1,45,0,1
144870,-1000,4,2,1,45,0,1
144896,-52.6315789473684,4,2,1,45,0,1
144922,-1000,4,2,1,45,0,1
144949,-52.6315789473684,4,2,1,45,0,1
144975,-1000,4,2,1,45,0,1
145001,-52.6315789473684,4,2,1,45,0,1
145028,-1000,4,2,1,45,0,1
145054,-52.6315789473684,4,2,1,45,0,1
145080,-1000,4,2,1,45,0,1
145107,-52.6315789473684,4,2,1,45,0,1
145133,-1000,4,2,1,45,0,1
145159,-52.6315789473684,4,2,1,45,0,1
145185,-1000,4,2,1,45,0,1
145212,-52.6315789473684,4,2,1,45,0,1
145238,-1000,4,2,1,45,0,1
145264,-52.6315789473684,4,2,1,45,0,1
145291,-1000,4,2,1,45,0,1
145317,-52.6315789473684,4,2,1,45,0,1
145343,-1000,4,2,1,45,0,1
145370,-52.6315789473684,4,2,1,45,0,1
145396,-1000,4,2,1,45,0,1
145422,-52.6315789473684,4,2,1,45,0,1
145449,-1000,4,2,1,45,0,1
145475,-52.6315789473684,4,2,1,45,0,1
145501,-1000,4,2,1,45,0,1
145528,-52.6315789473684,4,2,1,45,0,1
145554,-1000,4,2,1,45,0,1
145580,-52.6315789473684,4,2,1,45,0,1
145607,-1000,4,2,1,45,0,1
145633,-52.6315789473684,4,2,1,45,0,1
145659,-1000,4,2,1,45,0,1
145685,-52.6315789473684,4,2,1,45,0,1
145712,-1000,4,2,1,45,0,1
145738,-52.6315789473684,4,2,1,45,0,1
145764,-1000,4,2,1,45,0,1
145791,-52.6315789473684,4,2,1,45,0,1
145817,-1000,4,2,1,45,0,1
145843,-52.6315789473684,4,2,1,45,0,1
145870,-1000,4,2,1,45,0,1
145896,-52.6315789473684,4,2,1,45,0,1
145922,-1000,4,2,1,45,0,1
145949,-52.6315789473684,4,2,1,45,0,1
145975,-1000,4,2,1,45,0,1
146001,-52.6315789473684,4,2,1,45,0,1
146028,-1000,4,2,1,45,0,1
146054,-52.6315789473684,4,2,1,45,0,1
146080,-1000,4,2,1,45,0,1
146106,-52.6315789473684,4,2,1,45,0,1
146133,-1000,4,2,1,45,0,1
146159,-52.6315789473684,4,2,1,45,0,1
146185,-1000,4,2,1,45,0,1
146212,-52.6315789473684,4,2,1,45,0,1
146238,-1000,4,2,1,45,0,1
146264,-52.6315789473684,4,2,1,45,0,1
146291,-1000,4,2,1,45,0,1
146317,-52.6315789473684,4,2,1,45,0,1
146343,-1000,4,2,1,45,0,1
146370,-52.6315789473684,4,2,1,45,0,1
146396,-1000,4,2,1,45,0,1
146422,-52.6315789473684,4,2,1,45,0,1
146448,-1000,4,2,1,45,0,1
146475,-52.6315789473684,4,2,1,45,0,1
146501,-1000,4,2,1,45,0,1
146527,-52.6315789473684,4,2,1,45,0,1
146554,-1000,4,2,1,45,0,1
146580,-52.6315789473684,4,2,1,45,0,1
146606,-1000,4,2,1,45,0,1
146633,-52.6315789473684,4,2,1,45,0,1
146659,-1000,4,2,1,45,0,1
146685,-52.6315789473684,4,2,1,45,0,1
146712,-1000,4,2,1,45,0,1
146738,-52.6315789473684,4,2,1,45,0,1
146764,-1000,4,2,1,45,0,1
146791,-52.6315789473684,4,2,1,45,0,1
146817,-1000,4,2,1,45,0,1
146843,-52.6315789473684,4,2,1,45,0,1
146870,-1000,4,2,1,45,0,1
146896,-52.6315789473684,4,2,1,45,0,1
146922,-1000,4,2,1,45,0,1
146948,-52.6315789473684,4,2,1,45,0,1
146975,-1000,4,2,1,45,0,1
147001,-52.6315789473684,4,2,1,45,0,1
147027,-1000,4,2,1,45,0,1
147054,-52.6315789473684,4,2,1,45,0,1
147080,-1000,4,2,1,45,0,1
147106,-52.6315789473684,4,2,1,45,0,1
147133,-1000,4,2,1,45,0,1
147159,-52.6315789473684,4,2,1,45,0,1
147185,-1000,4,2,1,45,0,1
147212,-52.6315789473684,4,2,1,45,0,1
147238,-1000,4,2,1,45,0,1
147264,-52.6315789473684,4,2,1,45,0,1
147291,-1000,4,2,1,45,0,1
147317,-54.3478260869565,4,2,1,45,0,1
147343,-1000,4,2,1,45,0,1
147369,-55.5555555555556,4,2,1,45,0,1
147396,-1000,4,2,1,45,0,1
147422,-57.4712643678161,4,2,1,45,0,1
147448,-1000,4,2,1,45,0,1
147475,-59.5238095238095,4,2,1,45,0,1
147501,-1000,4,2,1,45,0,1
147527,-61.7283950617284,4,2,1,45,0,1
147554,-1000,4,2,1,45,0,1
147580,-63.2911392405063,4,2,1,45,0,1
147606,-1000,4,2,1,45,0,1
147633,-65.7894736842105,4,2,1,45,0,1
147659,-1000,4,2,1,45,0,1
147685,-67.5675675675676,4,2,1,45,0,1
147711,-1000,4,2,1,45,0,1
147738,-69.4444444444444,4,2,1,45,0,1
147764,-1000,4,2,1,45,0,1
147790,-72.463768115942,4,2,1,45,0,1
147817,-1000,4,2,1,45,0,1
147843,-74.6268656716418,4,2,1,45,0,1
147869,-1000,4,2,1,45,0,1
147896,-76.9230769230769,4,2,1,45,0,1
147922,-1000,4,2,1,45,0,1
147948,-79.3650793650794,4,2,1,45,0,1
147975,-1000,4,2,1,45,0,1
148001,-81.9672131147541,4,2,1,45,0,1
148027,-1000,4,2,1,45,0,1
148054,-84.7457627118644,4,2,1,45,0,1
148080,-1000,4,2,1,45,0,1
148106,-87.719298245614,4,2,1,45,0,1
148133,-1000,4,2,1,45,0,1
148159,-90.9090909090909,4,2,1,45,0,1
148185,-1000,4,2,1,45,0,1
148211,-94.3396226415094,4,2,1,45,0,1
148238,-1000,4,2,1,45,0,1
148264,-96.1538461538462,4,2,1,45,0,1
148290,-1000,4,2,1,45,0,1
148317,-100,4,2,1,45,0,1
148343,-1000,4,2,1,45,0,1
148369,-104.166666666667,4,2,1,45,0,1
148396,-1000,4,2,1,45,0,1
148422,-106.382978723404,4,2,1,45,0,1
148448,-1000,4,2,1,45,0,1
148475,-111.111111111111,4,2,1,45,0,1
148501,-1000,4,2,1,45,0,1
148527,-113.636363636364,4,2,1,45,0,1
148554,-1000,4,2,1,45,0,1
148581,-119.047619047619,4,2,1,45,0,1
148607,-1000,4,2,1,45,0,1
148633,-121.951219512195,4,2,1,45,0,1
148660,-1000,4,2,1,45,0,1
148686,-128.205128205128,4,2,1,45,0,1
148712,-1000,4,2,1,45,0,1
148739,-131.578947368421,4,2,1,45,0,1
148765,-1000,4,2,1,45,0,1
148791,-135.135135135135,4,2,1,45,0,1
148818,-1000,4,2,1,45,0,1
148844,-138.888888888889,4,2,1,45,0,1
148870,-1000,4,2,1,45,0,1
148897,-147.058823529412,4,2,1,45,0,1
148923,-1000,4,2,1,45,0,1
148949,-151.515151515152,4,2,1,45,0,1
148975,-1000,4,2,1,45,0,1
149002,-156.25,4,2,1,45,0,1
149028,-1000,4,2,1,45,0,1
149054,-161.290322580645,4,2,1,45,0,1
149081,-1000,4,2,1,45,0,1
149107,-166.666666666667,4,2,1,45,0,1
149133,-1000,4,2,1,45,0,1
149160,-172.413793103448,4,2,1,45,0,1
149186,-1000,4,2,1,45,0,1
149212,-178.571428571429,4,2,1,45,0,1
149239,-1000,4,2,1,45,0,1
149265,-185.185185185185,4,2,1,45,0,1
149291,-1000,4,2,1,45,0,1
149318,-192.307692307692,4,2,1,45,0,1
149344,-1000,4,2,1,45,0,1
149370,-200,4,2,1,45,0,1
149397,-1000,4,2,1,45,0,1
149423,-208.333333333333,4,2,1,45,0,1
149449,-1000,4,2,1,45,0,1
149475,-217.391304347826,4,2,1,45,0,1
149502,-1000,4,2,1,45,0,1
149528,-227.272727272727,4,2,1,45,0,1
149554,-1000,4,2,1,45,0,1
149581,-227.272727272727,4,2,1,45,0,1
149607,-1000,4,2,1,45,0,1
149633,-238.095238095238,4,2,1,45,0,1
149660,-1000,4,2,1,45,0,1
149686,-250,4,2,1,45,0,1
149712,-1000,4,2,1,45,0,1
149739,-250,4,2,1,45,0,1
149765,-1000,4,2,1,45,0,1
149791,-250,4,2,1,45,0,1
149818,-1000,4,2,1,45,0,1
149844,-250,4,2,1,45,0,1
149870,-1000,4,2,1,45,0,1
149896,-250,4,2,1,45,0,1
149923,-1000,4,2,1,45,0,1
149949,-250,4,2,1,45,0,1
149975,-1000,4,2,1,45,0,1
150002,-250,4,2,1,45,0,1
150028,-1000,4,2,1,45,0,1
150054,-250,4,2,1,45,0,1
150081,-1000,4,2,1,45,0,1
150107,-250,4,2,1,45,0,1
150133,-1000,4,2,1,45,0,1
150160,-250,4,2,1,45,0,1
150186,-1000,4,2,1,45,0,1
150212,-250,4,2,1,45,0,1
150238,-1000,4,2,1,45,0,1
150265,-250,4,2,1,45,0,1
150291,-1000,4,2,1,45,0,1
150317,-250,4,2,1,45,0,1
150344,-1000,4,2,1,45,0,1
150370,-250,4,2,1,45,0,1
150396,-1000,4,2,1,45,0,1
150423,-250,4,2,1,45,0,1
150449,-1000,4,2,1,45,0,1
150475,-250,4,2,1,45,0,1
150502,-1000,4,2,1,45,0,1
150528,-250,4,2,1,45,0,1
150554,-1000,4,2,1,45,0,1
150581,-250,4,2,1,45,0,1
150607,-1000,4,2,1,45,0,1
150633,-250,4,2,1,45,0,1
150660,-1000,4,2,1,45,0,1
150686,-250,4,2,1,45,0,1
150712,-1000,4,2,1,45,0,1
150738,-250,4,2,1,45,0,1
150765,-1000,4,2,1,45,0,1
150791,-250,4,2,1,45,0,1
150817,-1000,4,2,1,45,0,1
150844,-250,4,2,1,45,0,1
150870,-1000,4,2,1,45,0,1
150896,-250,4,2,1,45,0,1
150923,-400,4,2,1,45,0,1
150949,-277.777777777778,4,2,1,45,0,1
150975,-192.307692307692,4,2,1,45,0,1
151002,-133.333333333333,4,2,1,45,0,1
151028,-93.4579439252336,4,2,1,45,0,1
151054,-64.5161290322581,4,2,1,45,0,1
151080,-45.045045045045,4,2,1,45,0,1
151106,-10,4,2,1,30,0,0
151133,-100,4,2,1,30,0,0
194054,-133.333333333333,4,2,1,30,0,0
200370,-80,4,2,1,30,0,0
200422,-133.333333333333,4,2,1,30,0,0
200685,-80,4,2,1,30,0,0
200738,-133.333333333333,4,2,1,30,0,0
201001,-80,4,2,1,30,0,0
201054,-133.333333333333,4,2,1,30,0,0
201317,-80,4,2,1,30,0,0
201370,-133.333333333333,4,2,1,30,0,0
201633,-100,4,2,1,30,0,0
242054,-101.010101010101,4,2,1,30,0,0
242106,-102.040816326531,4,2,1,30,0,0
242159,-103.092783505155,4,2,1,30,0,0
242212,-104.166666666667,4,2,1,30,0,0
242264,-105.263157894737,4,2,1,30,0,0
242317,-106.382978723404,4,2,1,30,0,0
242370,-107.52688172043,4,2,1,30,0,0
242475,-108.695652173913,4,2,1,30,0,0
242527,-109.89010989011,4,2,1,30,0,0
242580,-111.111111111111,4,2,1,30,0,0
242633,-112.359550561798,4,2,1,30,0,0
242685,-113.636363636364,4,2,1,30,0,0
242791,-114.942528735632,4,2,1,30,0,0
242843,-116.279069767442,4,2,1,30,0,0
242896,-117.647058823529,4,2,1,30,0,0
242948,-119.047619047619,4,2,1,30,0,0
243054,-120.481927710843,4,2,1,30,0,0
243106,-121.951219512195,4,2,1,30,0,0
243159,-123.456790123457,4,2,1,30,0,0
243264,-125,4,2,1,30,0,0
243317,-120.481927710843,4,2,1,30,0,0
243352,-125,4,2,1,30,0,0
243387,-123.456790123457,4,2,1,30,0,0
243422,-129.87012987013,4,2,1,30,0,0
243457,-125,4,2,1,30,0,0
243492,-135.135135135135,4,2,1,30,0,0
243528,-128.205128205128,4,2,1,30,0,0
243563,-140.845070422535,4,2,1,30,0,0
243598,-129.87012987013,4,2,1,30,0,0
243633,-147.058823529412,4,2,1,30,0,0
243668,-133.333333333333,4,2,1,30,0,0
243703,-151.515151515152,4,2,1,30,0,0
243738,-135.135135135135,4,2,1,30,0,0
243773,-158.730158730159,4,2,1,30,0,0
243808,-138.888888888889,4,2,1,30,0,0
243843,-163.934426229508,4,2,1,30,0,0
243878,-140.845070422535,4,2,1,30,0,0
243913,-172.413793103448,4,2,1,30,0,0
243949,-144.927536231884,4,2,1,30,0,0
243984,-178.571428571429,4,2,1,30,0,0
244019,-147.058823529412,4,2,1,30,0,0
244054,-185.185185185185,4,2,1,30,0,0
244089,-151.515151515152,4,2,1,30,0,0
244124,-196.078431372549,4,2,1,30,0,0
244159,-153.846153846154,4,2,1,30,0,0
244194,-204.081632653061,4,2,1,30,0,0
244229,-156.25,4,2,1,30,0,0
244264,-212.765957446809,4,2,1,30,0,0
244299,-161.290322580645,4,2,1,30,0,0
244334,-222.222222222222,4,2,1,30,0,0
244370,-163.934426229508,4,2,1,30,0,0
244405,-227.272727272727,4,2,1,30,0,0
244440,-166.666666666667,4,2,1,30,0,0
244475,-238.095238095238,4,2,1,30,0,0
244510,-172.413793103448,4,2,1,30,0,0
244545,-250,4,2,1,30,0,0
244580,-175.438596491228,4,2,1,30,0,0
244615,-263.157894736842,4,2,1,30,0,0
244650,-178.571428571429,4,2,1,30,0,0
244685,-270.27027027027,4,2,1,30,0,0
244720,-181.818181818182,4,2,1,30,0,0
244755,-285.714285714286,4,2,1,30,0,0
244791,-185.185185185185,4,2,1,30,0,0
244826,-294.117647058824,4,2,1,30,0,0
244861,-192.307692307692,4,2,1,30,0,0
244896,-312.5,4,2,1,30,0,0
244931,-196.078431372549,4,2,1,30,0,0
244966,-322.58064516129,4,2,1,30,0,0
245001,-200,4,2,1,30,0,0
245036,-333.333333333333,4,2,1,30,0,0
245071,-204.081632653061,4,2,1,30,0,0
245106,-344.827586206897,4,2,1,30,0,0
245141,-208.333333333333,4,2,1,30,0,0
245176,-370.37037037037,4,2,1,30,0,0
245212,-212.765957446809,4,2,1,30,0,0
245247,-384.615384615385,4,2,1,30,0,0
245282,-217.391304347826,4,2,1,30,0,0
245317,-400,4,2,1,30,0,0
245352,-222.222222222222,4,2,1,30,0,0
245387,-416.666666666667,4,2,1,30,0,0
245422,-227.272727272727,4,2,1,30,0,0
245457,-434.782608695652,4,2,1,30,0,0
245492,-232.558139534884,4,2,1,30,0,0
245527,-454.545454545455,4,2,1,30,0,0
245562,-238.095238095238,4,2,1,30,0,0
245597,-476.190476190476,4,2,1,30,0,0
245633,-243.90243902439,4,2,1,30,0,0
245668,-500,4,2,1,30,0,0
245703,-250,4,2,1,30,0,0
245738,-526.315789473684,4,2,1,30,0,0
245773,-256.410256410256,4,2,1,30,0,0
245808,-555.555555555556,4,2,1,30,0,0
245843,-263.157894736842,4,2,1,30,0,0
245878,-555.555555555556,4,2,1,30,0,0
245913,-263.157894736842,4,2,1,30,0,0
245948,-588.235294117647,4,2,1,30,0,0
245983,-270.27027027027,4,2,1,30,0,0
246018,-625,4,2,1,30,0,0
246054,-270.27027027027,4,2,1,30,0,0
246089,-625,4,2,1,30,0,0
246124,-277.777777777778,4,2,1,30,0,0
246159,-666.666666666667,4,2,1,30,0,0
246194,-285.714285714286,4,2,1,30,0,0
246229,-666.666666666667,4,2,1,30,0,0
246264,-285.714285714286,4,2,1,30,0,0
246299,-714.285714285714,4,2,1,30,0,0
246334,-294.117647058824,4,2,1,30,0,0
246369,-769.230769230769,4,2,1,30,0,0
246404,-294.117647058824,4,2,1,30,0,0
246439,-769.230769230769,4,2,1,30,0,0
246475,-303.030303030303,4,2,1,30,0,0
246510,-833.333333333333,4,2,1,30,0,0
246545,-312.5,4,2,1,30,0,0
246580,-833.333333333333,4,2,1,30,0,0
246615,-312.5,4,2,1,30,0,0
246650,-909.090909090909,4,2,1,30,0,0
246685,-322.58064516129,4,2,1,30,0,0
246720,-909.090909090909,4,2,1,30,0,0
246755,-322.58064516129,4,2,1,30,0,0
246790,-1000,4,2,1,30,0,0
246825,-333.333333333333,4,2,1,30,0,0
246860,-1000,4,2,1,30,0,0
246896,-333.333333333333,4,2,1,30,0,0
246931,-1000,4,2,1,30,0,0
246966,-344.827586206897,4,2,1,30,0,0
247001,-1000,4,2,1,30,0,0
247036,-344.827586206897,4,2,1,30,0,0
247071,-1000,4,2,1,30,0,0
247106,-357.142857142857,4,2,1,30,0,0
247133,-1000,4,2,1,30,0,0
247159,-344.827586206897,4,2,1,30,0,0
247185,-1000,4,2,1,30,0,0
247212,-333.333333333333,4,2,1,30,0,0
247238,-1000,4,2,1,30,0,0
247264,-322.58064516129,4,2,1,30,0,0
247291,-1000,4,2,1,30,0,0
247317,-312.5,4,2,1,30,0,0
247343,-1000,4,2,1,30,0,0
247370,-303.030303030303,4,2,1,30,0,0
247396,-1000,4,2,1,30,0,0
247422,-294.117647058824,4,2,1,30,0,0
247449,-1000,4,2,1,30,0,0
247475,-285.714285714286,4,2,1,30,0,0
247501,-1000,4,2,1,30,0,0
247528,-277.777777777778,4,2,1,30,0,0
247554,-1000,4,2,1,30,0,0
247580,-270.27027027027,4,2,1,30,0,0
247607,-1000,4,2,1,30,0,0
247633,-263.157894736842,4,2,1,30,0,0
247659,-1000,4,2,1,30,0,0
247686,-256.410256410256,4,2,1,30,0,0
247712,-1000,4,2,1,30,0,0
247738,-250,4,2,1,30,0,0
247765,-1000,4,2,1,30,0,0
247791,-238.095238095238,4,2,1,30,0,0
247817,-1000,4,2,1,30,0,0
247844,-232.558139534884,4,2,1,30,0,0
247870,-1000,4,2,1,30,0,0
247896,-227.272727272727,4,2,1,30,0,0
247923,-1000,4,2,1,30,0,0
247949,-217.391304347826,4,2,1,30,0,0
247975,-1000,4,2,1,30,0,0
248002,-212.765957446809,4,2,1,30,0,0
248028,-1000,4,2,1,30,0,0
248054,-208.333333333333,4,2,1,30,0,0
248081,-1000,4,2,1,30,0,0
248107,-200,4,2,1,30,0,0
248133,-1000,4,2,1,30,0,0
248160,-196.078431372549,4,2,1,30,0,0
248186,-1000,4,2,1,30,0,0
248212,-188.679245283019,4,2,1,30,0,0
248239,-1000,4,2,1,30,0,0
248265,-185.185185185185,4,2,1,30,0,0
248291,-1000,4,2,1,30,0,0
248318,-178.571428571429,4,2,1,30,0,0
248344,-1000,4,2,1,30,0,0
248369,-172.413793103448,4,2,1,30,0,0
248396,-1000,4,2,1,30,0,0
248422,-166.666666666667,4,2,1,30,0,0
248448,-1000,4,2,1,30,0,0
248475,-161.290322580645,4,2,1,30,0,0
248501,-1000,4,2,1,30,0,0
248527,-156.25,4,2,1,30,0,0
248554,-1000,4,2,1,30,0,0
248580,-151.515151515152,4,2,1,30,0,0
248606,-1000,4,2,1,30,0,0
248633,-147.058823529412,4,2,1,30,0,0
248659,-1000,4,2,1,30,0,0
248685,-142.857142857143,4,2,1,30,0,0
248712,-1000,4,2,1,30,0,0
248738,-138.888888888889,4,2,1,30,0,0
248764,-1000,4,2,1,30,0,0
248791,-133.333333333333,4,2,1,30,0,0
248817,-1000,4,2,1,30,0,0
248843,-129.87012987013,4,2,1,30,0,0
248870,-1000,4,2,1,30,0,0
248896,-125,4,2,1,30,0,0
248922,-1000,4,2,1,30,0,0
248949,-121.951219512195,4,2,1,30,0,0
248975,-1000,4,2,1,30,0,0
249001,-117.647058823529,4,2,1,30,0,0
249028,-1000,4,2,1,30,0,0
249054,-114.942528735632,4,2,1,30,0,0
249080,-1000,4,2,1,30,0,0
249107,-112.359550561798,4,2,1,30,0,0
249133,-1000,4,2,1,30,0,0
249159,-108.695652173913,4,2,1,30,0,0
249186,-1000,4,2,1,30,0,0
249212,-106.382978723404,4,2,1,30,0,0
249238,-1000,4,2,1,30,0,0
249265,-103.092783505155,4,2,1,30,0,0
249291,-1000,4,2,1,30,0,0
249317,-101.010101010101,4,2,1,30,0,0
249344,-1000,4,2,1,30,0,0
249370,-98.0392156862745,4,2,1,30,0,0
249396,-1000,4,2,1,30,0,0
249423,-95.2380952380952,4,2,1,30,0,0
249449,-1000,4,2,1,30,0,0
249475,-92.5925925925926,4,2,1,30,0,0
249502,-1000,4,2,1,30,0,0
249528,-90.0900900900901,4,2,1,30,0,0
249554,-1000,4,2,1,30,0,0
249581,-87.719298245614,4,2,1,30,0,0
249607,-1000,4,2,1,30,0,0
249633,-85.4700854700855,4,2,1,45,0,0
249659,-1000,4,2,1,45,0,0
249685,-83.3333333333333,4,2,1,45,0,0
249711,-1000,4,2,1,45,0,0
249738,-80.6451612903226,4,2,1,45,0,0
249764,-1000,4,2,1,45,0,0
249790,-78.125,4,2,1,45,0,0
249817,-1000,4,2,1,45,0,0
249843,-75.7575757575758,4,2,1,45,0,0
249869,-1000,4,2,1,45,0,0
249896,-73.5294117647059,4,2,1,45,0,0
249922,-1000,4,2,1,45,0,0
249948,-71.4285714285714,4,2,1,45,0,0
249975,-1000,4,2,1,45,0,0
250001,-69.4444444444444,4,2,1,45,0,0
250027,-1000,4,2,1,45,0,0
250054,-67.1140939597316,4,2,1,45,0,0
250080,-1000,4,2,1,45,0,0
250106,-65.359477124183,4,2,1,45,0,0
250133,-1000,4,2,1,45,0,0
250159,-63.2911392405063,4,2,1,45,0,0
250185,-1000,4,2,1,45,0,0
250212,-61.3496932515337,4,2,1,45,0,0
250238,-1000,4,2,1,45,0,0
250264,-59.5238095238095,4,2,1,45,0,0
250291,-1000,4,2,1,45,0,0
250317,-57.8034682080925,4,2,1,45,0,0
250343,-1000,4,2,1,45,0,0
250370,-55.8659217877095,4,2,1,45,0,0
250396,-1000,4,2,1,45,0,0
250422,-54.0540540540541,4,2,1,45,0,0
250449,-1000,4,2,1,45,0,0
250475,-52.3560209424084,4,2,1,45,0,0
250501,-909.090909090909,4,2,1,45,0,0
250528,-50.5050505050505,4,2,1,45,0,0
250554,-909.090909090909,4,2,1,45,0,0
250580,-49.0196078431373,4,2,1,45,0,0
250607,-909.090909090909,4,2,1,45,0,0
250633,-47.39336492891,4,2,1,45,0,0
250659,-833.333333333333,4,2,1,45,0,0
250686,-45.8715596330275,4,2,1,45,0,0
250712,-833.333333333333,4,2,1,45,0,0
250738,-44.2477876106195,4,2,1,45,0,0
250765,-769.230769230769,4,2,1,45,0,0
250791,-42.9184549356223,4,2,1,45,0,0
250817,-769.230769230769,4,2,1,45,0,0
250844,-41.49377593361,4,2,1,45,0,0
250870,-769.230769230769,4,2,1,45,0,0
250896,-40,4,2,1,45,0,0
250949,-200,4,2,1,45,0,0
251107,-57.1428571428571,4,2,1,45,0,0
251120,-400,4,2,1,45,0,0
251133,-57.1428571428571,4,2,1,45,0,0
251146,-400,4,2,1,45,0,0
251159,-57.1428571428571,4,2,1,45,0,0
251173,-400,4,2,1,45,0,0
251186,-57.1428571428571,4,2,1,45,0,0
251199,-400,4,2,1,45,0,0
251212,-40,4,2,1,45,0,0
251265,-200,4,2,1,45,0,0
251423,-57.1428571428571,4,2,1,45,0,0
251436,-400,4,2,1,45,0,0
251449,-57.1428571428571,4,2,1,45,0,0
251462,-400,4,2,1,45,0,0
251475,-57.1428571428571,4,2,1,45,0,0
251489,-400,4,2,1,45,0,0
251502,-57.1428571428571,4,2,1,45,0,0
251515,-400,4,2,1,45,0,0
251528,-58.8235294117647,4,2,1,45,0,0
251581,-333.333333333333,4,2,1,45,0,0
251633,-58.8235294117647,4,2,1,45,0,0
251686,-333.333333333333,4,2,1,45,0,0
251739,-57.1428571428571,4,2,1,45,0,0
251752,-400,4,2,1,45,0,0
251765,-56.8181818181818,4,2,1,45,0,0
251778,-416.666666666667,4,2,1,45,0,0
251791,-56.1797752808989,4,2,1,45,0,0
251804,-454.545454545455,4,2,1,45,0,0
251817,-55.5555555555556,4,2,1,45,0,0
251831,-500,4,2,1,45,0,0
251844,-54.9450549450549,4,2,1,45,0,0
251857,-555.555555555556,4,2,1,45,0,0
251870,-54.3478260869565,4,2,1,45,0,0
251883,-625,4,2,1,45,0,0
251896,-53.763440860215,4,2,1,45,0,0
251909,-714.285714285714,4,2,1,45,0,0
251923,-53.1914893617021,4,2,1,45,0,0
251936,-833.333333333333,4,2,1,45,0,0
251949,-52.6315789473684,4,2,1,45,0,0
251962,-1000,4,2,1,45,0,0
251975,-52.6315789473684,4,2,1,45,0,0
251988,-1000,4,2,1,45,0,0
252002,-52.6315789473684,4,2,1,45,0,0
252015,-1000,4,2,1,45,0,0
252028,-52.6315789473684,4,2,1,45,0,0
252041,-1000,4,2,1,45,0,0
252054,-52.6315789473684,4,2,1,45,0,0
252067,-1000,4,2,1,45,0,0
252081,-52.6315789473684,4,2,1,45,0,0
252094,-1000,4,2,1,45,0,0
252107,-52.6315789473684,4,2,1,45,0,0
252120,-1000,4,2,1,45,0,0
252133,-52.6315789473684,4,2,1,45,0,0
252146,-1000,4,2,1,45,0,0
252159,-100,4,2,1,45,0,0
256686,-58.8235294117647,4,2,1,45,0,0
256752,-333.333333333333,4,2,1,45,0,0
256817,-58.8235294117647,4,2,1,45,0,0
256883,-333.333333333333,4,2,1,45,0,0
256949,-58.8235294117647,4,2,1,45,0,0
257015,-333.333333333333,4,2,1,45,0,0
257081,-58.8235294117647,4,2,1,45,0,0
257146,-333.333333333333,4,2,1,45,0,0
257212,-100,4,2,1,45,0,0
261712,-58.8235294117647,4,2,1,45,0,0
261758,-333.333333333333,4,2,1,45,0,0
261804,-58.8235294117647,4,2,1,45,0,0
261850,-333.333333333333,4,2,1,45,0,0
261896,-58.8235294117647,4,2,1,45,0,0
261942,-333.333333333333,4,2,1,45,0,0
261988,-58.8235294117647,4,2,1,45,0,0
262034,-333.333333333333,4,2,1,45,0,0
262080,-58.8235294117647,4,2,1,45,0,0
262126,-333.333333333333,4,2,1,45,0,0
262172,-58.8235294117647,4,2,1,45,0,0
262219,-333.333333333333,4,2,1,45,0,0
262265,-100,4,2,1,45,0,0
271738,-52.6315789473684,4,2,1,45,0,0
271751,-1000,4,2,1,45,0,0
271764,-52.6315789473684,4,2,1,45,0,0
271778,-1000,4,2,1,45,0,0
271791,-52.6315789473684,4,2,1,45,0,0
271804,-1000,4,2,1,45,0,0
271817,-52.6315789473684,4,2,1,45,0,0
271830,-1000,4,2,1,45,0,0
271843,-52.6315789473684,4,2,1,45,0,0
271856,-1000,4,2,1,45,0,0
271870,-52.6315789473684,4,2,1,45,0,0
271883,-1000,4,2,1,45,0,0
271896,-52.6315789473684,4,2,1,45,0,0
271909,-1000,4,2,1,45,0,0
271922,-58.8235294117647,4,2,1,45,0,0
271949,-333.333333333333,4,2,1,45,0,0
271975,-52.6315789473684,4,2,1,45,0,0
271988,-1000,4,2,1,45,0,0
272001,-52.6315789473684,4,2,1,45,0,0
272014,-1000,4,2,1,45,0,0
272028,-52.6315789473684,4,2,1,45,0,0
272041,-1000,4,2,1,45,0,0
272054,-58.8235294117647,4,2,1,45,0,0
272080,-333.333333333333,4,2,1,45,0,0
272106,-52.6315789473684,4,2,1,45,0,0
272120,-1000,4,2,1,45,0,0
272133,-52.6315789473684,4,2,1,45,0,0
272146,-1000,4,2,1,45,0,0
272159,-58.8235294117647,4,2,1,45,0,0
272185,-333.333333333333,4,2,1,45,0,0
272212,-52.6315789473684,4,2,1,45,0,0
272225,-1000,4,2,1,45,0,0
272238,-58.8235294117647,4,2,1,45,0,0
272264,-333.333333333333,4,2,1,45,0,0
272291,-58.8235294117647,4,2,1,45,0,0
272330,-333.333333333333,4,2,1,45,0,0
272370,-100,4,2,1,45,0,1
276791,-100,4,2,1,45,0,0
277422,-100,4,2,1,45,0,1
281843,-100,4,2,1,45,0,0
282475,-100,4,2,1,45,0,1
286896,-100,4,2,1,45,0,0
287528,-100,4,2,1,45,0,1
291949,-27.027027027027,4,2,1,45,0,0
291962,-1000,4,2,1,45,0,0
292001,-27.027027027027,4,2,1,45,0,0
292014,-1000,4,2,1,45,0,0
292054,-27.027027027027,4,2,1,45,0,0
292067,-1000,4,2,1,45,0,0
292106,-27.027027027027,4,2,1,45,0,0
292120,-1000,4,2,1,45,0,0
292159,-27.027027027027,4,2,1,45,0,0
292172,-1000,4,2,1,45,0,0
292212,-35.7142857142857,4,2,1,45,0,0
292225,-1000,4,2,1,45,0,0
292251,-35.7142857142857,4,2,1,45,0,0
292264,-1000,4,2,1,45,0,0
292291,-35.7142857142857,4,2,1,45,0,0
292304,-1000,4,2,1,45,0,0
292330,-35.7142857142857,4,2,1,45,0,0
292343,-1000,4,2,1,45,0,0
292370,-42.5531914893617,4,2,1,45,0,0
292383,-1000,4,2,1,45,0,0
292403,-42.5531914893617,4,2,1,45,0,0
292416,-1000,4,2,1,45,0,0
292435,-35.7142857142857,4,2,1,45,0,0
292449,-1000,4,2,1,45,0,0
292475,-27.027027027027,4,2,1,45,0,0
292488,-1000,4,2,1,45,0,0
292528,-27.027027027027,4,2,1,45,0,0
292541,-1000,4,2,1,45,0,0
292580,-28.9855072463768,4,2,1,45,0,0
292593,-1000,4,2,1,45,0,0
292633,-31.25,4,2,1,45,0,0
292646,-1000,4,2,1,45,0,0
292685,-33.8983050847458,4,2,1,45,0,0
292699,-1000,4,2,1,45,0,0
292738,-37.037037037037,4,2,1,45,0,0
292751,-1000,4,2,1,45,0,0
292791,-37.037037037037,4,2,1,45,0,0
292804,-1000,4,2,1,45,0,0
292844,-40.8163265306122,4,2,1,45,0,0
292857,-1000,4,2,1,45,0,0
292896,-45.4545454545455,4,2,1,45,0,0
292910,-1000,4,2,1,45,0,0
292949,-51.2820512820513,4,2,1,45,0,0
292962,-1000,4,2,1,45,0,0
293001,-58.8235294117647,4,2,1,45,0,0
293014,-1000,4,2,1,45,0,0
293054,-68.9655172413793,4,2,1,45,0,0
293067,-1000,4,2,1,45,0,0
293106,-83.3333333333333,4,2,1,45,0,0
293120,-1000,4,2,1,45,0,0
293159,-71.4285714285714,4,2,1,45,0,0
293172,-1000,4,2,1,45,0,0
293212,-62.5,4,2,1,45,0,0
293225,-1000,4,2,1,45,0,0
293265,-55.5555555555556,4,2,1,45,0,0
293278,-1000,4,2,1,45,0,0
293317,-50,4,2,1,45,0,0
293331,-1000,4,2,1,45,0,0
293370,-45.4545454545455,4,2,1,45,0,0
293383,-1000,4,2,1,45,0,0
293422,-41.6666666666667,4,2,1,45,0,0
293435,-1000,4,2,1,45,0,0
293475,-39.2156862745098,4,2,1,45,0,0
293488,-1000,4,2,1,45,0,0
293527,-37.037037037037,4,2,1,45,0,0
293541,-1000,4,2,1,45,0,0
293580,-35.0877192982456,4,2,1,45,0,0
293593,-1000,4,2,1,45,0,0
293633,-33.3333333333333,4,2,1,45,0,0
293646,-1000,4,2,1,45,0,0
293685,-31.7460317460317,4,2,1,45,0,0
293699,-1000,4,2,1,45,0,0
293739,-30.3030303030303,4,2,1,45,0,0
293752,-1000,4,2,1,45,0,0
293791,-28.9855072463768,4,2,1,45,0,0
293805,-1000,4,2,1,45,0,0
293844,-27.7777777777778,4,2,1,45,0,0
293857,-1000,4,2,1,45,0,0
293896,-27.027027027027,4,2,1,45,0,0
293909,-1000,4,2,1,45,0,0
293949,-34.4827586206897,4,2,1,45,0,0
293962,-1000,4,2,1,45,0,0
294001,-47.6190476190476,4,2,1,45,0,0
294015,-1000,4,2,1,45,0,0
294054,-76.9230769230769,4,2,1,45,0,0
294067,-1000,4,2,1,45,0,0
294107,-27.027027027027,4,2,1,45,0,0
294120,-1000,4,2,1,45,0,0
294159,-34.4827586206897,4,2,1,45,0,0
294172,-1000,4,2,1,45,0,0
294212,-47.6190476190476,4,2,1,45,0,0
294225,-1000,4,2,1,45,0,0
294264,-76.9230769230769,4,2,1,45,0,0
294278,-1000,4,2,1,45,0,0
294317,-27.027027027027,4,2,1,45,0,0
294330,-1000,4,2,1,45,0,0
294370,-34.4827586206897,4,2,1,45,0,0
294383,-1000,4,2,1,45,0,0
294422,-47.6190476190476,4,2,1,45,0,0
294436,-1000,4,2,1,45,0,0
294475,-76.9230769230769,4,2,1,45,0,0
294488,-1000,4,2,1,45,0,0
294528,-27.027027027027,4,2,1,45,0,0
294541,-1000,4,2,1,45,0,0
294581,-34.4827586206897,4,2,1,45,0,0
294594,-1000,4,2,1,45,0,0
294633,-47.6190476190476,4,2,1,45,0,0
294647,-1000,4,2,1,45,0,0
294686,-76.9230769230769,4,2,1,45,0,0
294699,-1000,4,2,1,45,0,0
294738,-27.027027027027,4,2,1,45,0,0
294751,-1000,4,2,1,45,0,0
294790,-30.3030303030303,4,2,1,45,0,0
294804,-1000,4,2,1,45,0,0
294843,-37.037037037037,4,2,1,45,0,0
294856,-1000,4,2,1,45,0,0
294896,-37.037037037037,4,2,1,45,0,0
294909,-1000,4,2,1,45,0,0
294949,-37.037037037037,4,2,1,45,0,0
294962,-1000,4,2,1,45,0,0
295001,-37.037037037037,4,2,1,45,0,0
295015,-1000,4,2,1,45,0,0
295054,-37.037037037037,4,2,1,45,0,0
295067,-1000,4,2,1,45,0,0
295106,-37.7358490566038,4,2,1,45,0,0
295119,-1000,4,2,1,45,0,0
295159,-38.4615384615385,4,2,1,45,0,0
295172,-1000,4,2,1,45,0,0
295212,-39.3700787401575,4,2,1,45,0,0
295226,-1000,4,2,1,45,0,0
295264,-40.1606425702811,4,2,1,45,0,0
295278,-1000,4,2,1,45,0,0
295317,-41.1522633744856,4,2,1,45,0,0
295331,-1000,4,2,1,45,0,0
295369,-42.0168067226891,4,2,1,45,0,0
295384,-1000,4,2,1,45,0,0
295422,-42.9184549356223,4,2,1,45,0,0
295437,-1000,4,2,1,45,0,0
295475,-44.0528634361233,4,2,1,45,0,0
295490,-1000,4,2,1,45,0,0
295527,-45.045045045045,4,2,1,45,0,0
295543,-1000,4,2,1,45,0,0
295580,-46.2962962962963,4,2,1,45,0,0
295596,-1000,4,2,1,45,0,0
295633,-47.39336492891,4,2,1,45,0,0
295650,-1000,4,2,1,45,0,0
295685,-48.780487804878,4,2,1,45,0,0
295702,-1000,4,2,1,45,0,0
295738,-50,4,2,1,45,0,0
295756,-1000,4,2,1,45,0,0
295791,-51.2820512820513,4,2,1,45,0,0
295809,-1000,4,2,1,45,0,0
295843,-52.9100529100529,4,2,1,45,0,0
295862,-1000,4,2,1,45,0,0
295896,-54.3478260869565,4,2,1,45,0,0
295915,-1000,4,2,1,45,0,0
295948,-56.1797752808989,4,2,1,45,0,0
295968,-1000,4,2,1,45,0,0
296001,-57.8034682080925,4,2,1,45,0,0
296022,-1000,4,2,1,45,0,0
296054,-59.5238095238095,4,2,1,45,0,0
296075,-1000,4,2,1,45,0,0
296106,-61.7283950617284,4,2,1,45,0,0
296128,-1000,4,2,1,45,0,0
296159,-63.6942675159236,4,2,1,45,0,0
296182,-1000,4,2,1,45,0,0
296212,-66.2251655629139,4,2,1,45,0,0
296236,-1000,4,2,1,45,0,0
296264,-68.4931506849315,4,2,1,45,0,0
296289,-1000,4,2,1,45,0,0
296317,-71.4285714285714,4,2,1,45,0,0
296343,-1000,4,2,1,45,0,0
296370,-74.6268656716418,4,2,1,45,0,0
296397,-1000,4,2,1,45,0,0
296423,-78.125,4,2,1,45,0,0
296449,-1000,4,2,1,45,0,0
296476,-81.9672131147541,4,2,1,45,0,0
296502,-1000,4,2,1,45,0,0
296528,-85.4700854700855,4,2,1,45,0,0
296554,-1000,4,2,1,45,0,0
296581,-89.2857142857143,4,2,1,45,0,0
296607,-1000,4,2,1,45,0,0
296633,-93.4579439252336,4,2,1,45,0,0
296660,-1000,4,2,1,45,0,0
296686,-97.0873786407767,4,2,1,45,0,0
296712,-1000,4,2,1,45,0,0
296738,-101.010101010101,4,2,1,45,0,0
296764,-1000,4,2,1,45,0,0
296791,-105.263157894737,4,2,1,45,0,0
296817,-1000,4,2,1,45,0,0
296843,-107.52688172043,4,2,1,45,0,0
296870,-1000,4,2,1,45,0,0
296896,-109.89010989011,4,2,1,45,0,0
296922,-1000,4,2,1,45,0,0
296949,-111.111111111111,4,2,1,45,0,0
296975,-1000,4,2,1,45,0,0
297002,-105.263157894737,4,2,1,45,0,0
297028,-1000,4,2,1,45,0,0
297054,-100,4,2,1,45,0,0
297081,-1000,4,2,1,45,0,0
297107,-90.9090909090909,4,2,1,45,0,0
297133,-1000,4,2,1,45,0,0
297159,-83.3333333333333,4,2,1,45,0,0
297185,-1000,4,2,1,45,0,0
297212,-74.0740740740741,4,2,1,45,0,0
297238,-1000,4,2,1,45,0,0
297264,-66.6666666666667,4,2,1,45,0,0
297291,-1000,4,2,1,45,0,0
297317,-58.8235294117647,4,2,1,45,0,0
297343,-1000,4,2,1,45,0,0
297370,-52.6315789473684,4,2,1,45,0,0
297396,-1000,4,2,1,45,0,0
297423,-46.5116279069767,4,2,1,45,0,0
297449,-1000,4,2,1,45,0,0
297475,-41.6666666666667,4,2,1,45,0,0
297501,-1000,4,2,1,45,0,0
297528,-41.6666666666667,4,2,1,45,0,0
297554,-1000,4,2,1,45,0,0
297580,-41.6666666666667,4,2,1,45,0,0
297606,-1000,4,2,1,45,0,0
297633,-41.6666666666667,4,2,1,45,0,0
297659,-1000,4,2,1,45,0,0
297685,-42.9184549356223,4,2,1,45,0,0
297712,-833.333333333333,4,2,1,45,0,0
297738,-44.2477876106195,4,2,1,45,0,0
297764,-666.666666666667,4,2,1,45,0,0
297791,-45.662100456621,4,2,1,45,0,0
297817,-555.555555555556,4,2,1,45,0,0
297843,-46.9483568075117,4,2,1,45,0,0
297870,-476.190476190476,4,2,1,45,0,0
297896,-48.5436893203883,4,2,1,45,0,0
297922,-434.782608695652,4,2,1,45,0,0
297949,-50.251256281407,4,2,1,45,0,0
297975,-384.615384615385,4,2,1,45,0,0
298001,-51.8134715025907,4,2,1,45,0,0
298028,-357.142857142857,4,2,1,45,0,0
298054,-53.7634408602151,4,2,1,45,0,0
298080,-333.333333333333,4,2,1,45,0,0
298106,-55.5555555555556,4,2,1,45,0,0
298133,-312.5,4,2,1,45,0,0
298159,-57.4712643678161,4,2,1,45,0,0
298185,-294.117647058824,4,2,1,45,0,0
298212,-59.5238095238095,4,2,1,45,0,0
298238,-277.777777777778,4,2,1,45,0,0
298264,-61.7283950617284,4,2,1,45,0,0
298290,-263.157894736842,4,2,1,45,0,0
298316,-64.1025641025641,4,2,1,45,0,0
298343,-250,4,2,1,45,0,0
298369,-66.6666666666667,4,2,1,45,0,0
298395,-243.90243902439,4,2,1,45,0,0
298422,-68.9655172413793,4,2,1,45,0,0
298448,-232.558139534884,4,2,1,45,0,0
298474,-71.9424460431655,4,2,1,45,0,0
298501,-227.272727272727,4,2,1,45,0,0
298527,-74.6268656716418,4,2,1,45,0,0
298553,-217.391304347826,4,2,1,45,0,0
298580,-78.125,4,2,1,45,0,0
298606,-212.765957446809,4,2,1,45,0,0
298632,-81.3008130081301,4,2,1,45,0,0
298659,-208.333333333333,4,2,1,45,0,0
298685,-84.7457627118644,4,2,1,45,0,0
298711,-204.081632653061,4,2,1,45,0,0
298737,-88.495575221239,4,2,1,45,0,0
298764,-200,4,2,1,45,0,0
298790,-92.5925925925926,4,2,1,45,0,0
298816,-200,4,2,1,45,0,0
298843,-97.0873786407767,4,2,1,45,0,0
298869,-196.078431372549,4,2,1,45,0,0
298896,-102.040816326531,4,2,1,45,0,0
298922,-192.307692307692,4,2,1,45,0,0
298948,-103.092783505155,4,2,1,45,0,0
298975,-188.679245283019,4,2,1,45,0,0
299001,-105.263157894737,4,2,1,45,0,0
299027,-181.818181818182,4,2,1,45,0,0
299054,-107.52688172043,4,2,1,45,0,0
299080,-175.438596491228,4,2,1,45,0,0
299106,-109.89010989011,4,2,1,45,0,0
299133,-169.491525423729,4,2,1,45,0,0
299159,-112.359550561798,4,2,1,45,0,0
299185,-163.934426229508,4,2,1,45,0,0
299212,-114.942528735632,4,2,1,45,0,0
299238,-158.730158730159,4,2,1,45,0,0
299264,-117.647058823529,4,2,1,45,0,0
299291,-153.846153846154,4,2,1,45,0,0
299317,-120.481927710843,4,2,1,45,0,0
299343,-149.253731343284,4,2,1,45,0,0
299369,-123.456790123457,4,2,1,45,0,0
299396,-144.927536231884,4,2,1,45,0,0
299422,-126.582278481013,4,2,1,45,0,0
299448,-140.845070422535,4,2,1,45,0,0
299475,-129.87012987013,4,2,1,45,0,0
299501,-136.986301369863,4,2,1,45,0,0
299528,-133.333333333333,4,2,1,45,0,0
302685,-175.438596491228,4,2,1,30,0,0
302712,-227.272727272727,4,2,1,30,0,0
302738,-294.117647058824,4,2,1,30,0,0
302764,-384.615384615385,4,2,1,30,0,0
302791,-500,4,2,1,30,0,0
303159,-333.333333333333,4,2,1,30,0,0
303212,-500,4,2,1,30,0,0
303370,-333.333333333333,4,2,1,30,0,0
303422,-500,4,2,1,30,0,0
303685,-333.333333333333,4,2,1,30,0,0
303738,-500,4,2,1,30,0,0
304422,-333.333333333333,4,2,1,30,0,0
304475,-500,4,2,1,30,0,0
304633,-333.333333333333,4,2,1,30,0,0
304685,-500,4,2,1,30,0,0
304949,-333.333333333333,4,2,1,30,0,0
305001,-500,4,2,1,30,0,0
305212,-400,4,2,1,30,0,0
305264,-500,4,2,1,30,0,0
305685,-333.333333333333,4,2,1,30,0,0
305738,-500,4,2,1,30,0,0
305843,-357.142857142857,4,2,1,30,0,0
305896,-333.333333333333,4,2,1,30,0,0
305949,-500,4,2,1,30,0,0
306212,-333.333333333333,4,2,1,30,0,0
306264,-500,4,2,1,30,0,0
306475,-312.5,4,2,1,30,0,0
306528,-500,4,2,1,30,0,0
306949,-333.333333333333,4,2,1,30,0,0
307001,-500,4,2,1,30,0,0
307106,-285.714285714286,4,2,1,30,0,0
307159,-333.333333333333,4,2,1,30,0,0
307212,-500,4,2,1,30,0,0
307317,-333.333333333333,4,2,1,30,0,0
307370,-500,4,2,1,30,0,0
307475,-333.333333333333,4,2,1,30,0,0
307528,-500,4,2,1,30,0,0
307685,-333.333333333333,4,2,1,30,0,0
307738,-250,4,2,1,30,0,0
307791,-500,4,2,1,30,0,0
308212,-333.333333333333,4,2,1,30,0,0
308264,-500,4,2,1,30,0,0
308370,-250,4,2,1,30,0,0
308422,-333.333333333333,4,2,1,30,0,0
308475,-500,4,2,1,30,0,0
308738,-333.333333333333,4,2,1,30,0,0
308791,-500,4,2,1,30,0,0
309001,-250,4,2,1,30,0,0
309054,-500,4,2,1,30,0,0
309475,-333.333333333333,4,2,1,30,0,0
309528,-500,4,2,1,30,0,0
309633,-250,4,2,1,30,0,0
309685,-333.333333333333,4,2,1,30,0,0
309738,-500,4,2,1,30,0,0
310001,-333.333333333333,4,2,1,30,0,0
310054,-500,4,2,1,30,0,0
310264,-250,4,2,1,30,0,0
310317,-500,4,2,1,30,0,0
310738,-333.333333333333,4,2,1,30,0,0
310791,-500,4,2,1,30,0,0
310949,-333.333333333333,4,2,1,30,0,0
311001,-500,4,2,1,30,0,0
311264,-333.333333333333,4,2,1,30,0,0
311317,-500,4,2,1,30,0,0
312001,-333.333333333333,4,2,1,30,0,0
312054,-500,4,2,1,30,0,0
312212,-285.714285714286,4,2,1,30,0,0
312251,-666.666666666667,4,2,1,30,0,0
312291,-285.714285714286,4,2,1,30,0,0
312330,-666.666666666667,4,2,1,30,0,0
312370,-250,4,2,1,30,0,0
312396,-1000,4,2,1,30,0,0
312422,-250,4,2,1,30,0,0
312449,-1000,4,2,1,30,0,0
312475,-250,4,2,1,30,0,0
312501,-1000,4,2,1,30,0,0
312528,-333.333333333333,4,2,1,30,0,0
312580,-500,4,2,1,30,0,0
312633,-333.333333333333,4,2,1,30,0,0
312685,-500,4,2,1,30,0,0
312738,-333.333333333333,4,2,1,30,0,0
312791,-500,4,2,1,30,0,0
313264,-333.333333333333,4,2,1,30,0,0
313317,-500,4,2,1,30,0,0
313475,-333.333333333333,4,2,1,30,0,0
313527,-500,4,2,1,30,0,0
313790,-333.333333333333,4,2,1,30,0,0
313843,-500,4,2,1,30,0,0
314527,-333.333333333333,4,2,1,30,0,0
314580,-500,4,2,1,30,0,0
314685,-400,4,2,1,30,0,0
314738,-333.333333333333,4,2,1,30,0,0
314790,-500,4,2,1,30,0,0
315054,-333.333333333333,4,2,1,30,0,0
315106,-500,4,2,1,30,0,0
315317,-250,4,2,1,30,0,0
315370,-500,4,2,1,30,0,0
315790,-333.333333333333,4,2,1,30,0,0
315843,-500,4,2,1,30,0,0
315949,-250,4,2,1,30,0,0
316001,-333.333333333333,4,2,1,30,0,0
316054,-500,4,2,1,30,0,0
316317,-333.333333333333,4,2,1,30,0,0
316369,-500,4,2,1,30,0,0
316580,-250,4,2,1,30,0,0
316633,-500,4,2,1,30,0,0
317054,-333.333333333333,4,2,1,30,0,0
317106,-500,4,2,1,30,0,0
317212,-250,4,2,1,30,0,0
317264,-333.333333333333,4,2,1,30,0,0
317317,-500,4,2,1,30,0,0
317422,-333.333333333333,4,2,1,30,0,0
317475,-500,4,2,1,30,0,0
317580,-333.333333333333,4,2,1,30,0,0
317633,-500,4,2,1,30,0,0
317790,-333.333333333333,4,2,1,30,0,0
317843,-250,4,2,1,30,0,0
317896,-500,4,2,1,30,0,0
318317,-333.333333333333,4,2,1,30,0,0
318369,-500,4,2,1,30,0,0
318475,-250,4,2,1,30,0,0
318527,-333.333333333333,4,2,1,30,0,0
318580,-500,4,2,1,30,0,0
318843,-333.333333333333,4,2,1,30,0,0
318896,-500,4,2,1,30,0,0
319106,-250,4,2,1,30,0,0
319159,-500,4,2,1,30,0,0
319580,-333.333333333333,4,2,1,30,0,0
319633,-500,4,2,1,30,0,0
319738,-250,4,2,1,30,0,0
319790,-333.333333333333,4,2,1,30,0,0
319843,-500,4,2,1,30,0,0
320106,-333.333333333333,4,2,1,30,0,0
320159,-500,4,2,1,30,0,0
320370,-250,4,2,1,30,0,0
320422,-500,4,2,1,30,0,0
320843,-333.333333333333,4,2,1,30,0,0
320896,-500,4,2,1,30,0,0
321001,-285.714285714286,4,2,1,30,0,0
321054,-333.333333333333,4,2,1,30,0,0
321106,-500,4,2,1,30,0,0
321369,-333.333333333333,4,2,1,30,0,0
321422,-500,4,2,1,30,0,0
321633,-400,4,2,1,30,0,0
321685,-500,4,2,1,30,0,0
322106,-333.333333333333,4,2,1,30,0,0
322159,-500,4,2,1,30,0,0
322317,-285.714285714286,4,2,1,30,0,0
322356,-666.666666666667,4,2,1,30,0,0
322396,-285.714285714286,4,2,1,30,0,0
322435,-666.666666666667,4,2,1,30,0,0
322475,-250,4,2,1,30,0,0
322501,-1000,4,2,1,30,0,0
322527,-250,4,2,1,30,0,0
322554,-1000,4,2,1,30,0,0
322580,-250,4,2,1,30,0,0
322606,-1000,4,2,1,30,0,0
322633,-333.333333333333,4,2,1,30,0,0
322685,-500,4,2,1,30,0,0
322738,-333.333333333333,4,2,1,30,0,0
322790,-500,4,2,1,30,0,0
322843,-333.333333333333,4,2,1,30,0,0
322896,-500,4,2,1,30,0,0
323370,-333.333333333333,4,2,1,30,0,0
323423,-500,4,2,1,30,0,0
323581,-333.333333333333,4,2,1,30,0,0
323633,-500,4,2,1,30,0,0
323896,-333.333333333333,4,2,1,30,0,0
323949,-500,4,2,1,30,0,0
324159,-400,4,2,1,30,0,0
324212,-500,4,2,1,30,0,0
324633,-333.333333333333,4,2,1,30,0,0
324686,-500,4,2,1,30,0,0
324791,-400,4,2,1,30,0,0
324844,-333.333333333333,4,2,1,30,0,0
324896,-500,4,2,1,30,0,0
325160,-333.333333333333,4,2,1,30,0,0
325212,-500,4,2,1,30,0,0
325422,-250,4,2,1,30,0,0
325475,-500,4,2,1,30,0,0
325896,-333.333333333333,4,2,1,30,0,0
325949,-500,4,2,1,30,0,0
326054,-250,4,2,1,30,0,0
326107,-333.333333333333,4,2,1,30,0,0
326160,-500,4,2,1,30,0,0
326423,-333.333333333333,4,2,1,30,0,0
326475,-500,4,2,1,30,0,0
326685,-250,4,2,1,30,0,0
326738,-500,4,2,1,30,0,0
327160,-333.333333333333,4,2,1,30,0,0
327212,-500,4,2,1,30,0,0
327317,-250,4,2,1,30,0,0
327370,-333.333333333333,4,2,1,30,0,0
327423,-500,4,2,1,30,0,0
327528,-333.333333333333,4,2,1,30,0,0
327581,-500,4,2,1,30,0,0
327686,-333.333333333333,4,2,1,30,0,0
327739,-500,4,2,1,30,0,0
327896,-333.333333333333,4,2,1,30,0,0
327949,-250,4,2,1,30,0,0
328001,-500,4,2,1,30,0,0
328423,-333.333333333333,4,2,1,30,0,0
328475,-500,4,2,1,30,0,0
328580,-250,4,2,1,30,0,0
328633,-333.333333333333,4,2,1,30,0,0
328686,-500,4,2,1,30,0,0
328949,-333.333333333333,4,2,1,30,0,0
329002,-500,4,2,1,30,0,0
329212,-250,4,2,1,30,0,0
329264,-500,4,2,1,30,0,0
329686,-333.333333333333,4,2,1,30,0,0
329739,-500,4,2,1,30,0,0
329843,-250,4,2,1,30,0,0
329896,-333.333333333333,4,2,1,30,0,0
329949,-500,4,2,1,30,0,0
330212,-333.333333333333,4,2,1,30,0,0
330265,-500,4,2,1,30,0,0
330475,-250,4,2,1,30,0,0
330528,-500,4,2,1,30,0,0
330949,-333.333333333333,4,2,1,30,0,0
331002,-500,4,2,1,30,0,0
331160,-333.333333333333,4,2,1,30,0,0
331212,-500,4,2,1,30,0,0
331475,-333.333333333333,4,2,1,30,0,0
331528,-500,4,2,1,30,0,0
332212,-333.333333333333,4,2,1,30,0,0
332265,-500,4,2,1,30,0,0
332423,-285.714285714286,4,2,1,30,0,0
332462,-666.666666666667,4,2,1,30,0,0
332502,-285.714285714286,4,2,1,30,0,0
332541,-666.666666666667,4,2,1,30,0,0
332581,-250,4,2,1,30,0,0
332607,-1000,4,2,1,30,0,0
332633,-250,4,2,1,30,0,0
332660,-1000,4,2,1,30,0,0
332686,-250,4,2,1,30,0,0
332712,-1000,4,2,1,30,0,0
332739,-333.333333333333,4,2,1,30,0,0
332791,-500,4,2,1,30,0,0
332844,-333.333333333333,4,2,1,30,0,0
332896,-500,4,2,1,30,0,0
332949,-333.333333333333,4,2,1,30,0,0
333002,-500,4,2,1,30,0,0
333475,-333.333333333333,4,2,1,30,0,0
333528,-500,4,2,1,30,0,0
333633,-400,4,2,1,30,0,0
333686,-333.333333333333,4,2,1,30,0,0
333738,-500,4,2,1,30,0,0
334001,-333.333333333333,4,2,1,30,0,0
334054,-500,4,2,1,30,0,0
334264,-250,4,2,1,30,0,0
334317,-500,4,2,1,30,0,0
334738,-333.333333333333,4,2,1,30,0,0
334791,-500,4,2,1,30,0,0
334896,-250,4,2,1,30,0,0
334949,-333.333333333333,4,2,1,30,0,0
335001,-500,4,2,1,30,0,0
335265,-333.333333333333,4,2,1,30,0,0
335317,-500,4,2,1,30,0,0
335528,-250,4,2,1,30,0,0
335580,-500,4,2,1,30,0,0
336001,-333.333333333333,4,2,1,30,0,0
336054,-500,4,2,1,30,0,0
336159,-250,4,2,1,30,0,0
336212,-333.333333333333,4,2,1,30,0,0
336265,-500,4,2,1,30,0,0
336528,-333.333333333333,4,2,1,30,0,0
336580,-500,4,2,1,30,0,0
336791,-250,4,2,1,30,0,0
336843,-500,4,2,1,30,0,0
337265,-333.333333333333,4,2,1,30,0,0
337317,-500,4,2,1,30,0,0
337422,-250,4,2,1,30,0,0
337475,-333.333333333333,4,2,1,30,0,0
337528,-500,4,2,1,30,0,0
337633,-333.333333333333,4,2,1,30,0,0
337686,-500,4,2,1,30,0,0
337791,-333.333333333333,4,2,1,30,0,0
337844,-500,4,2,1,30,0,0
338001,-333.333333333333,4,2,1,30,0,0
338054,-250,4,2,1,30,0,0
338106,-500,4,2,1,30,0,0
338528,-333.333333333333,4,2,1,30,0,0
338580,-500,4,2,1,30,0,0
338685,-250,4,2,1,30,0,0
338738,-333.333333333333,4,2,1,30,0,0
338791,-500,4,2,1,30,0,0
339054,-333.333333333333,4,2,1,30,0,0
339107,-500,4,2,1,30,0,0
339317,-250,4,2,1,30,0,0
339370,-500,4,2,1,30,0,0
339791,-333.333333333333,4,2,1,30,0,0
339844,-500,4,2,1,30,0,0
339949,-250,4,2,1,30,0,0
340001,-333.333333333333,4,2,1,30,0,0
340054,-500,4,2,1,30,0,0
340317,-333.333333333333,4,2,1,30,0,0
340370,-500,4,2,1,30,0,0
340580,-250,4,2,1,30,0,0
340633,-500,4,2,1,30,0,0
341054,-333.333333333333,4,2,1,30,0,0
341107,-500,4,2,1,30,0,0
341265,-333.333333333333,4,2,1,30,0,0
341317,-500,4,2,1,30,0,0
341580,-333.333333333333,4,2,1,30,0,0
341633,-500,4,2,1,30,0,0
342317,-333.333333333333,4,2,1,30,0,0
342370,-500,4,2,1,30,0,0
342528,-285.714285714286,4,2,1,30,0,0
342567,-666.666666666667,4,2,1,30,0,0
342607,-285.714285714286,4,2,1,30,0,0
342646,-666.666666666667,4,2,1,30,0,0
342686,-250,4,2,1,30,0,0
342712,-1000,4,2,1,30,0,0
342738,-250,4,2,1,30,0,0
342765,-1000,4,2,1,30,0,0
342791,-250,4,2,1,30,0,0
342817,-1000,4,2,1,30,0,0
342844,-333.333333333333,4,2,1,30,0,0
342896,-500,4,2,1,30,0,0
342949,-333.333333333333,4,2,1,30,0,0
343001,-500,4,2,1,30,0,0
343054,-333.333333333333,4,2,1,30,0,0
343107,-500,4,2,1,30,0,0
343580,-333.333333333333,4,2,1,30,0,0
343633,-500,4,2,1,30,0,0
343791,-333.333333333333,4,2,1,30,0,0
343843,-500,4,2,1,30,0,0
344106,-333.333333333333,4,2,1,30,0,0
344159,-500,4,2,1,30,0,0
344370,-344.827586206897,4,2,1,30,0,0
344422,-526.315789473684,4,2,1,30,0,0
344843,-344.827586206897,4,2,1,30,0,0
344896,-526.315789473684,4,2,1,30,0,0
345001,-312.5,4,2,1,30,0,0
345054,-370.37037037037,4,2,1,30,0,0
345106,-555.555555555556,4,2,1,30,0,0
345370,-370.37037037037,4,2,1,30,0,0
345422,-555.555555555556,4,2,1,30,0,0
345633,-294.117647058824,4,2,1,30,0,0
345685,-588.235294117647,4,2,1,30,0,0
346106,-384.615384615385,4,2,1,30,0,0
346159,-588.235294117647,4,2,1,30,0,0
346264,-312.5,4,2,1,30,0,0
346317,-416.666666666667,4,2,1,30,0,0
346370,-625,4,2,1,30,0,0
346633,-416.666666666667,4,2,1,30,0,0
346685,-625,4,2,1,30,0,0
346896,-333.333333333333,4,2,1,30,0,0
346949,-666.666666666667,4,2,1,30,0,0
347370,-434.782608695652,4,2,1,30,0,0
347422,-666.666666666667,4,2,1,30,0,0
347528,-357.142857142857,4,2,1,30,0,0
347580,-476.190476190476,4,2,1,30,0,0
347633,-714.285714285714,4,2,1,30,0,0
347738,-476.190476190476,4,2,1,30,0,0
347791,-714.285714285714,4,2,1,30,0,0
347896,-476.190476190476,4,2,1,30,0,0
347949,-714.285714285714,4,2,1,30,0,0
348106,-476.190476190476,4,2,1,30,0,0
348159,-384.615384615385,4,2,1,30,0,0
348212,-769.230769230769,4,2,1,30,0,0
348633,-500,4,2,1,30,0,0
348685,-769.230769230769,4,2,1,30,0,0
348791,-384.615384615385,4,2,1,30,0,0
348843,-500,4,2,1,30,0,0
348896,-746.268656716418,4,2,1,30,0,0
349001,-833.333333333333,4,2,1,30,0,0
349159,-555.555555555556,4,2,1,30,0,0
349212,-833.333333333333,4,2,1,30,0,0
349422,-416.666666666667,4,2,1,30,0,0
349475,-833.333333333333,4,2,1,30,0,0
349843,-909.090909090909,4,2,1,30,0,0
349896,-588.235294117647,4,2,1,30,0,0
349949,-909.090909090909,4,2,1,30,0,0
350054,-454.545454545455,4,2,1,30,0,0
350106,-588.235294117647,4,2,1,30,0,0
350159,-909.090909090909,4,2,1,30,0,0
350422,-588.235294117647,4,2,1,30,0,0
350475,-909.090909090909,4,2,1,30,0,0
350685,-500,4,2,1,30,0,0
350738,-1000,4,2,1,30,0,0
351317,-500,4,2,1,30,0,0
351370,-1000,4,2,1,30,0,0
351949,-555.555555555556,4,2,1,30,0,0
352001,-1000,4,2,1,30,0,0
352580,-666.666666666667,4,2,1,30,0,0
352633,-1000,4,2,1,30,0,0

[HitObjects]
475,192,3001,5,0,0:0:0:0:
475,192,3133,128,0,3343:0:0:0:0:
36,192,3343,1,0,0:0:0:0:
182,192,3449,1,0,0:0:0:0:
329,192,3554,1,0,0:0:0:0:
329,192,3751,1,0,0:0:0:0:
36,192,3843,1,0,0:0:0:65:kick1.wav
182,192,3843,1,0,0:0:0:0:
109,192,3949,128,0,4580:0:0:0:70:clap.wav
256,192,3949,128,0,4580:0:0:0:0:
402,192,3949,128,0,4580:0:0:0:0:
36,192,4580,1,0,0:0:0:80:kick1.wav
182,192,4580,1,0,0:0:0:50:jingle.wav
329,192,4580,1,0,0:0:0:0:
475,192,4580,1,0,0:0:0:0:
109,192,4685,1,0,0:0:0:50:jingle.wav
256,192,4685,1,0,0:0:0:0:
402,192,4738,1,0,0:0:0:50:jingle.wav
475,192,4738,1,0,0:0:0:0:
182,192,4791,1,0,0:0:0:50:jingle.wav
329,192,4791,1,0,0:0:0:0:
182,192,4896,1,0,0:0:0:50:jingle.wav
329,192,4896,1,0,0:0:0:0:
256,192,5001,1,0,0:0:0:50:jingle.wav
402,192,5001,1,0,0:0:0:0:
256,192,5106,1,0,0:0:0:50:jingle.wav
402,192,5106,1,0,0:0:0:0:
36,192,5212,1,0,0:0:0:50:jingle.wav
182,192,5212,1,0,0:0:0:0:
329,192,5264,1,0,0:0:0:0:
475,192,5317,1,0,0:0:0:0:
36,192,5422,1,0,0:0:0:50:jingle.wav
182,192,5422,1,0,0:0:0:0:
329,192,5475,1,0,0:0:0:0:
475,192,5528,1,0,0:0:0:0:
109,192,5633,1,0,0:0:0:50:jingle.wav
256,192,5633,1,0,0:0:0:0:
109,192,5738,1,0,0:0:0:50:jingle.wav
256,192,5738,1,0,0:0:0:0:
182,192,5843,1,0,0:0:0:50:jingle.wav
475,192,5843,1,0,0:0:0:0:
402,192,5896,1,0,0:0:0:0:
329,192,5949,1,0,0:0:0:0:
182,192,6054,1,0,0:0:0:50:jingle.wav
475,192,6054,1,0,0:0:0:0:
402,192,6106,1,0,0:0:0:0:
329,192,6159,1,0,0:0:0:0:
36,192,6264,1,0,0:0:0:80:kick1.wav
109,192,6264,1,0,0:0:0:50:jingle.wav
256,192,6264,1,0,0:0:0:0:
109,192,6370,1,0,0:0:0:50:jingle.wav
256,192,6370,1,0,0:0:0:0:
36,192,6475,1,0,0:0:0:70:clap.wav
182,192,6475,1,0,0:0:0:0:
329,192,6475,1,0,0:0:0:0:
475,192,6475,1,0,0:0:0:0:
36,192,7106,1,0,0:0:0:80:kick1.wav
109,192,7106,1,0,0:0:0:50:jingle.wav
182,192,7106,1,0,0:0:0:0:
329,192,7106,1,0,0:0:0:0:
402,192,7159,1,0,0:0:0:50:jingle.wav
475,192,7159,1,0,0:0:0:0:
36,192,7212,1,0,0:0:0:50:jingle.wav
109,192,7212,1,0,0:0:0:0:
182,192,7317,1,0,0:0:0:50:jingle.wav
329,192,7317,1,0,0:0:0:0:
182,192,7422,1,0,0:0:0:50:jingle.wav
329,192,7422,1,0,0:0:0:0:
256,192,7528,1,0,0:0:0:50:jingle.wav
402,192,7528,1,0,0:0:0:0:
256,192,7633,1,0,0:0:0:50:jingle.wav
402,192,7633,1,0,0:0:0:0:
36,192,7738,1,0,0:0:0:50:jingle.wav
475,192,7738,1,0,0:0:0:0:
329,192,7791,1,0,0:0:0:0:
182,192,7843,1,0,0:0:0:0:
36,192,7949,1,0,0:0:0:50:jingle.wav
475,192,7949,1,0,0:0:0:0:
329,192,8001,1,0,0:0:0:0:
182,192,8054,1,0,0:0:0:0:
109,192,8159,1,0,0:0:0:50:jingle.wav
256,192,8159,1,0,0:0:0:0:
109,192,8264,1,0,0:0:0:50:jingle.wav
256,192,8264,1,0,0:0:0:0:
182,192,8370,1,0,0:0:0:50:jingle.wav
475,192,8370,1,0,0:0:0:0:
182,192,8475,1,0,0:0:0:50:jingle.wav
329,192,8475,1,0,0:0:0:0:
402,192,8528,1,0,0:0:0:0:
475,192,8580,1,0,0:0:0:0:
182,192,8685,1,0,0:0:0:50:jingle.wav
329,192,8685,1,0,0:0:0:0:
402,192,8738,1,0,0:0:0:0:
475,192,8791,1,0,0:0:0:0:
36,192,8896,1,0,0:0:0:80:kick1.wav
182,192,8896,1,0,0:0:0:50:jingle.wav
329,192,8896,1,0,0:0:0:0:
36,192,9001,1,0,0:0:0:70:clap.wav
109,192,9001,1,0,0:0:0:0:
256,192,9001,128,0,9633:0:0:0:0:
475,192,9001,1,0,0:0:0:0:
36,192,9633,1,0,0:0:0:80:kick1.wav
182,192,9633,1,0,0:0:0:50:jingle.wav
329,192,9633,1,0,0:0:0:0:
475,192,9633,1,0,0:0:0:0:
109,192,9738,1,0,0:0:0:50:jingle.wav
402,192,9738,1,0,0:0:0:0:
182,192,9843,1,0,0:0:0:50:jingle.wav
329,192,9843,1,0,0:0:0:0:
402,192,9896,1,0,0:0:0:50:jingle.wav
475,192,9896,1,0,0:0:0:0:
182,192,9949,1,0,0:0:0:50:jingle.wav
329,192,9949,1,0,0:0:0:0:
109,192,10054,1,0,0:0:0:50:jingle.wav
256,192,10054,1,0,0:0:0:0:
109,192,10159,1,0,0:0:0:50:jingle.wav
256,192,10159,1,0,0:0:0:0:
36,192,10264,1,0,0:0:0:50:jingle.wav
182,192,10264,1,0,0:0:0:0:
329,192,10317,1,0,0:0:0:0:
475,192,10370,1,0,0:0:0:0:
36,192,10475,1,0,0:0:0:50:jingle.wav
182,192,10475,1,0,0:0:0:0:
329,192,10528,1,0,0:0:0:0:
475,192,10580,1,0,0:0:0:0:
109,192,10685,1,0,0:0:0:50:jingle.wav
256,192,10685,1,0,0:0:0:0:
109,192,10791,1,0,0:0:0:50:jingle.wav
256,192,10791,1,0,0:0:0:0:
182,192,10896,1,0,0:0:0:50:jingle.wav
475,192,10896,1,0,0:0:0:0:
182,192,11001,1,0,0:0:0:50:jingle.wav
475,192,11001,1,0,0:0:0:0:
256,192,11054,1,0,0:0:0:0:
329,192,11106,1,0,0:0:0:0:
182,192,11212,1,0,0:0:0:50:jingle.wav
475,192,11212,1,0,0:0:0:0:
36,192,11317,1,0,0:0:0:80:kick1.wav
109,192,11317,1,0,0:0:0:50:jingle.wav
402,192,11317,1,0,0:0:0:0:
109,192,11422,1,0,0:0:0:50:jingle.wav
402,192,11422,1,0,0:0:0:0:
36,192,11528,1,0,0:0:0:70:clap.wav
182,192,11528,1,0,0:0:0:0:
329,192,11528,1,0,0:0:0:0:
475,192,11528,1,0,0:0:0:0:
36,192,12159,1,0,0:0:0:80:kick1.wav
109,192,12159,1,0,0:0:0:50:jingle.wav
402,192,12159,1,0,0:0:0:0:
475,192,12159,1,0,0:0:0:0:
256,192,12212,1,0,0:0:0:50:jingle.wav
329,192,12212,1,0,0:0:0:0:
36,192,12264,1,0,0:0:0:50:jingle.wav
109,192,12264,1,0,0:0:0:0:
256,192,12317,1,0,0:0:0:50:jingle.wav
329,192,12317,1,0,0:0:0:0:
182,192,12370,1,0,0:0:0:50:jingle.wav
475,192,12370,1,0,0:0:0:0:
182,192,12475,1,0,0:0:0:50:jingle.wav
475,192,12475,1,0,0:0:0:0:
109,192,12580,1,0,0:0:0:50:jingle.wav
402,192,12580,1,0,0:0:0:0:
109,192,12685,1,0,0:0:0:50:jingle.wav
402,192,12685,1,0,0:0:0:0:
182,192,12738,1,0,0:0:0:0:
256,192,12791,1,0,0:0:0:0:
109,192,12896,1,0,0:0:0:50:jingle.wav
402,192,12896,1,0,0:0:0:0:
109,192,13001,1,0,0:0:0:50:jingle.wav
402,192,13001,1,0,0:0:0:0:
182,192,13054,1,0,0:0:0:0:
256,192,13106,1,0,0:0:0:0:
36,192,13212,1,0,0:0:0:50:jingle.wav
329,192,13212,1,0,0:0:0:0:
36,192,13317,1,0,0:0:0:50:jingle.wav
329,192,13317,1,0,0:0:0:0:
109,192,13422,1,0,0:0:0:50:jingle.wav
402,192,13422,1,0,0:0:0:0:
109,192,13528,1,0,0:0:0:50:jingle.wav
402,192,13528,1,0,0:0:0:0:
329,192,13580,1,0,0:0:0:0:
256,192,13633,1,0,0:0:0:0:
109,192,13738,1,0,0:0:0:50:jingle.wav
402,192,13738,1,0,0:0:0:0:
329,192,13791,1,0,0:0:0:0:
36,192,13843,1,0,0:0:0:50:kick1.wav
256,192,13843,1,0,0:0:0:0:
36,192,13949,1,0,0:0:0:60:kick1.wav
182,192,13949,1,0,0:0:0:50:jingle.wav
329,192,13949,1,0,0:0:0:0:
36,192,14054,1,0,0:0:0:70:kick1.wav
182,192,14054,1,0,0:0:0:50:jingle.wav
475,192,14054,1,0,0:0:0:30:clap.wav
475,192,14159,1,0,0:0:0:40:clap.wav
36,192,14238,1,0,0:0:0:80:kick1.wav
402,192,14264,1,0,0:0:0:50:clap.wav
182,192,14291,1,0,0:0:0:50:jingle.wav
36,192,14370,1,0,0:0:0:80:kick1.wav
402,192,14370,1,0,0:0:0:60:clap.wav
182,192,14422,1,0,0:0:0:50:jingle.wav
329,192,14475,1,0,0:0:0:70:clap.wav
475,192,14475,1,0,0:0:0:0:
329,192,14606,1,0,0:0:0:70:clap.wav
475,192,14606,1,0,0:0:0:0:
36,192,14685,1,0,0:0:0:80:kick1.wav
109,192,14685,1,0,0:0:0:50:jingle.wav
256,192,14685,1,0,0:0:0:0:
402,192,14685,1,0,0:0:0:0:
182,192,14791,1,0,0:0:0:50:jingle.wav
329,192,14791,1,0,0:0:0:0:
36,192,14843,1,0,0:0:0:50:jingle.wav
109,192,14843,1,0,0:0:0:0:
256,192,14896,1,0,0:0:0:50:jingle.wav
475,192,14896,1,0,0:0:0:0:
256,192,15001,1,0,0:0:0:50:jingle.wav
475,192,15001,1,0,0:0:0:0:
109,192,15106,1,0,0:0:0:50:jingle.wav
402,192,15106,1,0,0:0:0:0:
109,192,15212,1,0,0:0:0:50:jingle.wav
402,192,15212,1,0,0:0:0:0:
329,192,15317,1,0,0:0:0:50:jingle.wav
475,192,15317,1,0,0:0:0:0:
182,192,15370,1,0,0:0:0:0:
36,192,15422,1,0,0:0:0:0:
329,192,15528,1,0,0:0:0:50:jingle.wav
475,192,15528,1,0,0:0:0:0:
182,192,15580,1,0,0:0:0:0:
36,192,15633,1,0,0:0:0:0:
109,192,15738,1,0,0:0:0:50:jingle.wav
256,192,15738,1,0,0:0:0:0:
109,192,15843,1,0,0:0:0:50:jingle.wav
256,192,15843,1,0,0:0:0:0:
329,192,15949,1,0,0:0:0:50:jingle.wav
475,192,15949,1,0,0:0:0:0:
329,192,16133,1,0,0:0:0:50:jingle.wav
475,192,16133,1,0,0:0:0:0:
329,192,16317,1,0,0:0:0:50:jingle.wav
475,192,16317,1,0,0:0:0:0:
36,192,16370,1,0,0:0:0:75:kick1.wav
109,192,16370,1,0,0:0:0:0:
329,192,16449,1,0,0:0:0:50:jingle.wav
475,192,16449,1,0,0:0:0:0:
36,192,16580,1,0,0:0:0:70:clap.wav
182,192,16580,1,0,0:0:0:0:
256,192,16580,1,0,0:0:0:0:
475,192,16580,1,0,0:0:0:0:
182,192,17212,1,0,0:0:0:75:kick1.wav
329,192,17212,1,0,0:0:0:50:jingle.wav
402,192,17212,1,0,0:0:0:0:
475,192,17212,1,0,0:0:0:0:
36,192,17264,1,0,0:0:0:50:jingle.wav
109,192,17264,1,0,0:0:0:0:
402,192,17317,1,0,0:0:0:50:jingle.wav
475,192,17317,1,0,0:0:0:0:
182,192,17422,1,0,0:0:0:50:jingle.wav
329,192,17422,1,0,0:0:0:0:
182,192,17528,1,0,0:0:0:50:jingle.wav
329,192,17528,1,0,0:0:0:0:
256,192,17633,1,0,0:0:0:50:jingle.wav
402,192,17633,1,0,0:0:0:0:
256,192,17738,1,0,0:0:0:50:jingle.wav
402,192,17738,1,0,0:0:0:0:
36,192,17843,1,0,0:0:0:50:jingle.wav
475,192,17843,1,0,0:0:0:0:
182,192,17896,1,0,0:0:0:0:
329,192,17949,1,0,0:0:0:0:
36,192,18054,1,0,0:0:0:50:jingle.wav
475,192,18054,1,0,0:0:0:0:
182,192,18106,1,0,0:0:0:0:
329,192,18159,1,0,0:0:0:0:
109,192,18264,1,0,0:0:0:50:jingle.wav
256,192,18264,1,0,0:0:0:0:
109,192,18370,1,0,0:0:0:50:jingle.wav
256,192,18370,1,0,0:0:0:0:
182,192,18475,1,0,0:0:0:50:jingle.wav
329,192,18475,1,0,0:0:0:0:
182,192,18606,1,0,0:0:0:50:jingle.wav
329,192,18606,1,0,0:0:0:0:
182,192,18791,1,0,0:0:0:50:jingle.wav
329,192,18791,1,0,0:0:0:0:
182,192,18975,1,0,0:0:0:50:jingle.wav
329,192,18975,1,0,0:0:0:0:
36,192,19001,1,0,0:0:0:75:kick1.wav
109,192,19001,1,0,0:0:0:0:
36,192,19106,1,0,0:0:0:70:clap.wav
256,192,19106,128,0,19738:0:0:0:0:
402,192,19106,1,0,0:0:0:0:
475,192,19106,1,0,0:0:0:0:
36,192,19738,1,0,0:0:0:75:kick1.wav
182,192,19738,1,0,0:0:0:50:jingle.wav
329,192,19738,1,0,0:0:0:0:
475,192,19738,1,0,0:0:0:0:
109,192,19843,1,0,0:0:0:50:jingle.wav
402,192,19843,1,0,0:0:0:0:
182,192,19949,1,0,0:0:0:50:jingle.wav
329,192,19949,1,0,0:0:0:0:
36,192,20001,1,0,0:0:0:50:jingle.wav
109,192,20001,1,0,0:0:0:0:
182,192,20054,1,0,0:0:0:50:jingle.wav
329,192,20054,1,0,0:0:0:0:
256,192,20159,1,0,0:0:0:50:jingle.wav
402,192,20159,1,0,0:0:0:0:
256,192,20264,1,0,0:0:0:50:jingle.wav
402,192,20264,1,0,0:0:0:0:
36,192,20370,1,0,0:0:0:50:jingle.wav
475,192,20370,1,0,0:0:0:0:
329,192,20422,1,0,0:0:0:0:
182,192,20475,1,0,0:0:0:0:
36,192,20580,1,0,0:0:0:50:jingle.wav
475,192,20580,1,0,0:0:0:0:
329,192,20633,1,0,0:0:0:0:
182,192,20685,1,0,0:0:0:0:
256,192,20791,1,0,0:0:0:50:jingle.wav
402,192,20791,1,0,0:0:0:0:
256,192,20896,1,0,0:0:0:50:jingle.wav
402,192,20896,1,0,0:0:0:0:
36,192,21001,1,0,0:0:0:50:jingle.wav
182,192,21001,1,0,0:0:0:0:
36,192,21133,1,0,0:0:0:50:jingle.wav
182,192,21133,1,0,0:0:0:0:
36,192,21238,1,0,0:0:0:50:jingle.wav
182,192,21238,1,0,0:0:0:0:
36,192,21370,1,0,0:0:0:50:jingle.wav
182,192,21370,1,0,0:0:0:0:
329,192,21422,1,0,0:0:0:75:kick1.wav
475,192,21422,1,0,0:0:0:0:
36,192,21501,1,0,0:0:0:50:jingle.wav
182,192,21501,1,0,0:0:0:0:
36,192,21633,1,0,0:0:0:70:clap.wav
256,192,21633,1,0,0:0:0:0:
329,192,21633,1,0,0:0:0:0:
475,192,21633,1,0,0:0:0:0:
36,192,22264,1,0,0:0:0:75:kick1.wav
109,192,22264,1,0,0:0:0:50:jingle.wav
402,192,22264,1,0,0:0:0:0:
475,192,22264,1,0,0:0:0:0:
182,192,22317,1,0,0:0:0:50:jingle.wav
256,192,22317,1,0,0:0:0:0:
402,192,22370,1,0,0:0:0:50:jingle.wav
475,192,22370,1,0,0:0:0:0:
182,192,22422,1,0,0:0:0:50:jingle.wav
256,192,22422,1,0,0:0:0:0:
36,192,22475,1,0,0:0:0:50:jingle.wav
329,192,22475,1,0,0:0:0:0:
36,192,22580,1,0,0:0:0:50:jingle.wav
329,192,22580,1,0,0:0:0:0:
109,192,22685,1,0,0:0:0:50:jingle.wav
402,192,22685,1,0,0:0:0:0:
109,192,22791,1,0,0:0:0:50:jingle.wav
402,192,22791,1,0,0:0:0:0:
182,192,22843,1,0,0:0:0:0:
256,192,22896,1,0,0:0:0:0:
109,192,23001,1,0,0:0:0:50:jingle.wav
402,192,23001,1,0,0:0:0:0:
109,192,23106,1,0,0:0:0:50:jingle.wav
402,192,23106,1,0,0:0:0:0:
182,192,23159,1,0,0:0:0:0:
256,192,23212,1,0,0:0:0:0:
36,192,23317,1,0,0:0:0:50:jingle.wav
475,192,23317,1,0,0:0:0:0:
36,192,23422,1,0,0:0:0:50:jingle.wav
475,192,23422,1,0,0:0:0:0:
182,192,23528,1,0,0:0:0:50:jingle.wav
329,192,23528,1,0,0:0:0:0:
182,192,23685,1,0,0:0:0:50:jingle.wav
329,192,23685,1,0,0:0:0:0:
182,192,23843,1,0,0:0:0:50:jingle.wav
329,192,23843,1,0,0:0:0:0:
36,192,23949,1,0,0:0:0:45:kick1.wav
182,192,24001,1,0,0:0:0:50:jingle.wav
329,192,24001,1,0,0:0:0:0:
36,192,24054,1,0,0:0:0:55:kick1.wav
36,192,24159,1,0,0:0:0:65:kick1.wav
182,192,24159,1,0,0:0:0:50:jingle.wav
329,192,24159,1,0,0:0:0:30:clap.wav
329,192,24264,1,0,0:0:0:40:clap.wav
36,192,24343,1,0,0:0:0:75:kick1.wav
402,192,24370,1,0,0:0:0:50:clap.wav
182,192,24396,1,0,0:0:0:50:jingle.wav
36,192,24475,1,0,0:0:0:75:kick1.wav
402,192,24475,1,0,0:0:0:60:clap.wav
182,192,24528,1,0,0:0:0:50:jingle.wav
329,192,24580,1,0,0:0:0:70:clap.wav
475,192,24580,1,0,0:0:0:0:
329,192,24712,1,0,0:0:0:70:clap.wav
475,192,24712,1,0,0:0:0:0:
36,192,24791,1,0,0:0:0:80:kick1.wav
182,192,24791,1,0,0:0:0:50:jingle.wav
256,192,24791,1,0,0:0:0:0:
402,192,24791,1,0,0:0:0:0:
109,192,24843,1,0,0:0:0:0:
182,192,24896,1,0,0:0:0:50:jingle.wav
475,192,24896,1,0,0:0:0:0:
256,192,24949,1,0,0:0:0:50:jingle.wav
402,192,24949,1,0,0:0:0:0:
36,192,25001,1,0,0:0:0:50:jingle.wav
329,192,25001,1,0,0:0:0:0:
109,192,25054,1,0,0:0:0:0:
182,192,25106,1,0,0:0:0:50:jingle.wav
475,192,25106,1,0,0:0:0:0:
256,192,25159,1,0,0:0:0:0:
36,192,25212,1,0,0:0:0:50:jingle.wav
329,192,25212,1,0,0:0:0:0:
109,192,25264,1,0,0:0:0:0:
182,192,25317,1,0,0:0:0:50:jingle.wav
402,192,25317,1,0,0:0:0:0:
256,192,25370,1,0,0:0:0:0:
36,192,25422,1,0,0:0:0:50:jingle.wav
475,192,25422,1,0,0:0:0:0:
109,192,25475,1,0,0:0:0:0:
182,192,25528,1,0,0:0:0:0:
256,192,25580,1,0,0:0:0:0:
36,192,25633,1,0,0:0:0:80:kick1.wav
329,192,25633,1,0,0:0:0:50:jingle.wav
475,192,25633,1,0,0:0:0:0:
109,192,25685,1,0,0:0:0:0:
182,192,25738,1,0,0:0:0:0:
256,192,25791,1,0,0:0:0:0:
36,192,25843,1,0,0:0:0:50:jingle.wav
402,192,25843,1,0,0:0:0:0:
109,192,25896,1,0,0:0:0:0:
182,192,25949,1,0,0:0:0:50:jingle.wav
402,192,25949,1,0,0:0:0:0:
256,192,26001,1,0,0:0:0:0:
36,192,26054,1,0,0:0:0:50:jingle.wav
475,192,26054,1,0,0:0:0:0:
109,192,26106,1,0,0:0:0:0:
182,192,26159,1,0,0:0:0:0:
256,192,26212,1,0,0:0:0:0:
36,192,26264,1,0,0:0:0:50:jingle.wav
475,192,26264,1,0,0:0:0:0:
109,192,26317,1,0,0:0:0:0:
182,192,26370,1,0,0:0:0:0:
256,192,26422,1,0,0:0:0:0:
36,192,26475,1,0,0:0:0:80:kick1.wav
329,192,26475,1,0,0:0:0:50:jingle.wav
402,192,26475,1,0,0:0:0:0:
109,192,26528,1,0,0:0:0:0:
182,192,26580,1,0,0:0:0:50:jingle.wav
402,192,26580,1,0,0:0:0:0:
256,192,26633,1,0,0:0:0:0:
36,192,26685,1,0,0:0:0:70:clap.wav
109,192,26685,1,0,0:0:0:0:
329,192,26685,1,0,0:0:0:0:
475,192,26685,1,0,0:0:0:0:
182,192,27317,1,0,0:0:0:80:kick1.wav
329,192,27317,1,0,0:0:0:50:jingle.wav
402,192,27317,1,0,0:0:0:0:
475,192,27317,1,0,0:0:0:0:
109,192,27370,1,0,0:0:0:50:jingle.wav
256,192,27370,1,0,0:0:0:0:
36,192,27422,1,0,0:0:0:50:jingle.wav
329,192,27422,1,0,0:0:0:0:
402,192,27475,1,0,0:0:0:0:
182,192,27528,1,0,0:0:0:50:jingle.wav
475,192,27528,1,0,0:0:0:0:
256,192,27580,1,0,0:0:0:0:
109,192,27633,1,0,0:0:0:50:jingle.wav
329,192,27633,1,0,0:0:0:0:
402,192,27685,1,0,0:0:0:0:
36,192,27738,1,0,0:0:0:50:jingle.wav
182,192,27738,1,0,0:0:0:0:
256,192,27791,1,0,0:0:0:0:
109,192,27843,1,0,0:0:0:50:jingle.wav
329,192,27843,1,0,0:0:0:0:
402,192,27896,1,0,0:0:0:0:
182,192,27949,1,0,0:0:0:50:jingle.wav
475,192,27949,1,0,0:0:0:0:
256,192,28001,1,0,0:0:0:0:
329,192,28054,1,0,0:0:0:0:
402,192,28106,1,0,0:0:0:0:
36,192,28159,1,0,0:0:0:80:kick1.wav
182,192,28159,1,0,0:0:0:50:jingle.wav
475,192,28159,1,0,0:0:0:0:
256,192,28212,1,0,0:0:0:0:
329,192,28264,1,0,0:0:0:0:
402,192,28317,1,0,0:0:0:0:
36,192,28370,1,0,0:0:0:50:jingle.wav
182,192,28370,1,0,0:0:0:0:
256,192,28422,1,0,0:0:0:0:
109,192,28475,1,0,0:0:0:50:jingle.wav
329,192,28475,1,0,0:0:0:0:
402,192,28528,1,0,0:0:0:0:
182,192,28580,1,0,0:0:0:50:jingle.wav
475,192,28580,1,0,0:0:0:0:
256,192,28633,1,0,0:0:0:0:
109,192,28685,1,0,0:0:0:50:jingle.wav
329,192,28685,1,0,0:0:0:0:
402,192,28738,1,0,0:0:0:0:
182,192,28791,1,0,0:0:0:0:
256,192,28843,1,0,0:0:0:0:
109,192,28896,1,0,0:0:0:50:jingle.wav
329,192,28896,1,0,0:0:0:0:
402,192,28949,1,0,0:0:0:0:
182,192,29001,1,0,0:0:0:0:
256,192,29054,1,0,0:0:0:0:
36,192,29106,1,0,0:0:0:80:kick1.wav
109,192,29106,1,0,0:0:0:50:jingle.wav
329,192,29106,1,0,0:0:0:0:
402,192,29159,1,0,0:0:0:0:
36,192,29212,1,0,0:0:0:70:clap.wav
182,192,29212,1,0,0:0:0:0:
256,192,29212,1,0,0:0:0:0:
475,192,29212,1,0,0:0:0:0:
182,192,29343,1,0,0:0:0:0:
329,192,29343,1,0,0:0:0:55:clap.wav
36,192,29396,1,0,0:0:0:70:clap.wav
256,192,29396,128,0,29843:0:0:0:0:
402,192,29396,1,0,0:0:0:0:
475,192,29396,1,0,0:0:0:0:
36,192,29843,1,0,0:0:0:80:kick1.wav
109,192,29843,1,0,0:0:0:50:jingle.wav
329,192,29843,1,0,0:0:0:0:
402,192,29843,1,0,0:0:0:0:
182,192,29896,1,0,0:0:0:0:
256,192,29949,1,0,0:0:0:50:jingle.wav
475,192,29949,1,0,0:0:0:0:
329,192,30001,1,0,0:0:0:0:
109,192,30054,1,0,0:0:0:50:jingle.wav
402,192,30054,1,0,0:0:0:0:
182,192,30106,1,0,0:0:0:50:jingle.wav
475,192,30106,1,0,0:0:0:0:
36,192,30159,1,0,0:0:0:50:jingle.wav
256,192,30159,1,0,0:0:0:0:
329,192,30212,1,0,0:0:0:0:
109,192,30264,1,0,0:0:0:50:jingle.wav
475,192,30264,1,0,0:0:0:0:
182,192,30317,1,0,0:0:0:0:
36,192,30370,1,0,0:0:0:50:jingle.wav
256,192,30370,1,0,0:0:0:0:
329,192,30422,1,0,0:0:0:0:
109,192,30475,1,0,0:0:0:50:jingle.wav
475,192,30475,1,0,0:0:0:0:
182,192,30528,1,0,0:0:0:0:
256,192,30580,1,0,0:0:0:0:
329,192,30633,1,0,0:0:0:0:
109,192,30685,1,0,0:0:0:80:kick1.wav
402,192,30685,1,0,0:0:0:50:jingle.wav
475,192,30685,1,0,0:0:0:0:
182,192,30738,1,0,0:0:0:0:
256,192,30791,1,0,0:0:0:0:
329,192,30843,1,0,0:0:0:0:
109,192,30896,1,0,0:0:0:50:jingle.wav
475,192,30896,1,0,0:0:0:0:
182,192,30949,1,0,0:0:0:0:
36,192,31001,1,0,0:0:0:50:jingle.wav
256,192,31001,1,0,0:0:0:0:
329,192,31054,1,0,0:0:0:0:
109,192,31106,1,0,0:0:0:50:jingle.wav
475,192,31106,1,0,0:0:0:0:
182,192,31159,1,0,0:0:0:0:
256,192,31212,1,0,0:0:0:50:jingle.wav
475,192,31212,1,0,0:0:0:0:
329,192,31264,1,0,0:0:0:0:
109,192,31317,1,0,0:0:0:0:
182,192,31370,1,0,0:0:0:0:
256,192,31422,1,0,0:0:0:50:jingle.wav
475,192,31422,1,0,0:0:0:0:
329,192,31475,1,0,0:0:0:0:
36,192,31528,1,0,0:0:0:80:kick1.wav
109,192,31528,1,0,0:0:0:50:jingle.wav
402,192,31528,1,0,0:0:0:0:
182,192,31580,1,0,0:0:0:0:
256,192,31633,1,0,0:0:0:50:jingle.wav
475,192,31633,1,0,0:0:0:0:
329,192,31685,1,0,0:0:0:0:
36,192,31738,1,0,0:0:0:70:clap.wav
109,192,31738,1,0,0:0:0:0:
182,192,31738,1,0,0:0:0:0:
402,192,31738,1,0,0:0:0:0:
109,192,32370,1,0,0:0:0:80:kick1.wav
182,192,32370,1,0,0:0:0:50:jingle.wav
256,192,32370,1,0,0:0:0:0:
475,192,32370,1,0,0:0:0:0:
36,192,32422,1,0,0:0:0:50:jingle.wav
329,192,32422,1,0,0:0:0:0:
109,192,32475,1,0,0:0:0:50:jingle.wav
402,192,32475,1,0,0:0:0:0:
182,192,32528,1,0,0:0:0:50:jingle.wav
475,192,32528,1,0,0:0:0:0:
36,192,32580,1,0,0:0:0:50:jingle.wav
256,192,32580,1,0,0:0:0:0:
329,192,32633,1,0,0:0:0:0:
182,192,32685,1,0,0:0:0:50:jingle.wav
402,192,32685,1,0,0:0:0:0:
475,192,32738,1,0,0:0:0:0:
109,192,32791,1,0,0:0:0:50:jingle.wav
256,192,32791,1,0,0:0:0:0:
329,192,32843,1,0,0:0:0:0:
182,192,32896,1,0,0:0:0:50:jingle.wav
402,192,32896,1,0,0:0:0:0:
475,192,32949,1,0,0:0:0:0:
256,192,33001,1,0,0:0:0:0:
329,192,33054,1,0,0:0:0:0:
36,192,33106,1,0,0:0:0:50:jingle.wav
402,192,33106,1,0,0:0:0:0:
475,192,33159,1,0,0:0:0:0:
109,192,33212,1,0,0:0:0:80:kick1.wav
182,192,33212,1,0,0:0:0:50:jingle.wav
256,192,33212,1,0,0:0:0:0:
329,192,33264,1,0,0:0:0:0:
402,192,33317,1,0,0:0:0:0:
475,192,33370,1,0,0:0:0:0:
109,192,33422,1,0,0:0:0:50:jingle.wav
256,192,33422,1,0,0:0:0:0:
329,192,33475,1,0,0:0:0:0:
182,192,33528,1,0,0:0:0:50:jingle.wav
402,192,33528,1,0,0:0:0:0:
475,192,33580,1,0,0:0:0:0:
36,192,33633,1,0,0:0:0:50:jingle.wav
256,192,33633,1,0,0:0:0:0:
329,192,33685,1,0,0:0:0:0:
36,192,33738,1,0,0:0:0:50:jingle.wav
402,192,33738,1,0,0:0:0:0:
475,192,33791,1,0,0:0:0:0:
256,192,33843,1,0,0:0:0:0:
329,192,33896,1,0,0:0:0:0:
36,192,33949,1,0,0:0:0:50:jingle.wav
402,192,33949,1,0,0:0:0:0:
475,192,34001,1,0,0:0:0:0:
109,192,34054,1,0,0:0:0:50:kick1.wav
256,192,34054,1,0,0:0:0:0:
329,192,34106,1,0,0:0:0:0:
36,192,34159,1,0,0:0:0:60:kick1.wav
182,192,34159,1,0,0:0:0:50:jingle.wav
402,192,34159,1,0,0:0:0:0:
475,192,34212,1,0,0:0:0:0:
36,192,34264,1,0,0:0:0:70:kick1.wav
109,192,34264,1,0,0:0:0:50:jingle.wav
256,192,34264,1,0,0:0:0:30:clap.wav
329,192,34317,1,0,0:0:0:0:
182,192,34370,1,0,0:0:0:40:clap.wav
402,192,34370,1,0,0:0:0:0:
256,192,34422,1,0,0:0:0:0:
36,192,34449,1,0,0:0:0:80:kick1.wav
109,192,34449,1,0,0:0:0:0:
329,192,34475,1,0,0:0:0:50:clap.wav
475,192,34475,1,0,0:0:0:0:
182,192,34528,1,0,0:0:0:0:
36,192,34580,1,0,0:0:0:80:kick1.wav
109,192,34580,1,0,0:0:0:60:clap.wav
329,192,34580,1,0,0:0:0:0:
475,192,34580,1,0,0:0:0:0:
256,192,34633,1,0,0:0:0:50:jingle.wav
36,192,34685,1,0,0:0:0:70:clap.wav
402,192,34685,1,0,0:0:0:0:
475,192,34685,1,0,0:0:0:0:
109,192,34738,1,0,0:0:0:0:
182,192,34791,1,0,0:0:0:0:
402,192,34817,1,0,0:0:0:70:clap.wav
475,192,34817,1,0,0:0:0:0:
256,192,34843,1,0,0:0:0:0:
36,192,34896,1,0,0:0:0:80:kick1.wav
109,192,34896,1,0,0:0:0:50:jingle.wav
182,192,34896,1,0,0:0:0:0:
329,192,34896,1,0,0:0:0:0:
475,192,34949,1,0,0:0:0:0:
109,192,35001,1,0,0:0:0:50:jingle.wav
402,192,35001,1,0,0:0:0:0:
36,192,35054,1,0,0:0:0:50:jingle.wav
329,192,35054,1,0,0:0:0:0:
256,192,35106,1,0,0:0:0:50:jingle.wav
475,192,35106,1,0,0:0:0:0:
182,192,35159,1,0,0:0:0:0:
109,192,35212,1,0,0:0:0:50:jingle.wav
329,192,35212,1,0,0:0:0:0:
36,192,35264,1,0,0:0:0:0:
256,192,35317,1,0,0:0:0:50:jingle.wav
402,192,35317,1,0,0:0:0:0:
182,192,35370,1,0,0:0:0:0:
109,192,35422,1,0,0:0:0:50:jingle.wav
329,192,35422,1,0,0:0:0:0:
36,192,35475,1,0,0:0:0:0:
256,192,35528,1,0,0:0:0:50:jingle.wav
475,192,35528,1,0,0:0:0:0:
182,192,35580,1,0,0:0:0:0:
109,192,35633,1,0,0:0:0:0:
36,192,35685,1,0,0:0:0:0:
256,192,35738,1,0,0:0:0:80:kick1.wav
402,192,35738,1,0,0:0:0:50:jingle.wav
475,192,35738,1,0,0:0:0:0:
182,192,35791,1,0,0:0:0:0:
109,192,35843,1,0,0:0:0:0:
36,192,35896,1,0,0:0:0:0:
256,192,35949,1,0,0:0:0:50:jingle.wav
329,192,35949,1,0,0:0:0:0:
182,192,36001,1,0,0:0:0:0:
109,192,36054,1,0,0:0:0:50:jingle.wav
402,192,36054,1,0,0:0:0:0:
36,192,36106,1,0,0:0:0:0:
256,192,36159,1,0,0:0:0:50:jingle.wav
475,192,36159,1,0,0:0:0:0:
182,192,36212,1,0,0:0:0:0:
109,192,36264,1,0,0:0:0:0:
36,192,36317,1,0,0:0:0:0:
475,192,36343,1,0,0:0:0:50:jingle.wav
256,192,36370,1,0,0:0:0:0:
182,192,36422,1,0,0:0:0:0:
109,192,36475,1,0,0:0:0:0:
36,192,36528,1,0,0:0:0:50:jingle.wav
475,192,36528,1,0,0:0:0:0:
256,192,36580,1,0,0:0:0:80:kick1.wav
329,192,36580,1,0,0:0:0:0:
182,192,36633,1,0,0:0:0:0:
475,192,36659,1,0,0:0:0:50:jingle.wav
109,192,36685,1,0,0:0:0:0:
36,192,36738,1,0,0:0:0:0:
182,192,36791,1,0,0:0:0:70:clap.wav
256,192,36791,1,0,0:0:0:0:
329,192,36791,1,0,0:0:0:0:
402,192,36791,1,0,0:0:0:0:
36,192,37422,1,0,0:0:0:80:kick1.wav
109,192,37422,1,0,0:0:0:50:jingle.wav
402,192,37422,1,0,0:0:0:0:
475,192,37422,1,0,0:0:0:0:
182,192,37475,1,0,0:0:0:50:jingle.wav
329,192,37475,1,0,0:0:0:0:
36,192,37528,1,0,0:0:0:50:jingle.wav
256,192,37528,1,0,0:0:0:0:
182,192,37580,1,0,0:0:0:0:
402,192,37633,1,0,0:0:0:50:jingle.wav
475,192,37633,1,0,0:0:0:0:
329,192,37685,1,0,0:0:0:0:
36,192,37738,1,0,0:0:0:50:jingle.wav
256,192,37738,1,0,0:0:0:0:
182,192,37791,1,0,0:0:0:0:
109,192,37843,1,0,0:0:0:50:jingle.wav
402,192,37843,1,0,0:0:0:0:
329,192,37896,1,0,0:0:0:0:
256,192,37949,1,0,0:0:0:50:jingle.wav
475,192,37949,1,0,0:0:0:0:
182,192,38001,1,0,0:0:0:0:
109,192,38054,1,0,0:0:0:50:jingle.wav
402,192,38054,1,0,0:0:0:0:
329,192,38106,1,0,0:0:0:0:
256,192,38159,1,0,0:0:0:0:
182,192,38212,1,0,0:0:0:0:
109,192,38264,1,0,0:0:0:80:kick1.wav
402,192,38264,1,0,0:0:0:50:jingle.wav
475,192,38264,1,0,0:0:0:0:
329,192,38317,1,0,0:0:0:0:
256,192,38370,1,0,0:0:0:0:
182,192,38422,1,0,0:0:0:0:
109,192,38475,1,0,0:0:0:50:jingle.wav
402,192,38475,1,0,0:0:0:0:
329,192,38528,1,0,0:0:0:0:
256,192,38580,1,0,0:0:0:50:jingle.wav
475,192,38580,1,0,0:0:0:0:
182,192,38633,1,0,0:0:0:0:
36,192,38685,1,0,0:0:0:50:jingle.wav
402,192,38685,1,0,0:0:0:0:
329,192,38738,1,0,0:0:0:0:
256,192,38791,1,0,0:0:0:0:
36,192,38817,1,0,0:0:0:50:jingle.wav
182,192,38843,1,0,0:0:0:0:
402,192,38896,1,0,0:0:0:0:
329,192,38949,1,0,0:0:0:0:
36,192,39001,1,0,0:0:0:50:jingle.wav
256,192,39001,1,0,0:0:0:0:
182,192,39054,1,0,0:0:0:0:
402,192,39106,1,0,0:0:0:0:
329,192,39159,1,0,0:0:0:0:
36,192,39185,1,0,0:0:0:50:jingle.wav
256,192,39212,1,0,0:0:0:80:kick1.wav
475,192,39212,1,0,0:0:0:0:
182,192,39264,1,0,0:0:0:0:
36,192,39317,1,0,0:0:0:70:clap.wav
109,192,39317,128,0,39949:0:0:0:0:
329,192,39317,1,0,0:0:0:0:
475,192,39317,1,0,0:0:0:0:
36,192,39949,1,0,0:0:0:80:kick1.wav
329,192,39949,1,0,0:0:0:50:jingle.wav
402,192,39949,1,0,0:0:0:0:
475,192,39949,1,0,0:0:0:0:
256,192,40001,1,0,0:0:0:0:
182,192,40054,1,0,0:0:0:50:jingle.wav
475,192,40054,1,0,0:0:0:0:
109,192,40106,1,0,0:0:0:0:
36,192,40159,1,0,0:0:0:50:jingle.wav
329,192,40159,1,0,0:0:0:0:
256,192,40212,1,0,0:0:0:50:jingle.wav
402,192,40212,1,0,0:0:0:0:
182,192,40264,1,0,0:0:0:50:jingle.wav
475,192,40264,1,0,0:0:0:0:
109,192,40317,1,0,0:0:0:0:
36,192,40370,1,0,0:0:0:50:jingle.wav
329,192,40370,1,0,0:0:0:0:
256,192,40422,1,0,0:0:0:0:
182,192,40475,1,0,0:0:0:50:jingle.wav
475,192,40475,1,0,0:0:0:0:
109,192,40528,1,0,0:0:0:0:
329,192,40580,1,0,0:0:0:50:jingle.wav
402,192,40580,1,0,0:0:0:0:
256,192,40633,1,0,0:0:0:0:
182,192,40685,1,0,0:0:0:0:
109,192,40738,1,0,0:0:0:0:
36,192,40791,1,0,0:0:0:80:kick1.wav
329,192,40791,1,0,0:0:0:50:jingle.wav
402,192,40791,1,0,0:0:0:0:
256,192,40843,1,0,0:0:0:0:
182,192,40896,1,0,0:0:0:0:
109,192,40949,1,0,0:0:0:0:
329,192,41001,1,0,0:0:0:50:jingle.wav
475,192,41001,1,0,0:0:0:0:
256,192,41054,1,0,0:0:0:0:
182,192,41106,1,0,0:0:0:50:jingle.wav
402,192,41106,1,0,0:0:0:0:
109,192,41159,1,0,0:0:0:0:
329,192,41212,1,0,0:0:0:50:jingle.wav
475,192,41212,1,0,0:0:0:0:
256,192,41264,1,0,0:0:0:0:
182,192,41317,1,0,0:0:0:0:
475,192,41343,1,0,0:0:0:50:jingle.wav
109,192,41370,1,0,0:0:0:0:
329,192,41422,1,0,0:0:0:0:
36,192,41449,1,0,0:0:0:50:jingle.wav
256,192,41475,1,0,0:0:0:0:
182,192,41528,1,0,0:0:0:0:
109,192,41580,1,0,0:0:0:50:jingle.wav
475,192,41580,1,0,0:0:0:0:
36,192,41633,1,0,0:0:0:80:kick1.wav
329,192,41633,1,0,0:0:0:0:
256,192,41685,1,0,0:0:0:0:
475,192,41712,1,0,0:0:0:50:jingle.wav
182,192,41738,1,0,0:0:0:0:
109,192,41791,1,0,0:0:0:0:
36,192,41843,1,0,0:0:0:70:clap.wav
256,192,41843,1,0,0:0:0:0:
329,192,41843,1,0,0:0:0:0:
402,192,41843,1,0,0:0:0:0:
36,192,42475,1,0,0:0:0:80:kick1.wav
109,192,42475,1,0,0:0:0:50:jingle.wav
256,192,42475,1,0,0:0:0:0:
475,192,42475,1,0,0:0:0:0:
182,192,42528,1,0,0:0:0:50:jingle.wav
402,192,42528,1,0,0:0:0:0:
109,192,42580,1,0,0:0:0:50:jingle.wav
329,192,42580,1,0,0:0:0:0:
36,192,42633,1,0,0:0:0:50:jingle.wav
256,192,42633,1,0,0:0:0:0:
182,192,42685,1,0,0:0:0:50:jingle.wav
475,192,42685,1,0,0:0:0:0:
402,192,42738,1,0,0:0:0:0:
109,192,42791,1,0,0:0:0:50:jingle.wav
329,192,42791,1,0,0:0:0:0:
256,192,42843,1,0,0:0:0:0:
182,192,42896,1,0,0:0:0:50:jingle.wav
475,192,42896,1,0,0:0:0:0:
402,192,42949,1,0,0:0:0:0:
109,192,43001,1,0,0:0:0:50:jingle.wav
329,192,43001,1,0,0:0:0:0:
256,192,43054,1,0,0:0:0:0:
475,192,43106,1,0,0:0:0:0:
402,192,43159,1,0,0:0:0:0:
182,192,43212,1,0,0:0:0:50:jingle.wav
329,192,43212,1,0,0:0:0:0:
256,192,43264,1,0,0:0:0:0:
36,192,43317,1,0,0:0:0:80:kick1.wav
109,192,43317,1,0,0:0:0:50:jingle.wav
475,192,43317,1,0,0:0:0:0:
402,192,43370,1,0,0:0:0:0:
329,192,43422,1,0,0:0:0:0:
256,192,43475,1,0,0:0:0:0:
182,192,43528,1,0,0:0:0:50:jingle.wav
475,192,43528,1,0,0:0:0:0:
402,192,43580,1,0,0:0:0:0:
109,192,43633,1,0,0:0:0:50:jingle.wav
329,192,43633,1,0,0:0:0:0:
256,192,43685,1,0,0:0:0:0:
36,192,43738,1,0,0:0:0:50:jingle.wav
475,192,43738,1,0,0:0:0:0:
402,192,43791,1,0,0:0:0:0:
329,192,43843,1,0,0:0:0:0:
36,192,43896,1,0,0:0:0:50:jingle.wav
256,192,43896,1,0,0:0:0:0:
475,192,43949,1,0,0:0:0:0:
402,192,44001,1,0,0:0:0:0:
36,192,44054,1,0,0:0:0:50:jingle.wav
329,192,44054,1,0,0:0:0:0:
256,192,44106,1,0,0:0:0:0:
109,192,44159,1,0,0:0:0:50:kick1.wav
475,192,44159,1,0,0:0:0:0:
36,192,44212,1,0,0:0:0:50:jingle.wav
402,192,44212,1,0,0:0:0:0:
182,192,44264,1,0,0:0:0:60:kick1.wav
329,192,44264,1,0,0:0:0:0:
256,192,44317,1,0,0:0:0:0:
36,192,44370,1,0,0:0:0:70:kick1.wav
109,192,44370,1,0,0:0:0:50:jingle.wav
475,192,44370,1,0,0:0:0:30:clap.wav
402,192,44422,1,0,0:0:0:0:
182,192,44475,1,0,0:0:0:40:clap.wav
256,192,44475,1,0,0:0:0:0:
329,192,44528,1,0,0:0:0:0:
36,192,44554,1,0,0:0:0:80:kick1.wav
109,192,44554,1,0,0:0:0:0:
402,192,44580,1,0,0:0:0:50:clap.wav
475,192,44580,1,0,0:0:0:0:
182,192,44633,1,0,0:0:0:0:
36,192,44685,1,0,0:0:0:80:kick1.wav
109,192,44685,1,0,0:0:0:60:clap.wav
402,192,44685,1,0,0:0:0:0:
475,192,44685,1,0,0:0:0:0:
256,192,44738,1,0,0:0:0:50:jingle.wav
36,192,44791,1,0,0:0:0:70:clap.wav
329,192,44791,1,0,0:0:0:0:
475,192,44791,1,0,0:0:0:0:
182,192,44843,1,0,0:0:0:0:
109,192,44896,1,0,0:0:0:0:
329,192,44922,1,0,0:0:0:70:clap.wav
475,192,44922,1,0,0:0:0:0:
256,192,44949,1,0,0:0:0:0:
36,192,45001,1,0,0:0:0:80:kick1.wav
109,192,45001,1,0,0:0:0:0:
402,192,45001,1,0,0:0:0:0:
182,192,45054,1,0,0:0:0:0:
329,192,45106,1,0,0:0:0:0:
475,192,45159,1,0,0:0:0:0:
36,192,45212,1,0,0:0:0:0:
182,192,45264,1,0,0:0:0:0:
329,192,45317,1,0,0:0:0:0:
475,192,45370,1,0,0:0:0:0:
36,192,45422,1,0,0:0:0:0:
182,192,45475,1,0,0:0:0:0:
329,192,45528,1,0,0:0:0:0:
475,192,45580,1,0,0:0:0:0:
36,192,45633,1,0,0:0:0:80:kick1.wav
256,192,45633,1,0,0:0:0:0:
402,192,45633,1,0,0:0:0:0:
182,192,45685,1,0,0:0:0:0:
329,192,45738,1,0,0:0:0:0:
475,192,45791,1,0,0:0:0:0:
36,192,45843,1,0,0:0:0:0:
182,192,45896,1,0,0:0:0:0:
329,192,45949,1,0,0:0:0:0:
475,192,46001,1,0,0:0:0:0:
36,192,46054,1,0,0:0:0:0:
182,192,46106,1,0,0:0:0:0:
329,192,46159,1,0,0:0:0:0:
475,192,46212,1,0,0:0:0:0:
36,192,46264,1,0,0:0:0:80:kick1.wav
109,192,46264,1,0,0:0:0:0:
256,192,46264,1,0,0:0:0:0:
182,192,46317,1,0,0:0:0:0:
329,192,46370,1,0,0:0:0:0:
475,192,46422,1,0,0:0:0:0:
36,192,46475,1,0,0:0:0:0:
182,192,46528,1,0,0:0:0:0:
329,192,46580,1,0,0:0:0:0:
475,192,46633,1,0,0:0:0:0:
36,192,46685,1,0,0:0:0:0:
182,192,46738,1,0,0:0:0:0:
329,192,46791,1,0,0:0:0:0:
475,192,46843,1,0,0:0:0:0:
36,192,46896,1,0,0:0:0:80:kick1.wav
109,192,46896,1,0,0:0:0:0:
402,192,46896,1,0,0:0:0:0:
182,192,46949,1,0,0:0:0:0:
329,192,47001,1,0,0:0:0:0:
475,192,47054,1,0,0:0:0:0:
36,192,47106,1,0,0:0:0:0:
182,192,47159,1,0,0:0:0:0:
329,192,47212,1,0,0:0:0:0:
475,192,47264,1,0,0:0:0:0:
36,192,47317,1,0,0:0:0:0:
182,192,47370,1,0,0:0:0:0:
329,192,47422,1,0,0:0:0:0:
475,192,47475,1,0,0:0:0:0:
36,192,47528,1,0,0:0:0:80:kick1.wav
256,192,47528,1,0,0:0:0:0:
402,192,47528,1,0,0:0:0:0:
109,192,47580,1,0,0:0:0:0:
182,192,47633,1,0,0:0:0:0:
329,192,47685,1,0,0:0:0:0:
109,192,47738,1,0,0:0:0:80:kick1.wav
256,192,47738,1,0,0:0:0:0:
402,192,47738,1,0,0:0:0:0:
182,192,47791,1,0,0:0:0:0:
329,192,47843,1,0,0:0:0:0:
402,192,47896,1,0,0:0:0:0:
109,192,47949,1,0,0:0:0:80:kick1.wav
256,192,47949,1,0,0:0:0:0:
475,192,47949,1,0,0:0:0:0:
329,192,48001,1,0,0:0:0:0:
402,192,48054,1,0,0:0:0:0:
475,192,48106,1,0,0:0:0:0:
36,192,48159,1,0,0:0:0:80:kick1.wav
256,192,48159,1,0,0:0:0:0:
329,192,48159,1,0,0:0:0:0:
109,192,48212,1,0,0:0:0:0:
182,192,48264,1,0,0:0:0:0:
36,192,48317,1,0,0:0:0:80:kick1.wav
329,192,48317,1,0,0:0:0:0:
475,192,48317,1,0,0:0:0:0:
182,192,48370,1,0,0:0:0:0:
329,192,48422,1,0,0:0:0:0:
109,192,48475,1,0,0:0:0:80:kick1.wav
256,192,48475,1,0,0:0:0:0:
402,192,48475,1,0,0:0:0:0:
475,192,48528,1,0,0:0:0:0:
329,192,48580,1,0,0:0:0:0:
36,192,48606,1,0,0:0:0:80:kick1.wav
109,192,48606,1,0,0:0:0:0:
256,192,48633,1,0,0:0:0:0:
182,192,48685,1,0,0:0:0:0:
402,192,48712,1,0,0:0:0:80:kick1.wav
475,192,48712,1,0,0:0:0:0:
329,192,48738,1,0,0:0:0:0:
36,192,48791,1,0,0:0:0:80:kick1.wav
109,192,48791,1,0,0:0:0:0:
182,192,48791,1,0,0:0:0:0:
256,192,48843,1,0,0:0:0:80:kick1.wav
402,192,48843,1,0,0:0:0:0:
475,192,48843,1,0,0:0:0:0:
36,192,48896,1,0,0:0:0:80:kick1.wav
109,192,48896,1,0,0:0:0:0:
329,192,48896,1,0,0:0:0:0:
182,192,48949,1,0,0:0:0:0:
329,192,49001,1,0,0:0:0:80:kick1.wav
402,192,49001,1,0,0:0:0:0:
475,192,49001,1,0,0:0:0:0:
36,192,49054,1,0,0:0:0:80:kick1.wav
109,192,49054,1,0,0:0:0:0:
256,192,49054,1,0,0:0:0:0:
182,192,49106,1,0,0:0:0:80:kick1.wav
402,192,49106,1,0,0:0:0:0:
475,192,49106,1,0,0:0:0:0:
329,192,49159,1,0,0:0:0:0:
36,192,49212,1,0,0:0:0:80:kick1.wav
182,192,49212,1,0,0:0:0:0:
475,192,49212,1,0,0:0:0:0:
256,192,49264,1,0,0:0:0:0:
109,192,49317,1,0,0:0:0:80:kick1.wav
329,192,49317,1,0,0:0:0:0:
402,192,49317,1,0,0:0:0:0:
36,192,49370,1,0,0:0:0:0:
475,192,49396,1,0,0:0:0:0:
182,192,49422,1,0,0:0:0:20:kick1.wav
329,192,49475,1,0,0:0:0:25:kick1.wav
182,192,49528,1,0,0:0:0:30:kick1.wav
329,192,49580,1,0,0:0:0:35:kick1.wav
182,192,49633,1,0,0:0:0:40:kick1.wav
329,192,49685,1,0,0:0:0:45:kick1.wav
109,192,49738,1,0,0:0:0:50:kick1.wav
182,192,49738,1,0,0:0:0:0:
329,192,49791,1,0,0:0:0:55:kick1.wav
402,192,49791,1,0,0:0:0:0:
109,192,49843,1,0,0:0:0:60:kick1.wav
182,192,49843,1,0,0:0:0:0:
329,192,49896,1,0,0:0:0:65:kick1.wav
402,192,49896,1,0,0:0:0:0:
109,192,49949,1,0,0:0:0:70:kick1.wav
182,192,49949,1,0,0:0:0:0:
329,192,50001,1,0,0:0:0:75:kick1.wav
402,192,50001,1,0,0:0:0:0:
36,192,50054,1,0,0:0:0:80:kick1.wav
109,192,50054,1,0,0:0:0:65:kick2.wav
182,192,50054,1,0,0:0:0:0:
256,192,50054,128,0,50475:0:0:0:0:
475,192,50054,1,0,0:0:0:0:
109,192,50475,1,0,0:0:0:65:jingle.wav
402,192,50475,1,0,0:0:0:0:
36,192,50528,1,0,0:0:0:65:jingle.wav
475,192,50528,1,0,0:0:0:0:
182,192,50580,1,0,0:0:0:65:jingle.wav
329,192,50580,1,0,0:0:0:0:
109,192,50633,1,0,0:0:0:65:jingle.wav
402,192,50633,1,0,0:0:0:0:
36,192,50685,1,0,0:0:0:80:kick1.wav
182,192,50685,1,0,0:0:0:65:jingle.wav
256,192,50685,1,0,0:0:0:25:hihat.wav
329,192,50685,128,0,52580:0:0:0:0:
475,192,50685,1,0,0:0:0:0:
256,192,50817,1,0,0:0:0:25:hihat.wav
182,192,50949,1,0,0:0:0:25:hihat.wav
182,192,51054,1,0,0:0:0:25:hihat.wav
36,192,51080,1,0,0:0:0:80:kick1.wav
256,192,51080,1,0,0:0:0:0:
475,192,51080,1,0,0:0:0:0:
109,192,51159,1,0,0:0:0:25:hihat.wav
402,192,51185,1,0,0:0:0:0:
109,192,51238,1,0,0:0:0:25:hihat.wav
182,192,51317,1,0,0:0:0:25:hihat.wav
402,192,51317,1,0,0:0:0:0:
475,192,51317,1,0,0:0:0:0:
182,192,51449,1,0,0:0:0:25:hihat.wav
256,192,51580,1,0,0:0:0:25:hihat.wav
256,192,51685,1,0,0:0:0:25:hihat.wav
402,192,51791,1,0,0:0:0:25:hihat.wav
402,192,51870,1,0,0:0:0:25:hihat.wav
36,192,51949,1,0,0:0:0:80:kick1.wav
109,192,51949,1,0,0:0:0:25:hihat.wav
182,192,51949,1,0,0:0:0:0:
475,192,51949,1,0,0:0:0:0:
182,192,52028,1,0,0:0:0:25:hihat.wav
402,192,52106,1,0,0:0:0:25:hihat.wav
402,192,52212,1,0,0:0:0:25:hihat.wav
256,192,52317,1,0,0:0:0:25:hihat.wav
36,192,52343,1,0,0:0:0:80:kick1.wav
109,192,52343,1,0,0:0:0:0:
475,192,52343,1,0,0:0:0:0:
256,192,52449,1,0,0:0:0:25:hihat.wav
36,192,52580,1,0,0:0:0:65:jingle.wav
109,192,52580,1,0,0:0:0:25:hihat.wav
402,192,52580,128,0,53843:0:0:0:0:
109,192,52659,1,0,0:0:0:25:hihat.wav
182,192,52738,1,0,0:0:0:25:hihat.wav
182,192,52843,1,0,0:0:0:25:hihat.wav
256,192,52949,1,0,0:0:0:25:hihat.wav
256,192,53080,1,0,0:0:0:25:hihat.wav
36,192,53212,1,0,0:0:0:80:kick1.wav
109,192,53212,1,0,0:0:0:25:hihat.wav
329,192,53212,1,0,0:0:0:0:
475,192,53212,1,0,0:0:0:0:
109,192,53343,1,0,0:0:0:25:hihat.wav
329,192,53475,1,0,0:0:0:25:hihat.wav
329,192,53580,1,0,0:0:0:25:hihat.wav
36,192,53606,1,0,0:0:0:80:kick1.wav
182,192,53606,1,0,0:0:0:0:
475,192,53606,1,0,0:0:0:0:
256,192,53685,1,0,0:0:0:25:hihat.wav
109,192,53712,1,0,0:0:0:0:
256,192,53764,1,0,0:0:0:25:hihat.wav
109,192,53843,1,0,0:0:0:65:jingle.wav
182,192,53843,128,0,55106:0:0:0:25:hihat.wav
329,192,53843,1,0,0:0:0:0:
475,192,53843,1,0,0:0:0:0:
329,192,53975,1,0,0:0:0:25:hihat.wav
256,192,54106,1,0,0:0:0:25:hihat.wav
256,192,54212,1,0,0:0:0:25:hihat.wav
329,192,54317,1,0,0:0:0:25:hihat.wav
329,192,54396,1,0,0:0:0:25:hihat.wav
36,192,54475,1,0,0:0:0:80:kick1.wav
109,192,54475,1,0,0:0:0:25:hihat.wav
402,192,54475,1,0,0:0:0:0:
475,192,54475,1,0,0:0:0:0:
402,192,54554,1,0,0:0:0:25:hihat.wav
256,192,54633,1,0,0:0:0:25:hihat.wav
256,192,54738,1,0,0:0:0:25:hihat.wav
109,192,54843,1,0,0:0:0:25:hihat.wav
36,192,54870,1,0,0:0:0:80:kick1.wav
402,192,54870,1,0,0:0:0:0:
475,192,54870,1,0,0:0:0:0:
109,192,54975,1,0,0:0:0:18:hihat.wav
256,192,55001,1,0,0:0:0:18:hihat.wav
329,192,55028,1,0,0:0:0:18:hihat.wav
402,192,55054,1,0,0:0:0:18:hihat.wav
475,192,55080,1,0,0:0:0:18:hihat.wav
36,192,55106,1,0,0:0:0:65:jingle.wav
109,192,55106,128,0,57001:0:0:0:25:hihat.wav
256,192,55106,1,0,0:0:0:0:
256,192,55185,1,0,0:0:0:25:hihat.wav
329,192,55264,1,0,0:0:0:25:hihat.wav
329,192,55370,1,0,0:0:0:25:hihat.wav
182,192,55475,1,0,0:0:0:25:hihat.wav
182,192,55606,1,0,0:0:0:25:hihat.wav
36,192,55738,1,0,0:0:0:80:kick1.wav
256,192,55738,1,0,0:0:0:25:hihat.wav
402,192,55738,1,0,0:0:0:0:
475,192,55738,1,0,0:0:0:0:
402,192,55870,1,0,0:0:0:25:hihat.wav
256,192,56001,1,0,0:0:0:25:hihat.wav
256,192,56106,1,0,0:0:0:25:hihat.wav
36,192,56133,1,0,0:0:0:80:kick1.wav
402,192,56133,1,0,0:0:0:0:
475,192,56133,1,0,0:0:0:0:
329,192,56212,1,0,0:0:0:25:hihat.wav
182,192,56238,1,0,0:0:0:0:
329,192,56291,1,0,0:0:0:25:hihat.wav
182,192,56370,1,0,0:0:0:25:hihat.wav
402,192,56370,1,0,0:0:0:0:
475,192,56370,1,0,0:0:0:0:
402,192,56501,1,0,0:0:0:25:hihat.wav
256,192,56633,1,0,0:0:0:25:hihat.wav
256,192,56738,1,0,0:0:0:25:hihat.wav
182,192,56843,1,0,0:0:0:25:hihat.wav
182,192,56922,1,0,0:0:0:25:hihat.wav
36,192,57001,1,0,0:0:0:80:kick1.wav
256,192,57001,128,0,57633:0:0:0:65:jingle.wav
329,192,57001,1,0,0:0:0:25:hihat.wav
402,192,57001,1,0,0:0:0:0:
475,192,57001,1,0,0:0:0:0:
329,192,57080,1,0,0:0:0:25:hihat.wav
182,192,57159,1,0,0:0:0:25:hihat.wav
182,192,57264,1,0,0:0:0:25:hihat.wav
109,192,57370,1,0,0:0:0:25:hihat.wav
36,192,57396,1,0,0:0:0:80:kick1.wav
402,192,57396,1,0,0:0:0:0:
475,192,57396,1,0,0:0:0:0:
109,192,57501,1,0,0:0:0:25:hihat.wav
36,192,57633,1,0,0:0:0:65:jingle.wav
182,192,57633,128,0,58896:0:0:0:25:hihat.wav
402,192,57633,1,0,0:0:0:0:
402,192,57712,1,0,0:0:0:25:hihat.wav
109,192,57791,1,0,0:0:0:25:hihat.wav
109,192,57896,1,0,0:0:0:25:hihat.wav
256,192,58001,1,0,0:0:0:25:hihat.wav
256,192,58133,1,0,0:0:0:25:hihat.wav
36,192,58264,1,0,0:0:0:80:kick1.wav
109,192,58264,1,0,0:0:0:25:hihat.wav
402,192,58264,1,0,0:0:0:0:
475,192,58264,1,0,0:0:0:0:
402,192,58396,1,0,0:0:0:25:hihat.wav
329,192,58528,1,0,0:0:0:25:hihat.wav
329,192,58633,1,0,0:0:0:25:hihat.wav
36,192,58659,1,0,0:0:0:80:kick1.wav
256,192,58659,1,0,0:0:0:0:
475,192,58659,1,0,0:0:0:0:
109,192,58738,1,0,0:0:0:25:hihat.wav
402,192,58764,1,0,0:0:0:0:
109,192,58817,1,0,0:0:0:25:hihat.wav
256,192,58896,1,0,0:0:0:65:jingle.wav
329,192,58896,128,0,60159:0:0:0:25:hihat.wav
402,192,58896,1,0,0:0:0:0:
475,192,58896,1,0,0:0:0:0:
256,192,59028,1,0,0:0:0:25:hihat.wav
109,192,59159,1,0,0:0:0:25:hihat.wav
109,192,59264,1,0,0:0:0:25:hihat.wav
182,192,59370,1,0,0:0:0:25:hihat.wav
182,192,59449,1,0,0:0:0:25:hihat.wav
36,192,59528,1,0,0:0:0:80:kick1.wav
256,192,59528,1,0,0:0:0:25:hihat.wav
402,192,59528,1,0,0:0:0:0:
475,192,59528,1,0,0:0:0:0:
402,192,59606,1,0,0:0:0:25:hihat.wav
109,192,59685,1,0,0:0:0:25:hihat.wav
182,192,59685,1,0,0:0:0:0:
109,192,59764,1,0,0:0:0:25:hihat.wav
182,192,59843,1,0,0:0:0:25:hihat.wav
256,192,59843,1,0,0:0:0:0:
402,192,59896,1,0,0:0:0:25:hihat.wav
36,192,59922,1,0,0:0:0:80:kick1.wav
109,192,59922,1,0,0:0:0:0:
475,192,59922,1,0,0:0:0:0:
256,192,59949,1,0,0:0:0:25:hihat.wav
182,192,60001,1,0,0:0:0:25:hihat.wav
402,192,60001,1,0,0:0:0:0:
109,192,60054,1,0,0:0:0:25:hihat.wav
182,192,60106,1,0,0:0:0:25:hihat.wav
36,192,60159,1,0,0:0:0:65:jingle.wav
256,192,60159,128,0,62054:0:0:0:18:hihat.wav
475,192,60185,1,0,0:0:0:18:hihat.wav
109,192,60212,1,0,0:0:0:18:hihat.wav
402,192,60238,1,0,0:0:0:18:hihat.wav
182,192,60264,1,0,0:0:0:18:hihat.wav
329,192,60291,1,0,0:0:0:18:hihat.wav
36,192,60317,1,0,0:0:0:18:hihat.wav
475,192,60343,1,0,0:0:0:18:hihat.wav
109,192,60370,1,0,0:0:0:18:hihat.wav
402,192,60396,1,0,0:0:0:18:hihat.wav
182,192,60422,1,0,0:0:0:18:hihat.wav
329,192,60449,1,0,0:0:0:18:hihat.wav
36,192,60475,1,0,0:0:0:18:hihat.wav
475,192,60501,1,0,0:0:0:18:hihat.wav
109,192,60528,1,0,0:0:0:18:hihat.wav
402,192,60554,1,0,0:0:0:18:hihat.wav
182,192,60580,1,0,0:0:0:18:hihat.wav
329,192,60606,1,0,0:0:0:18:hihat.wav
36,192,60633,1,0,0:0:0:18:hihat.wav
475,192,60659,1,0,0:0:0:18:hihat.wav
109,192,60685,1,0,0:0:0:18:hihat.wav
402,192,60712,1,0,0:0:0:18:hihat.wav
182,192,60738,1,0,0:0:0:18:hihat.wav
329,192,60764,1,0,0:0:0:18:hihat.wav
36,192,60791,1,0,0:0:0:80:kick1.wav
109,192,60791,1,0,0:0:0:25:hihat.wav
402,192,60791,1,0,0:0:0:0:
475,192,60791,1,0,0:0:0:0:
109,192,60922,1,0,0:0:0:25:hihat.wav
329,192,61054,1,0,0:0:0:25:hihat.wav
329,192,61159,1,0,0:0:0:25:hihat.wav
36,192,61185,1,0,0:0:0:80:kick1.wav
109,192,61185,1,0,0:0:0:0:
475,192,61185,1,0,0:0:0:0:
182,192,61264,1,0,0:0:0:25:hihat.wav
402,192,61291,1,0,0:0:0:0:
182,192,61343,1,0,0:0:0:25:hihat.wav
109,192,61422,1,0,0:0:0:25:hihat.wav
402,192,61422,1,0,0:0:0:0:
475,192,61422,1,0,0:0:0:0:
109,192,61554,1,0,0:0:0:25:hihat.wav
329,192,61685,1,0,0:0:0:25:hihat.wav
329,192,61791,1,0,0:0:0:25:hihat.wav
182,192,61896,1,0,0:0:0:25:hihat.wav
182,192,61975,1,0,0:0:0:25:hihat.wav
36,192,62054,1,0,0:0:0:80:kick1.wav
109,192,62054,1,0,0:0:0:65:jingle.wav
329,192,62054,1,0,0:0:0:25:hihat.wav
402,192,62054,128,0,62685:0:0:0:0:
475,192,62054,1,0,0:0:0:0:
109,192,62133,1,0,0:0:0:25:hihat.wav
256,192,62212,1,0,0:0:0:25:hihat.wav
256,192,62317,1,0,0:0:0:25:hihat.wav
182,192,62422,1,0,0:0:0:25:hihat.wav
36,192,62449,1,0,0:0:0:80:kick1.wav
329,192,62449,1,0,0:0:0:0:
475,192,62449,1,0,0:0:0:0:
182,192,62554,1,0,0:0:0:25:hihat.wav
36,192,62685,1,0,0:0:0:65:jingle.wav
109,192,62685,1,0,0:0:0:25:hihat.wav
329,192,62685,128,0,63949:0:0:0:0:
109,192,62764,1,0,0:0:0:25:hihat.wav
256,192,62843,1,0,0:0:0:25:hihat.wav
256,192,62949,1,0,0:0:0:25:hihat.wav
402,192,63054,1,0,0:0:0:25:hihat.wav
402,192,63185,1,0,0:0:0:25:hihat.wav
36,192,63317,1,0,0:0:0:80:kick1.wav
109,192,63317,1,0,0:0:0:25:hihat.wav
182,192,63317,1,0,0:0:0:0:
475,192,63317,1,0,0:0:0:0:
109,192,63449,1,0,0:0:0:25:hihat.wav
256,192,63580,1,0,0:0:0:25:hihat.wav
256,192,63685,1,0,0:0:0:25:hihat.wav
36,192,63712,1,0,0:0:0:80:kick1.wav
109,192,63712,1,0,0:0:0:0:
475,192,63712,1,0,0:0:0:0:
182,192,63791,1,0,0:0:0:25:hihat.wav
402,192,63817,1,0,0:0:0:0:
182,192,63870,1,0,0:0:0:25:hihat.wav
109,192,63949,128,0,64580:0:0:0:65:jingle.wav
256,192,63949,1,0,0:0:0:25:hihat.wav
402,192,63949,1,0,0:0:0:0:
475,192,63949,1,0,0:0:0:0:
256,192,64080,1,0,0:0:0:25:hihat.wav
182,192,64212,1,0,0:0:0:25:hihat.wav
182,192,64317,1,0,0:0:0:25:hihat.wav
329,192,64422,1,0,0:0:0:25:hihat.wav
329,192,64501,1,0,0:0:0:25:hihat.wav
36,192,64580,1,0,0:0:0:80:kick1.wav
182,192,64580,128,0,65212:0:0:0:65:jingle.wav
256,192,64580,1,0,0:0:0:25:hihat.wav
402,192,64580,1,0,0:0:0:0:
475,192,64580,1,0,0:0:0:0:
402,192,64659,1,0,0:0:0:25:hihat.wav
329,192,64738,1,0,0:0:0:25:hihat.wav
329,192,64843,1,0,0:0:0:25:hihat.wav
109,192,64949,1,0,0:0:0:25:hihat.wav
36,192,64975,1,0,0:0:0:80:kick1.wav
402,192,64975,1,0,0:0:0:0:
475,192,64975,1,0,0:0:0:0:
109,192,65080,1,0,0:0:0:18:hihat.wav
256,192,65106,1,0,0:0:0:18:hihat.wav
329,192,65133,1,0,0:0:0:18:hihat.wav
402,192,65159,1,0,0:0:0:18:hihat.wav
475,192,65185,1,0,0:0:0:18:hihat.wav
36,192,65212,1,0,0:0:0:65:jingle.wav
109,192,65212,1,0,0:0:0:25:hihat.wav
256,192,65212,128,0,66475:0:0:0:0:
109,192,65291,1,0,0:0:0:25:hihat.wav
182,192,65370,1,0,0:0:0:25:hihat.wav
182,192,65475,1,0,0:0:0:25:hihat.wav
329,192,65580,1,0,0:0:0:25:hihat.wav
329,192,65712,1,0,0:0:0:25:hihat.wav
36,192,65843,1,0,0:0:0:80:kick1.wav
109,192,65843,1,0,0:0:0:25:hihat.wav
402,192,65843,1,0,0:0:0:0:
475,192,65843,1,0,0:0:0:0:
402,192,65975,1,0,0:0:0:25:hihat.wav
182,192,66106,1,0,0:0:0:25:hihat.wav
182,192,66212,1,0,0:0:0:25:hihat.wav
36,192,66238,1,0,0:0:0:80:kick1.wav
402,192,66238,1,0,0:0:0:0:
475,192,66238,1,0,0:0:0:0:
109,192,66317,1,0,0:0:0:25:hihat.wav
329,192,66343,1,0,0:0:0:0:
109,192,66396,1,0,0:0:0:25:hihat.wav
182,192,66475,1,0,0:0:0:65:jingle.wav
329,192,66475,128,0,67106:0:0:0:25:hihat.wav
402,192,66475,1,0,0:0:0:0:
475,192,66475,1,0,0:0:0:0:
402,192,66606,1,0,0:0:0:25:hihat.wav
109,192,66738,1,0,0:0:0:25:hihat.wav
109,192,66843,1,0,0:0:0:25:hihat.wav
256,192,66949,1,0,0:0:0:25:hihat.wav
256,192,67028,1,0,0:0:0:25:hihat.wav
36,192,67106,1,0,0:0:0:80:kick1.wav
109,192,67106,1,0,0:0:0:65:jingle.wav
182,192,67106,1,0,0:0:0:25:hihat.wav
402,192,67106,128,0,67738:0:0:0:0:
475,192,67106,1,0,0:0:0:0:
182,192,67185,1,0,0:0:0:25:hihat.wav
36,192,67264,1,0,0:0:0:80:kick1.wav
109,192,67264,1,0,0:0:0:25:hihat.wav
256,192,67264,1,0,0:0:0:0:
475,192,67264,1,0,0:0:0:0:
256,192,67370,1,0,0:0:0:25:hihat.wav
329,192,67475,1,0,0:0:0:25:hihat.wav
36,192,67501,1,0,0:0:0:80:kick1.wav
182,192,67501,1,0,0:0:0:0:
475,192,67501,1,0,0:0:0:0:
329,192,67606,1,0,0:0:0:25:hihat.wav
256,192,70054,1,0,0:0:0:0:
329,192,70080,1,0,0:0:0:0:
402,192,70106,1,0,0:0:0:0:
475,192,70133,1,0,0:0:0:0:
36,192,70159,1,0,0:0:0:0:
109,192,70185,1,0,0:0:0:0:
182,192,70212,1,0,0:0:0:0:
256,192,70238,1,0,0:0:0:0:
36,192,70264,128,0,70317:0:0:0:80:kick1.wav
329,192,70264,1,0,0:0:0:65:jingle.wav
402,192,70264,1,0,0:0:0:0:
475,192,70264,1,0,0:0:0:0:
182,192,70317,128,0,70370:0:0:0:65:jingle.wav
329,192,70370,128,0,70422:0:0:0:65:jingle.wav
475,192,70422,128,0,70475:0:0:0:65:jingle.wav
256,192,70475,128,0,70528:0:0:0:65:jingle.wav
36,192,70528,128,0,70580:0:0:0:65:jingle.wav
402,192,70580,128,0,70633:0:0:0:65:jingle.wav
329,192,70633,128,0,70685:0:0:0:65:jingle.wav
182,192,70685,128,0,70738:0:0:0:65:jingle.wav
109,192,70738,128,0,70791:0:0:0:65:jingle.wav
475,192,70791,128,0,70843:0:0:0:65:jingle.wav
402,192,70843,128,0,70896:0:0:0:65:jingle.wav
36,192,70896,128,0,72475:0:0:0:80:kick1.wav
109,192,70896,1,0,0:0:0:65:jingle.wav
182,192,70896,1,0,0:0:0:25:hihat.wav
256,192,70896,1,0,0:0:0:0:
329,192,70896,1,0,0:0:0:0:
256,192,70975,1,0,0:0:0:80:kick1.wav
329,192,70975,1,0,0:0:0:0:
109,192,71028,1,0,0:0:0:25:hihat.wav
402,192,71054,1,0,0:0:0:80:kick1.wav
475,192,71054,1,0,0:0:0:0:
402,192,71133,1,0,0:0:0:80:kick1.wav
475,192,71133,1,0,0:0:0:0:
329,192,71159,1,0,0:0:0:25:hihat.wav
109,192,71212,1,0,0:0:0:80:kick1.wav
182,192,71212,1,0,0:0:0:0:
329,192,71264,1,0,0:0:0:25:hihat.wav
109,192,71291,1,0,0:0:0:80:kick1.wav
182,192,71291,1,0,0:0:0:0:
475,192,71291,1,0,0:0:0:0:
256,192,71370,1,0,0:0:0:25:hihat.wav
402,192,71396,1,0,0:0:0:0:
256,192,71449,1,0,0:0:0:25:hihat.wav
109,192,71528,1,0,0:0:0:25:hihat.wav
402,192,71528,1,0,0:0:0:0:
475,192,71528,1,0,0:0:0:0:
109,192,71659,1,0,0:0:0:25:hihat.wav
182,192,71791,1,0,0:0:0:25:hihat.wav
182,192,71896,1,0,0:0:0:25:hihat.wav
329,192,72001,1,0,0:0:0:25:hihat.wav
329,192,72080,1,0,0:0:0:25:hihat.wav
109,192,72159,1,0,0:0:0:80:kick1.wav
182,192,72159,1,0,0:0:0:25:hihat.wav
402,192,72159,1,0,0:0:0:0:
475,192,72159,1,0,0:0:0:0:
182,192,72238,1,0,0:0:0:25:hihat.wav
256,192,72317,1,0,0:0:0:25:hihat.wav
256,192,72422,1,0,0:0:0:25:hihat.wav
109,192,72475,128,0,72659:0:0:0:65:jingle.wav
329,192,72528,1,0,0:0:0:25:hihat.wav
182,192,72554,1,0,0:0:0:80:kick1.wav
402,192,72554,1,0,0:0:0:0:
475,192,72554,1,0,0:0:0:0:
36,192,72659,128,0,72896:0:0:0:65:jingle.wav
329,192,72659,1,0,0:0:0:25:hihat.wav
256,192,72791,1,0,0:0:0:25:hihat.wav
402,192,72791,1,0,0:0:0:0:
475,192,72791,1,0,0:0:0:0:
475,192,72870,1,0,0:0:0:25:hihat.wav
329,192,72896,128,0,73659:0:0:0:65:jingle.wav
182,192,72949,1,0,0:0:0:25:hihat.wav
182,192,73054,1,0,0:0:0:25:hihat.wav
109,192,73159,1,0,0:0:0:25:hihat.wav
109,192,73291,1,0,0:0:0:25:hihat.wav
36,192,73422,1,0,0:0:0:80:kick1.wav
182,192,73422,1,0,0:0:0:25:hihat.wav
256,192,73422,1,0,0:0:0:0:
475,192,73422,1,0,0:0:0:0:
36,192,73554,1,0,0:0:0:80:kick1.wav
182,192,73554,1,0,0:0:0:25:hihat.wav
475,192,73554,1,0,0:0:0:0:
402,192,73659,128,0,73817:0:0:0:65:jingle.wav
109,192,73685,1,0,0:0:0:80:kick1.wav
182,192,73685,1,0,0:0:0:25:hihat.wav
256,192,73685,1,0,0:0:0:0:
109,192,73791,1,0,0:0:0:25:hihat.wav
182,192,73817,128,0,73975:0:0:0:80:kick1.wav
256,192,73817,1,0,0:0:0:65:jingle.wav
329,192,73817,1,0,0:0:0:0:
475,192,73817,1,0,0:0:0:0:
36,192,73896,1,0,0:0:0:25:hihat.wav
402,192,73922,1,0,0:0:0:0:
36,192,73975,1,0,0:0:0:65:jingle.wav
256,192,73975,128,0,74370:0:0:0:25:hihat.wav
109,192,74054,1,0,0:0:0:25:hihat.wav
329,192,74054,1,0,0:0:0:0:
402,192,74054,1,0,0:0:0:0:
329,192,74185,1,0,0:0:0:25:hihat.wav
109,192,74317,1,0,0:0:0:25:hihat.wav
475,192,74370,128,0,74685:0:0:0:65:jingle.wav
109,192,74422,1,0,0:0:0:25:hihat.wav
182,192,74528,1,0,0:0:0:25:hihat.wav
182,192,74606,1,0,0:0:0:25:hihat.wav
36,192,74685,1,0,0:0:0:80:kick1.wav
109,192,74685,1,0,0:0:0:65:jingle.wav
256,192,74685,1,0,0:0:0:25:hihat.wav
329,192,74685,128,0,74791:0:0:0:0:
402,192,74685,1,0,0:0:0:0:
36,192,74764,1,0,0:0:0:25:hihat.wav
182,192,74791,128,0,74896:0:0:0:65:jingle.wav
402,192,74843,1,0,0:0:0:25:hihat.wav
256,192,74896,128,0,75001:0:0:0:65:jingle.wav
402,192,74949,1,0,0:0:0:25:hihat.wav
36,192,75001,128,0,75106:0:0:0:65:jingle.wav
475,192,75054,1,0,0:0:0:25:hihat.wav
182,192,75080,1,0,0:0:0:80:kick1.wav
256,192,75080,1,0,0:0:0:0:
329,192,75080,1,0,0:0:0:0:
109,192,75106,128,0,75212:0:0:0:65:jingle.wav
475,192,75185,1,0,0:0:0:18:hihat.wav
36,192,75212,128,0,75317:0:0:0:65:jingle.wav
402,192,75212,1,0,0:0:0:18:hihat.wav
329,192,75238,1,0,0:0:0:18:hihat.wav
256,192,75264,1,0,0:0:0:18:hihat.wav
182,192,75291,1,0,0:0:0:18:hihat.wav
109,192,75317,1,0,0:0:0:65:jingle.wav
402,192,75317,1,0,0:0:0:25:hihat.wav
475,192,75317,128,0,75422:0:0:0:0:
109,192,75396,1,0,0:0:0:25:hihat.wav
329,192,75422,128,0,75659:0:0:0:65:jingle.wav
182,192,75475,1,0,0:0:0:25:hihat.wav
182,192,75580,1,0,0:0:0:25:hihat.wav
402,192,75659,128,0,76054:0:0:0:65:jingle.wav
256,192,75685,1,0,0:0:0:25:hihat.wav
256,192,75817,1,0,0:0:0:25:hihat.wav
36,192,75949,1,0,0:0:0:80:kick1.wav
109,192,75949,1,0,0:0:0:25:hihat.wav
329,192,75949,1,0,0:0:0:0:
475,192,75949,1,0,0:0:0:0:
36,192,76028,1,0,0:0:0:80:kick1.wav
109,192,76028,1,0,0:0:0:0:
182,192,76054,128,0,77080:0:0:0:65:jingle.wav
475,192,76080,1,0,0:0:0:25:hihat.wav
256,192,76106,1,0,0:0:0:80:kick1.wav
329,192,76106,1,0,0:0:0:0:
256,192,76185,1,0,0:0:0:80:kick1.wav
329,192,76185,1,0,0:0:0:0:
36,192,76212,1,0,0:0:0:25:hihat.wav
402,192,76264,1,0,0:0:0:80:kick1.wav
475,192,76264,1,0,0:0:0:0:
36,192,76317,1,0,0:0:0:25:hihat.wav
256,192,76343,1,0,0:0:0:80:kick1.wav
402,192,76343,1,0,0:0:0:0:
475,192,76343,1,0,0:0:0:0:
329,192,76422,1,0,0:0:0:25:hihat.wav
109,192,76449,1,0,0:0:0:0:
329,192,76501,1,0,0:0:0:25:hihat.wav
36,192,76580,1,0,0:0:0:25:hihat.wav
109,192,76580,1,0,0:0:0:0:
475,192,76580,1,0,0:0:0:0:
475,192,76712,1,0,0:0:0:25:hihat.wav
36,192,76843,1,0,0:0:0:25:hihat.wav
36,192,76949,1,0,0:0:0:25:hihat.wav
402,192,77054,1,0,0:0:0:25:hihat.wav
109,192,77080,128,0,77291:0:0:0:65:jingle.wav
402,192,77133,1,0,0:0:0:25:hihat.wav
182,192,77212,1,0,0:0:0:80:kick1.wav
256,192,77212,1,0,0:0:0:25:hihat.wav
329,192,77212,1,0,0:0:0:0:
475,192,77212,1,0,0:0:0:0:
36,192,77291,128,0,77843:0:0:0:65:jingle.wav
329,192,77291,1,0,0:0:0:25:hihat.wav
182,192,77370,1,0,0:0:0:25:hihat.wav
182,192,77475,1,0,0:0:0:25:hihat.wav
256,192,77580,1,0,0:0:0:25:hihat.wav
109,192,77606,1,0,0:0:0:80:kick1.wav
402,192,77606,1,0,0:0:0:0:
475,192,77606,1,0,0:0:0:0:
256,192,77712,1,0,0:0:0:25:hihat.wav
109,192,77843,128,0,78475:0:0:0:65:jingle.wav
182,192,77843,1,0,0:0:0:25:hihat.wav
475,192,77843,1,0,0:0:0:0:
475,192,77922,1,0,0:0:0:25:hihat.wav
256,192,78001,1,0,0:0:0:25:hihat.wav
256,192,78106,1,0,0:0:0:25:hihat.wav
329,192,78212,1,0,0:0:0:25:hihat.wav
329,192,78343,1,0,0:0:0:25:hihat.wav
36,192,78475,1,0,0:0:0:80:kick1.wav
182,192,78475,128,0,78606:0:0:0:65:jingle.wav
475,192,78475,1,0,0:0:0:25:hihat.wav
402,192,78475,1,0,0:0:0:0:
256,192,78475,1,0,0:0:0:0:
475,192,78606,1,0,0:0:0:25:hihat.wav
36,192,78606,1,0,0:0:0:80:kick1.wav
256,192,78606,1,0,0:0:0:65:jingle.wav
329,192,78606,128,0,78738:0:0:0:0:
182,192,78738,128,0,78870:0:0:0:0:
36,192,78738,1,0,0:0:0:80:kick1.wav
109,192,78738,1,0,0:0:0:65:jingle.wav
402,192,78738,1,0,0:0:0:25:hihat.wav
402,192,78843,1,0,0:0:0:25:hihat.wav
36,192,78870,1,0,0:0:0:80:kick1.wav
109,192,78870,1,0,0:0:0:65:jingle.wav
256,192,78870,1,0,0:0:0:0:
329,192,78870,128,0,79001:0:0:0:0:
475,192,78949,1,0,0:0:0:25:hihat.wav
182,192,78975,1,0,0:0:0:0:
36,192,79001,128,0,79106:0:0:0:65:jingle.wav
475,192,79028,1,0,0:0:0:25:hihat.wav
109,192,79106,1,0,0:0:0:65:jingle.wav
182,192,79106,128,0,79185:0:0:0:25:hihat.wav
256,192,79106,1,0,0:0:0:0:
402,192,79106,1,0,0:0:0:0:
329,192,79185,128,0,79396:0:0:0:65:jingle.wav
256,192,79238,1,0,0:0:0:25:hihat.wav
182,192,79370,1,0,0:0:0:25:hihat.wav
475,192,79396,128,0,80370:0:0:0:65:jingle.wav
182,192,79475,1,0,0:0:0:25:hihat.wav
109,192,79580,1,0,0:0:0:25:hihat.wav
109,192,79659,1,0,0:0:0:25:hihat.wav
36,192,79738,1,0,0:0:0:80:kick1.wav
182,192,79738,1,0,0:0:0:25:hihat.wav
329,192,79738,1,0,0:0:0:0:
402,192,79738,1,0,0:0:0:0:
256,192,79791,1,0,0:0:0:0:
402,192,79817,1,0,0:0:0:25:hihat.wav
109,192,79870,1,0,0:0:0:0:
182,192,79896,1,0,0:0:0:25:hihat.wav
182,192,79975,1,0,0:0:0:25:hihat.wav
402,192,80001,1,0,0:0:0:0:
109,192,80054,1,0,0:0:0:25:hihat.wav
256,192,80054,1,0,0:0:0:0:
329,192,80106,1,0,0:0:0:25:hihat.wav
402,192,80106,1,0,0:0:0:0:
36,192,80133,1,0,0:0:0:80:kick1.wav
182,192,80133,1,0,0:0:0:0:
256,192,80159,1,0,0:0:0:25:hihat.wav
109,192,80212,1,0,0:0:0:25:hihat.wav
329,192,80212,1,0,0:0:0:0:
182,192,80264,1,0,0:0:0:25:hihat.wav
36,192,80317,1,0,0:0:0:25:hihat.wav
402,192,80317,1,0,0:0:0:0:
109,192,80370,1,0,0:0:0:65:jingle.wav
256,192,80370,128,0,80738:0:0:0:18:hihat.wav
329,192,80396,1,0,0:0:0:18:hihat.wav
182,192,80422,1,0,0:0:0:18:hihat.wav
475,192,80449,1,0,0:0:0:18:hihat.wav
36,192,80475,1,0,0:0:0:18:hihat.wav
402,192,80501,1,0,0:0:0:18:hihat.wav
109,192,80528,1,0,0:0:0:18:hihat.wav
329,192,80554,1,0,0:0:0:18:hihat.wav
182,192,80580,1,0,0:0:0:18:hihat.wav
475,192,80606,1,0,0:0:0:18:hihat.wav
36,192,80633,1,0,0:0:0:18:hihat.wav
402,192,80659,1,0,0:0:0:18:hihat.wav
109,192,80685,1,0,0:0:0:18:hihat.wav
329,192,80712,1,0,0:0:0:18:hihat.wav
36,192,80738,128,0,81080:0:0:0:65:jingle.wav
182,192,80738,1,0,0:0:0:18:hihat.wav
475,192,80764,1,0,0:0:0:18:hihat.wav
402,192,80791,1,0,0:0:0:18:hihat.wav
329,192,80817,1,0,0:0:0:18:hihat.wav
256,192,80843,1,0,0:0:0:18:hihat.wav
475,192,80870,1,0,0:0:0:18:hihat.wav
109,192,80896,1,0,0:0:0:18:hihat.wav
182,192,80922,1,0,0:0:0:18:hihat.wav
256,192,80949,1,0,0:0:0:18:hihat.wav
329,192,80975,1,0,0:0:0:18:hihat.wav
109,192,81001,1,0,0:0:0:80:kick1.wav
182,192,81001,1,0,0:0:0:25:hihat.wav
402,192,81001,1,0,0:0:0:0:
475,192,81001,1,0,0:0:0:0:
256,192,81080,128,0,81159:0:0:0:80:kick1.wav
402,192,81080,1,0,0:0:0:65:jingle.wav
475,192,81080,1,0,0:0:0:0:
36,192,81159,1,0,0:0:0:80:kick1.wav
109,192,81159,1,0,0:0:0:65:jingle.wav
329,192,81159,128,0,81238:0:0:0:0:
36,192,81238,1,0,0:0:0:80:kick1.wav
109,192,81238,1,0,0:0:0:65:jingle.wav
402,192,81238,128,0,81317:0:0:0:0:
182,192,81317,1,0,0:0:0:80:kick1.wav
256,192,81317,1,0,0:0:0:65:jingle.wav
475,192,81317,128,0,81370:0:0:0:0:
402,192,81370,128,0,81422:0:0:0:65:jingle.wav
36,192,81396,1,0,0:0:0:80:kick1.wav
182,192,81396,1,0,0:0:0:0:
256,192,81396,1,0,0:0:0:0:
329,192,81422,128,0,81475:0:0:0:65:jingle.wav
109,192,81475,1,0,0:0:0:65:jingle.wav
475,192,81475,128,0,81528:0:0:0:25:hihat.wav
402,192,81528,128,0,81580:0:0:0:65:jingle.wav
109,192,81554,1,0,0:0:0:25:hihat.wav
329,192,81580,128,0,81633:0:0:0:65:jingle.wav
36,192,81633,1,0,0:0:0:65:jingle.wav
182,192,81633,1,0,0:0:0:25:hihat.wav
256,192,81633,1,0,0:0:0:0:
475,192,81633,128,0,81712:0:0:0:0:
329,192,81712,128,0,81791:0:0:0:65:jingle.wav
36,192,81764,1,0,0:0:0:25:hihat.wav
256,192,81791,128,0,81870:0:0:0:65:jingle.wav
182,192,81870,128,0,81949:0:0:0:65:jingle.wav
402,192,81896,1,0,0:0:0:25:hihat.wav
36,192,81949,128,0,82028:0:0:0:65:jingle.wav
402,192,82001,1,0,0:0:0:25:hihat.wav
256,192,82028,128,0,82528:0:0:0:65:jingle.wav
109,192,82106,1,0,0:0:0:25:hihat.wav
109,192,82185,1,0,0:0:0:25:hihat.wav
36,192,82264,1,0,0:0:0:80:kick1.wav
329,192,82264,1,0,0:0:0:25:hihat.wav
402,192,82264,1,0,0:0:0:0:
475,192,82264,1,0,0:0:0:0:
475,192,82343,1,0,0:0:0:25:hihat.wav
182,192,82422,1,0,0:0:0:25:hihat.wav
182,192,82528,1,0,0:0:0:65:jingle.wav
402,192,82528,128,0,82633:0:0:0:25:hihat.wav
109,192,82633,1,0,0:0:0:65:jingle.wav
475,192,82633,128,0,82896:0:0:0:25:hihat.wav
36,192,82659,1,0,0:0:0:80:kick1.wav
256,192,82659,1,0,0:0:0:0:
329,192,82659,1,0,0:0:0:0:
109,192,82764,1,0,0:0:0:25:hihat.wav
182,192,82896,1,0,0:0:0:65:jingle.wav
256,192,82896,1,0,0:0:0:25:hihat.wav
329,192,82896,128,0,83001:0:0:0:0:
182,192,82975,1,0,0:0:0:25:hihat.wav
402,192,83001,128,0,83238:0:0:0:65:jingle.wav
36,192,83054,1,0,0:0:0:25:hihat.wav
36,192,83159,1,0,0:0:0:25:hihat.wav
329,192,83238,128,0,83422:0:0:0:65:jingle.wav
109,192,83264,1,0,0:0:0:25:hihat.wav
109,192,83396,1,0,0:0:0:25:hihat.wav
182,192,83422,128,0,83685:0:0:0:65:jingle.wav
36,192,83528,1,0,0:0:0:80:kick1.wav
329,192,83528,1,0,0:0:0:25:hihat.wav
402,192,83528,1,0,0:0:0:0:
475,192,83528,1,0,0:0:0:0:
329,192,83659,1,0,0:0:0:25:hihat.wav
475,192,83659,1,0,0:0:0:0:
402,192,83659,1,0,0:0:0:80:kick1.wav
109,192,83685,128,0,83922:0:0:0:65:jingle.wav
256,192,83791,1,0,0:0:0:80:kick1.wav
402,192,83791,1,0,0:0:0:25:hihat.wav
475,192,83791,1,0,0:0:0:0:
256,192,83896,1,0,0:0:0:25:hihat.wav
36,192,83922,128,0,84580:0:0:0:80:kick1.wav
182,192,83922,1,0,0:0:0:65:jingle.wav
402,192,83922,1,0,0:0:0:0:
475,192,83922,1,0,0:0:0:0:
329,192,84001,1,0,0:0:0:25:hihat.wav
109,192,84028,1,0,0:0:0:0:
329,192,84080,1,0,0:0:0:25:hihat.wav
109,192,84159,1,0,0:0:0:25:hihat.wav
256,192,84159,1,0,0:0:0:0:
475,192,84159,1,0,0:0:0:0:
475,192,84291,1,0,0:0:0:25:hihat.wav
256,192,84422,1,0,0:0:0:25:hihat.wav
256,192,84528,1,0,0:0:0:25:hihat.wav
182,192,84580,128,0,84791:0:0:0:65:jingle.wav
329,192,84633,1,0,0:0:0:25:hihat.wav
329,192,84712,1,0,0:0:0:25:hihat.wav
36,192,84791,1,0,0:0:0:80:kick1.wav
109,192,84791,1,0,0:0:0:65:jingle.wav
256,192,84791,1,0,0:0:0:25:hihat.wav
402,192,84791,128,0,85001:0:0:0:0:
475,192,84791,1,0,0:0:0:0:
36,192,84870,1,0,0:0:0:25:hihat.wav
182,192,84949,1,0,0:0:0:25:hihat.wav
475,192,85001,128,0,85080:0:0:0:65:jingle.wav
182,192,85054,1,0,0:0:0:25:hihat.wav
109,192,85080,128,0,85212:0:0:0:65:jingle.wav
256,192,85159,1,0,0:0:0:25:hihat.wav
329,192,85185,1,0,0:0:0:80:kick1.wav
402,192,85185,1,0,0:0:0:0:
475,192,85185,1,0,0:0:0:0:
36,192,85212,128,0,85422:0:0:0:65:jingle.wav
256,192,85291,1,0,0:0:0:18:hihat.wav
182,192,85317,1,0,0:0:0:18:hihat.wav
109,192,85343,1,0,0:0:0:18:hihat.wav
475,192,85370,1,0,0:0:0:18:hihat.wav
402,192,85396,1,0,0:0:0:18:hihat.wav
182,192,85422,1,0,0:0:0:65:jingle.wav
256,192,85422,128,0,86054:0:0:0:25:hihat.wav
329,192,85422,1,0,0:0:0:0:
182,192,85501,1,0,0:0:0:25:hihat.wav
402,192,85580,1,0,0:0:0:25:hihat.wav
402,192,85685,1,0,0:0:0:25:hihat.wav
329,192,85791,1,0,0:0:0:25:hihat.wav
329,192,85922,1,0,0:0:0:25:hihat.wav
36,192,86054,1,0,0:0:0:80:kick1.wav
109,192,86054,1,0,0:0:0:65:jingle.wav
182,192,86054,128,0,86475:0:0:0:25:hihat.wav
402,192,86054,1,0,0:0:0:0:
475,192,86054,1,0,0:0:0:0:
36,192,86133,1,0,0:0:0:80:kick1.wav
109,192,86133,1,0,0:0:0:0:
475,192,86185,1,0,0:0:0:25:hihat.wav
256,192,86212,1,0,0:0:0:80:kick1.wav
329,192,86212,1,0,0:0:0:0:
256,192,86291,1,0,0:0:0:80:kick1.wav
329,192,86291,1,0,0:0:0:0:
109,192,86317,1,0,0:0:0:25:hihat.wav
402,192,86370,1,0,0:0:0:80:kick1.wav
475,192,86370,1,0,0:0:0:0:
109,192,86422,1,0,0:0:0:25:hihat.wav
256,192,86449,1,0,0:0:0:80:kick1.wav
402,192,86449,1,0,0:0:0:0:
475,192,86449,1,0,0:0:0:0:
329,192,86475,128,0,86791:0:0:0:65:jingle.wav
36,192,86528,1,0,0:0:0:25:hihat.wav
182,192,86554,1,0,0:0:0:0:
36,192,86606,1,0,0:0:0:25:hihat.wav
109,192,86685,1,0,0:0:0:25:hihat.wav
182,192,86685,1,0,0:0:0:0:
402,192,86685,1,0,0:0:0:0:
475,192,86791,128,0,87106:0:0:0:65:jingle.wav
109,192,86817,1,0,0:0:0:25:hihat.wav
182,192,86949,1,0,0:0:0:25:hihat.wav
182,192,87054,1,0,0:0:0:25:hihat.wav
36,192,87106,128,0,87633:0:0:0:65:jingle.wav
256,192,87159,1,0,0:0:0:25:hihat.wav
256,192,87238,1,0,0:0:0:25:hihat.wav
109,192,87317,1,0,0:0:0:80:kick1.wav
182,192,87317,1,0,0:0:0:25:hihat.wav
329,192,87317,1,0,0:0:0:0:
475,192,87317,1,0,0:0:0:0:
329,192,87396,1,0,0:0:0:25:hihat.wav
109,192,87475,1,0,0:0:0:80:kick1.wav
182,192,87475,1,0,0:0:0:25:hihat.wav
402,192,87475,1,0,0:0:0:0:
475,192,87475,1,0,0:0:0:0:
402,192,87580,1,0,0:0:0:25:hihat.wav
182,192,87633,128,0,88580:0:0:0:65:jingle.wav
329,192,87633,128,0,88580:0:0:0:0:
475,192,87685,1,0,0:0:0:25:hihat.wav
36,192,87712,1,0,0:0:0:80:kick1.wav
109,192,87712,1,0,0:0:0:0:
256,192,87712,1,0,0:0:0:0:
475,192,87817,1,0,0:0:0:25:hihat.wav
36,192,87949,128,0,90422:0:0:0:50:kick2.wav
475,192,87949,128,0,90422:0:0:0:0:
109,192,88580,128,0,89791:0:0:0:65:kick2.wav
256,192,88580,128,0,89212:0:0:0:0:
402,192,88580,128,0,89791:0:0:0:0:
182,192,89212,128,0,89791:0:0:0:0:
329,192,89212,128,0,89791:0:0:0:0:
109,192,89843,128,0,90422:0:0:0:80:kick1.wav
182,192,89843,128,0,90422:0:0:0:65:kick2.wav
256,192,89843,128,0,90422:0:0:0:0:
329,192,89843,128,0,90422:0:0:0:0:
402,192,89843,128,0,90422:0:0:0:0:
36,192,90475,1,0,0:0:0:80:kick1.wav
109,192,90475,1,0,0:0:0:65:kick2.wav
182,192,90475,1,0,0:0:0:90:clap.wav
256,192,90475,1,0,0:0:0:0:
329,192,90475,1,0,0:0:0:0:
402,192,90475,1,0,0:0:0:0:
475,192,90475,1,0,3:0:0:0:
182,192,90949,1,0,0:0:0:30:clap.wav
329,192,91106,128,0,91317:0:0:0:50:clap.wav
256,192,99949,132,0,100580:3:0:0:0:
36,192,100580,128,0,101159:0:0:0:80:kick1.wav
109,192,100580,128,0,101159:0:0:0:65:kick2.wav
182,192,100580,128,0,101159:0:0:0:0:
329,192,100580,128,0,101159:0:0:0:0:
402,192,100580,128,0,101159:0:0:0:0:
475,192,100580,128,0,101159:3:0:0:0:
256,192,101212,1,0,0:0:0:0:
475,192,101212,1,0,0:0:0:0:
109,192,101317,1,0,0:0:0:0:
329,192,101317,1,0,0:0:0:0:
36,192,101422,1,0,0:0:0:0:
109,192,101422,1,0,0:0:0:0:
256,192,101528,1,0,0:0:0:0:
402,192,101528,1,0,0:0:0:0:
36,192,101633,1,0,0:0:0:0:
329,192,101633,1,0,0:0:0:0:
182,192,101738,1,0,0:0:0:0:
329,192,101738,1,0,0:0:0:0:
109,192,101843,1,0,0:0:0:0:
256,192,101843,1,0,0:0:0:0:
182,192,101949,1,0,0:0:0:0:
475,192,101949,1,0,0:0:0:0:
182,192,102054,1,0,0:0:0:0:
329,192,102054,1,0,0:0:0:0:
36,192,102159,1,0,0:0:0:0:
256,192,102159,1,0,0:0:0:0:
182,192,102264,1,0,0:0:0:0:
402,192,102264,1,0,0:0:0:0:
402,192,102370,1,0,0:0:0:0:
475,192,102370,1,0,0:0:0:0:
36,192,102475,1,0,0:0:0:0:
256,192,102475,1,0,0:0:0:0:
256,192,102580,1,0,0:0:0:0:
475,192,102580,1,0,0:0:0:0:
182,192,102685,1,0,0:0:0:0:
329,192,102685,1,0,0:0:0:0:
182,192,102791,1,0,0:0:0:0:
329,192,102791,1,0,0:0:0:0:
109,192,102896,1,0,0:0:0:0:
402,192,102896,1,0,0:0:0:0:
109,192,103001,1,0,0:0:0:0:
402,192,103001,1,0,0:0:0:0:
36,192,103106,128,0,103685:0:0:0:80:kick1.wav
182,192,103106,128,0,103685:0:0:0:65:kick2.wav
256,192,103106,128,0,103685:0:0:0:0:
329,192,103106,128,0,103685:0:0:0:0:
475,192,103106,128,0,103685:3:0:0:0:
182,192,103738,1,0,0:0:0:0:
329,192,103738,1,0,0:0:0:0:
109,192,103843,1,0,0:0:0:0:
402,192,103843,1,0,0:0:0:0:
109,192,103949,1,0,0:0:0:0:
256,192,103949,1,0,0:0:0:0:
36,192,104054,1,0,0:0:0:0:
329,192,104054,1,0,0:0:0:0:
182,192,104159,1,0,0:0:0:0:
402,192,104159,1,0,0:0:0:0:
256,192,104264,1,0,0:0:0:0:
402,192,104264,1,0,0:0:0:0:
36,192,104370,1,0,0:0:0:0:
475,192,104370,1,0,0:0:0:0:
36,192,104475,1,0,0:0:0:0:
475,192,104475,1,0,0:0:0:0:
182,192,104580,1,0,0:0:0:0:
329,192,104580,1,0,0:0:0:0:
36,192,104685,1,0,0:0:0:0:
475,192,104685,1,0,0:0:0:0:
36,192,104791,1,0,0:0:0:0:
475,192,104791,1,0,0:0:0:0:
182,192,104896,1,0,0:0:0:0:
329,192,104896,1,0,0:0:0:0:
109,192,105001,1,0,0:0:0:0:
256,192,105001,1,0,0:0:0:0:
256,192,105106,1,0,0:0:0:0:
402,192,105106,1,0,0:0:0:0:
36,192,105212,1,0,0:0:0:0:
475,192,105212,1,0,0:0:0:0:
182,192,105317,1,0,0:0:0:0:
329,192,105317,1,0,0:0:0:0:
109,192,105422,1,0,0:0:0:0:
402,192,105422,1,0,0:0:0:0:
182,192,105475,1,0,0:0:0:0:
329,192,105475,1,0,0:0:0:0:
109,192,105528,1,0,0:0:0:0:
402,192,105528,1,0,0:0:0:0:
182,192,105580,1,0,0:0:0:0:
329,192,105580,1,0,0:0:0:0:
36,192,105633,128,0,106212:0:0:0:80:kick1.wav
109,192,105633,128,0,106212:0:0:0:65:kick2.wav
256,192,105633,128,0,106212:0:0:0:0:
402,192,105633,128,0,106212:0:0:0:0:
475,192,105633,128,0,106212:3:0:0:0:
329,192,106264,1,0,0:0:0:0:
475,192,106264,1,0,0:0:0:0:
182,192,106370,1,0,0:0:0:0:
475,192,106370,1,0,0:0:0:0:
36,192,106475,1,0,0:0:0:0:
329,192,106475,1,0,0:0:0:0:
182,192,106580,1,0,0:0:0:0:
475,192,106580,1,0,0:0:0:0:
36,192,106685,1,0,0:0:0:0:
329,192,106685,1,0,0:0:0:0:
36,192,106791,1,0,0:0:0:0:
182,192,106791,1,0,0:0:0:0:
256,192,106896,1,0,0:0:0:0:
402,192,106896,1,0,0:0:0:0:
109,192,107001,1,0,0:0:0:0:
256,192,107001,1,0,0:0:0:0:
36,192,107106,1,0,0:0:0:0:
329,192,107106,1,0,0:0:0:0:
36,192,107212,1,0,0:0:0:0:
329,192,107212,1,0,0:0:0:0:
182,192,107317,1,0,0:0:0:0:
475,192,107317,1,0,0:0:0:0:
182,192,107422,1,0,0:0:0:0:
475,192,107422,1,0,0:0:0:0:
256,192,107528,1,0,0:0:0:0:
402,192,107528,1,0,0:0:0:0:
109,192,107633,1,0,0:0:0:0:
256,192,107633,1,0,0:0:0:0:
36,192,107738,1,0,0:0:0:0:
329,192,107738,1,0,0:0:0:0:
182,192,107843,1,0,0:0:0:0:
475,192,107843,1,0,0:0:0:0:
109,192,107949,1,0,0:0:0:0:
256,192,107949,1,0,0:0:0:0:
256,192,108054,1,0,0:0:0:0:
402,192,108054,1,0,0:0:0:0:
36,192,108159,128,0,108317:0:0:0:80:kick1.wav
109,192,108159,128,0,108317:0:0:0:65:kick2.wav
182,192,108159,128,0,108317:0:0:0:0:
329,192,108159,128,0,108317:0:0:0:0:
475,192,108159,128,0,108317:3:0:0:0:
256,192,108370,1,0,0:0:0:0:
402,192,108370,1,0,0:0:0:0:
182,192,108475,1,0,0:0:0:0:
475,192,108475,1,0,0:0:0:0:
329,192,108580,1,0,0:0:0:0:
475,192,108580,1,0,0:0:0:0:
36,192,108685,1,0,0:0:0:0:
182,192,108685,1,0,0:0:0:0:
36,192,108791,1,0,0:0:0:0:
329,192,108791,1,0,0:0:0:0:
36,192,108896,128,0,109054:0:0:0:80:kick1.wav
109,192,108896,128,0,109054:0:0:0:65:kick2.wav
256,192,108896,128,0,109054:0:0:0:0:
402,192,108896,128,0,109054:0:0:0:0:
475,192,108896,128,0,109054:3:0:0:0:
36,192,109106,1,0,0:0:0:0:
182,192,109106,1,0,0:0:0:0:
182,192,109212,1,0,0:0:0:0:
329,192,109212,1,0,0:0:0:0:
329,192,109317,1,0,0:0:0:0:
475,192,109317,1,0,0:0:0:0:
36,192,109422,128,0,109685:0:0:0:80:kick1.wav
182,192,109422,128,0,109685:0:0:0:65:kick2.wav
256,192,109422,128,0,109685:0:0:0:0:
402,192,109422,128,0,109685:0:0:0:0:
475,192,109422,128,0,109685:3:0:0:0:
36,192,109738,128,0,110001:0:0:0:80:kick1.wav
109,192,109738,128,0,110001:0:0:0:65:kick2.wav
256,192,109738,128,0,110001:0:0:0:0:
329,192,109738,128,0,110001:0:0:0:0:
475,192,109738,128,0,110001:3:0:0:0:
36,192,110054,128,0,110212:0:0:0:80:kick1.wav
182,192,110054,128,0,110212:0:0:0:65:kick2.wav
329,192,110054,128,0,110212:0:0:0:0:
402,192,110054,128,0,110212:0:0:0:0:
475,192,110054,128,0,110212:3:0:0:0:
36,192,110264,128,0,110422:0:0:0:80:kick1.wav
109,192,110264,128,0,110422:0:0:0:65:kick2.wav
256,192,110264,128,0,110422:0:0:0:0:
402,192,110264,128,0,110422:0:0:0:0:
475,192,110264,128,0,110422:3:0:0:0:
36,192,110475,128,0,110633:0:0:0:80:kick1.wav
109,192,110475,128,0,110633:0:0:0:65:kick2.wav
182,192,110475,128,0,110633:0:0:0:0:
329,192,110475,128,0,110633:0:0:0:0:
475,192,110475,128,0,110633:3:0:0:0:
36,192,110685,128,0,111264:0:0:0:80:kick1.wav
109,192,110685,1,0,0:0:0:65:kick2.wav
182,192,110685,128,0,111264:0:0:0:80:clap.wav
256,192,110685,128,0,111264:0:0:0:0:
329,192,110685,1,0,0:0:0:0:
402,192,110685,128,0,111264:0:0:0:0:
475,192,110685,128,0,111264:3:0:0:0:
36,192,111317,1,0,0:0:0:80:kick1.wav
182,192,111317,1,0,0:0:0:0:
329,192,111317,1,0,0:0:0:0:
475,192,111317,1,0,3:0:0:0:
109,192,111422,1,0,0:0:0:0:
256,192,111422,1,0,0:0:0:0:
402,192,111422,1,0,3:0:0:0:
109,192,111528,1,0,0:0:0:0:
182,192,111528,1,0,0:0:0:0:
329,192,111528,1,0,3:0:0:0:
36,192,111633,1,0,0:0:0:0:
256,192,111633,1,0,0:0:0:0:
475,192,111633,1,0,3:0:0:0:
182,192,111738,1,0,0:0:0:0:
329,192,111738,1,0,0:0:0:0:
402,192,111738,1,0,3:0:0:0:
109,192,111843,1,0,0:0:0:0:
256,192,111843,1,0,0:0:0:0:
402,192,111843,1,0,3:0:0:0:
36,192,111949,1,0,0:0:0:80:kick1.wav
182,192,111949,1,0,0:0:0:0:
329,192,111949,1,0,0:0:0:0:
475,192,111949,1,0,3:0:0:0:
109,192,112054,1,0,0:0:0:0:
256,192,112054,1,0,0:0:0:0:
402,192,112054,1,0,3:0:0:0:
36,192,112159,1,0,0:0:0:0:
256,192,112159,1,0,0:0:0:0:
329,192,112159,1,0,3:0:0:0:
182,192,112264,1,0,0:0:0:0:
402,192,112264,1,0,0:0:0:0:
475,192,112264,1,0,3:0:0:0:
36,192,112370,1,0,0:0:0:0:
109,192,112370,1,0,0:0:0:0:
256,192,112370,1,0,3:0:0:0:
182,192,112475,1,0,0:0:0:0:
329,192,112475,1,0,0:0:0:0:
402,192,112475,1,0,3:0:0:0:
109,192,112528,1,0,0:0:0:0:
256,192,112528,1,0,3:0:0:0:
36,192,112580,1,0,0:0:0:80:kick1.wav
182,192,112580,1,0,0:0:0:0:
402,192,112580,1,0,0:0:0:0:
475,192,112580,1,0,3:0:0:0:
109,192,112685,1,0,0:0:0:0:
256,192,112685,1,0,0:0:0:0:
329,192,112685,1,0,3:0:0:0:
36,192,112791,1,0,0:0:0:0:
182,192,112791,1,0,0:0:0:0:
329,192,112791,1,0,3:0:0:0:
109,192,112896,1,0,0:0:0:0:
256,192,112896,1,0,0:0:0:0:
402,192,112896,1,0,3:0:0:0:
182,192,113001,1,0,0:0:0:0:
329,192,113001,1,0,0:0:0:0:
475,192,113001,1,0,3:0:0:0:
182,192,113106,1,0,0:0:0:0:
256,192,113106,1,0,0:0:0:0:
402,192,113106,1,0,3:0:0:0:
36,192,113212,128,0,113791:0:0:0:80:kick1.wav
109,192,113212,128,0,113791:0:0:0:65:kick2.wav
256,192,113212,128,0,113791:0:0:0:80:clap.wav
329,192,113212,128,0,113791:0:0:0:0:
475,192,113212,128,0,113791:3:0:0:0:
36,192,113843,1,0,0:0:0:80:kick1.wav
109,192,113843,1,0,0:0:0:0:
182,192,113843,1,0,0:0:0:0:
475,192,113843,1,0,3:0:0:0:
329,192,113896,1,0,0:0:0:0:
402,192,113896,1,0,3:0:0:0:
109,192,113949,1,0,0:0:0:0:
182,192,113949,1,0,3:0:0:0:
329,192,114001,1,0,0:0:0:0:
402,192,114001,1,0,3:0:0:0:
109,192,114054,1,0,0:0:0:0:
182,192,114054,1,0,3:0:0:0:
329,192,114106,1,0,0:0:0:0:
402,192,114106,1,0,3:0:0:0:
36,192,114159,1,0,0:0:0:0:
109,192,114159,1,0,0:0:0:0:
475,192,114159,1,0,3:0:0:0:
182,192,114264,1,0,0:0:0:0:
256,192,114264,1,0,0:0:0:0:
329,192,114264,1,0,3:0:0:0:
109,192,114370,1,0,0:0:0:0:
329,192,114370,1,0,0:0:0:0:
402,192,114370,1,0,3:0:0:0:
36,192,114475,1,0,0:0:0:80:kick1.wav
182,192,114475,1,0,0:0:0:0:
256,192,114475,1,0,0:0:0:0:
475,192,114475,1,0,3:0:0:0:
36,192,114580,1,0,0:0:0:0:
329,192,114580,1,0,0:0:0:0:
475,192,114580,1,0,3:0:0:0:
109,192,114685,1,0,0:0:0:0:
256,192,114685,1,0,0:0:0:0:
402,192,114685,1,0,3:0:0:0:
36,192,114791,1,0,0:0:0:0:
182,192,114791,1,0,0:0:0:0:
475,192,114791,1,0,3:0:0:0:
36,192,114896,1,0,0:0:0:0:
329,192,114896,1,0,0:0:0:0:
475,192,114896,1,0,3:0:0:0:
109,192,115001,1,0,0:0:0:0:
256,192,115001,1,0,0:0:0:0:
402,192,115001,1,0,3:0:0:0:
36,192,115106,1,0,0:0:0:80:kick1.wav
182,192,115106,1,0,0:0:0:0:
329,192,115106,1,0,0:0:0:0:
475,192,115106,1,0,3:0:0:0:
109,192,115212,1,0,0:0:0:0:
256,192,115212,1,0,0:0:0:0:
475,192,115212,1,0,3:0:0:0:
36,192,115317,1,0,0:0:0:0:
182,192,115317,1,0,0:0:0:0:
329,192,115317,1,0,3:0:0:0:
256,192,115370,1,0,0:0:0:0:
402,192,115370,1,0,3:0:0:0:
36,192,115422,1,0,0:0:0:0:
329,192,115422,1,0,0:0:0:0:
475,192,115422,1,0,3:0:0:0:
109,192,115528,1,0,0:0:0:0:
256,192,115528,1,0,0:0:0:0:
402,192,115528,1,0,3:0:0:0:
182,192,115580,1,0,0:0:0:0:
329,192,115580,1,0,3:0:0:0:
109,192,115633,1,0,0:0:0:0:
402,192,115633,1,0,3:0:0:0:
182,192,115685,1,0,0:0:0:0:
329,192,115685,1,0,3:0:0:0:
36,192,115738,128,0,116317:0:0:0:80:kick1.wav
109,192,115738,128,0,116317:0:0:0:65:kick2.wav
256,192,115738,128,0,116317:0:0:0:80:clap.wav
402,192,115738,128,0,116317:0:0:0:0:
475,192,115738,128,0,116317:3:0:0:0:
36,192,116370,1,0,0:0:0:80:kick1.wav
109,192,116370,1,0,0:0:0:0:
182,192,116370,1,0,0:0:0:0:
329,192,116370,1,0,3:0:0:0:
402,192,116422,1,0,0:0:0:0:
475,192,116422,1,0,3:0:0:0:
36,192,116475,1,0,0:0:0:0:
109,192,116475,1,0,3:0:0:0:
402,192,116528,1,0,0:0:0:0:
475,192,116528,1,0,3:0:0:0:
36,192,116580,1,0,0:0:0:0:
109,192,116580,1,0,3:0:0:0:
402,192,116633,1,0,0:0:0:0:
475,192,116633,1,0,3:0:0:0:
182,192,116685,1,0,0:0:0:0:
256,192,116685,1,0,0:0:0:0:
329,192,116685,1,0,3:0:0:0:
109,192,116791,1,0,0:0:0:0:
329,192,116791,1,0,0:0:0:0:
402,192,116791,1,0,3:0:0:0:
36,192,116896,1,0,0:0:0:0:
109,192,116896,1,0,0:0:0:0:
256,192,116896,1,0,3:0:0:0:
182,192,117001,1,0,0:0:0:80:kick1.wav
329,192,117001,1,0,0:0:0:0:
402,192,117001,1,0,0:0:0:0:
475,192,117001,1,0,3:0:0:0:
36,192,117106,1,0,0:0:0:0:
329,192,117106,1,0,0:0:0:0:
402,192,117106,1,0,3:0:0:0:
109,192,117212,1,0,0:0:0:0:
182,192,117212,1,0,0:0:0:0:
256,192,117212,1,0,3:0:0:0:
109,192,117317,1,0,0:0:0:0:
182,192,117317,1,0,0:0:0:0:
402,192,117317,1,0,3:0:0:0:
256,192,117422,1,0,0:0:0:0:
329,192,117422,1,0,0:0:0:0:
475,192,117422,1,0,3:0:0:0:
36,192,117475,1,0,0:0:0:0:
182,192,117475,1,0,3:0:0:0:
329,192,117528,1,0,0:0:0:0:
475,192,117528,1,0,3:0:0:0:
36,192,117580,1,0,0:0:0:0:
182,192,117580,1,0,3:0:0:0:
109,192,117633,1,0,0:0:0:80:kick1.wav
256,192,117633,1,0,0:0:0:0:
402,192,117633,1,0,0:0:0:0:
475,192,117633,1,0,3:0:0:0:
182,192,117738,1,0,0:0:0:0:
329,192,117738,1,0,0:0:0:0:
402,192,117738,1,0,3:0:0:0:
36,192,117843,1,0,0:0:0:0:
109,192,117843,1,0,0:0:0:0:
256,192,117843,1,0,3:0:0:0:
109,192,117949,1,0,0:0:0:0:
182,192,117949,1,0,0:0:0:0:
329,192,117949,1,0,3:0:0:0:
256,192,118054,1,0,0:0:0:0:
402,192,118054,1,0,0:0:0:0:
475,192,118054,1,0,3:0:0:0:
36,192,118159,1,0,0:0:0:0:
109,192,118159,1,0,0:0:0:0:
256,192,118159,1,0,3:0:0:0:
402,192,118212,1,0,0:0:0:0:
475,192,118212,1,0,3:0:0:0:
36,192,118264,128,0,118422:0:0:0:80:kick1.wav
109,192,118264,128,0,118422:0:0:0:65:kick2.wav
182,192,118264,128,0,118422:0:0:0:80:clap.wav
256,192,118264,128,0,118422:0:0:0:0:
329,192,118264,128,0,118422:3:0:0:0:
182,192,118475,1,0,0:0:0:0:
402,192,118475,1,0,0:0:0:0:
475,192,118475,1,0,3:0:0:0:
36,192,118580,1,0,0:0:0:0:
109,192,118580,1,0,0:0:0:0:
329,192,118580,1,0,3:0:0:0:
109,192,118685,1,0,0:0:0:0:
329,192,118685,1,0,0:0:0:0:
475,192,118685,1,0,3:0:0:0:
36,192,118791,1,0,0:0:0:0:
182,192,118791,1,0,0:0:0:0:
402,192,118791,1,0,3:0:0:0:
182,192,118896,1,0,0:0:0:80:kick1.wav
329,192,118896,1,0,0:0:0:0:
402,192,118896,1,0,0:0:0:0:
475,192,118896,1,0,3:0:0:0:
36,192,118949,1,0,0:0:0:0:
109,192,118949,1,0,3:0:0:0:
182,192,119001,128,0,119159:0:0:0:80:clap.wav
256,192,119001,128,0,119159:0:0:0:0:
329,192,119001,128,0,119159:0:0:0:0:
402,192,119001,128,0,119159:0:0:0:0:
475,192,119001,128,0,119159:3:0:0:0:
109,192,119212,1,0,0:0:0:0:
182,192,119212,1,0,0:0:0:0:
256,192,119212,1,0,3:0:0:0:
329,192,119264,1,0,0:0:0:0:
402,192,119264,1,0,3:0:0:0:
109,192,119317,1,0,0:0:0:0:
182,192,119317,1,0,3:0:0:0:
329,192,119370,1,0,0:0:0:0:
402,192,119370,1,0,3:0:0:0:
109,192,119422,1,0,0:0:0:0:
182,192,119422,1,0,3:0:0:0:
329,192,119475,1,0,0:0:0:0:
402,192,119475,1,0,3:0:0:0:
36,192,119528,128,0,119791:0:0:0:80:kick1.wav
109,192,119528,128,0,119791:0:0:0:65:kick2.wav
182,192,119528,128,0,119791:0:0:0:80:clap.wav
256,192,119528,128,0,119791:0:0:0:0:
475,192,119528,128,0,119791:3:0:0:0:
36,192,119843,128,0,120106:0:0:0:80:kick1.wav
256,192,119843,128,0,120106:0:0:0:65:kick2.wav
329,192,119843,128,0,120106:0:0:0:80:clap.wav
402,192,119843,128,0,120106:0:0:0:0:
475,192,119843,128,0,120106:3:0:0:0:
36,192,120159,128,0,120317:0:0:0:80:kick1.wav
109,192,120159,128,0,120317:0:0:0:65:kick2.wav
256,192,120159,128,0,120317:0:0:0:80:clap.wav
402,192,120159,128,0,120317:0:0:0:0:
475,192,120159,128,0,120317:3:0:0:0:
109,192,120370,128,0,120528:0:0:0:80:kick1.wav
182,192,120370,128,0,120528:0:0:0:65:kick2.wav
256,192,120370,128,0,120528:0:0:0:80:clap.wav
329,192,120370,128,0,120528:0:0:0:0:
402,192,120370,128,0,120528:3:0:0:0:
36,192,120580,128,0,120685:0:0:0:80:kick1.wav
182,192,120580,128,0,120685:0:0:0:65:kick2.wav
256,192,120580,128,0,120685:0:0:0:80:clap.wav
329,192,120580,128,0,120685:0:0:0:0:
475,192,120580,128,0,120685:3:0:0:0:
109,192,120685,1,0,0:0:0:80:kick1.wav
402,192,120685,1,0,3:0:0:0:
36,192,120791,128,0,121370:0:0:0:80:kick1.wav
109,192,120791,128,0,121370:0:0:0:65:kick2.wav
182,192,120791,1,0,0:0:0:80:clap.wav
256,192,120791,128,0,121370:0:0:0:0:
329,192,120791,1,0,0:0:0:0:
402,192,120791,128,0,121370:0:0:0:0:
475,192,120791,128,0,121370:3:0:0:0:
182,192,121212,1,0,0:0:0:80:kick1.wav
329,192,121212,1,0,3:0:0:0:
109,192,121422,1,0,0:0:0:65:jingle.wav
182,192,121422,1,0,0:0:0:0:
256,192,121422,1,0,3:0:0:0:
329,192,121475,1,0,0:0:0:0:
402,192,121475,1,0,3:0:0:0:
109,192,121528,1,0,0:0:0:65:jingle.wav
182,192,121528,1,0,3:0:0:0:
329,192,121580,1,0,0:0:0:0:
402,192,121580,1,0,3:0:0:0:
36,192,121633,1,0,0:0:0:80:kick1.wav
109,192,121633,1,0,0:0:0:65:jingle.wav
256,192,121633,1,0,0:0:0:0:
475,192,121633,1,0,3:0:0:0:
109,192,121738,1,0,0:0:0:65:jingle.wav
182,192,121738,1,0,0:0:0:0:
329,192,121738,1,0,3:0:0:0:
36,192,121843,1,0,0:0:0:0:
402,192,121843,1,0,3:0:0:0:
475,192,121843,1,0,0:0:0:0:
109,192,121949,1,0,0:0:0:65:jingle.wav
256,192,121949,1,0,0:0:0:0:
329,192,121949,1,0,3:0:0:0:
36,192,122054,1,0,0:0:0:80:kick1.wav
182,192,122054,1,0,0:0:0:65:jingle.wav
329,192,122054,1,0,0:0:0:0:
475,192,122054,1,0,3:0:0:0:
256,192,122159,1,0,0:0:0:65:jingle.wav
329,192,122159,1,0,0:0:0:0:
402,192,122159,1,0,3:0:0:0:
109,192,122212,1,0,0:0:0:0:
182,192,122212,1,0,3:0:0:0:
36,192,122264,1,0,0:0:0:0:
402,192,122264,1,0,0:0:0:0:
475,192,122264,1,0,3:0:0:0:
182,192,122370,1,0,0:0:0:65:jingle.wav
256,192,122370,1,0,0:0:0:0:
329,192,122370,1,0,3:0:0:0:
36,192,122475,1,0,0:0:0:80:kick1.wav
109,192,122475,1,0,0:0:0:65:jingle.wav
182,192,122475,1,0,0:0:0:0:
402,192,122475,1,0,3:0:0:0:
182,192,122580,1,0,0:0:0:65:jingle.wav
329,192,122580,1,0,0:0:0:0:
475,192,122580,1,0,3:0:0:0:
36,192,122685,1,0,0:0:0:0:
256,192,122685,1,0,0:0:0:0:
402,192,122685,1,0,3:0:0:0:
109,192,122791,1,0,0:0:0:65:jingle.wav
329,192,122791,1,0,0:0:0:0:
475,192,122791,1,0,3:0:0:0:
36,192,122896,1,0,0:0:0:80:kick1.wav
182,192,122896,1,0,0:0:0:65:jingle.wav
256,192,122896,1,0,0:0:0:0:
402,192,122896,1,0,3:0:0:0:
109,192,123001,1,0,0:0:0:65:jingle.wav
329,192,123001,1,0,0:0:0:0:
402,192,123001,1,0,3:0:0:0:
182,192,123106,1,0,0:0:0:65:jingle.wav
402,192,123106,1,0,0:0:0:0:
475,192,123106,1,0,3:0:0:0:
109,192,123212,1,0,0:0:0:65:jingle.wav
256,192,123212,1,0,0:0:0:0:
402,192,123212,1,0,3:0:0:0:
36,192,123317,128,0,123896:0:0:0:80:kick1.wav
182,192,123317,128,0,123896:0:0:0:65:kick2.wav
256,192,123317,128,0,123896:0:0:0:80:clap.wav
329,192,123317,128,0,123896:0:0:0:0:
475,192,123317,128,0,123896:3:0:0:0:
109,192,123738,1,0,0:0:0:80:kick1.wav
402,192,123738,1,0,3:0:0:0:
36,192,123949,1,0,0:0:0:65:jingle.wav
182,192,123949,1,0,0:0:0:0:
329,192,123949,1,0,3:0:0:0:
36,192,124054,1,0,0:0:0:65:jingle.wav
256,192,124054,1,0,0:0:0:0:
402,192,124054,1,0,3:0:0:0:
36,192,124159,1,0,0:0:0:80:kick1.wav
182,192,124159,1,0,0:0:0:65:jingle.wav
329,192,124159,1,0,0:0:0:0:
475,192,124159,1,0,3:0:0:0:
36,192,124264,1,0,0:0:0:65:jingle.wav
109,192,124264,1,0,0:0:0:0:
256,192,124264,1,0,3:0:0:0:
182,192,124317,1,0,0:0:0:0:
329,192,124317,1,0,3:0:0:0:
256,192,124370,1,0,0:0:0:0:
402,192,124370,1,0,0:0:0:0:
475,192,124370,1,0,3:0:0:0:
109,192,124475,1,0,0:0:0:65:jingle.wav
182,192,124475,1,0,0:0:0:0:
329,192,124475,1,0,3:0:0:0:
36,192,124580,1,0,0:0:0:80:kick1.wav
256,192,124580,1,0,0:0:0:65:jingle.wav
402,192,124580,1,0,0:0:0:0:
475,192,124580,1,0,3:0:0:0:
109,192,124685,1,0,0:0:0:65:jingle.wav
182,192,124685,1,0,0:0:0:0:
475,192,124685,1,0,3:0:0:0:
329,192,124738,1,0,0:0:0:0:
402,192,124738,1,0,3:0:0:0:
109,192,124791,1,0,0:0:0:0:
182,192,124791,1,0,3:0:0:0:
329,192,124843,1,0,0:0:0:0:
402,192,124843,1,0,3:0:0:0:
109,192,124896,1,0,0:0:0:65:jingle.wav
182,192,124896,1,0,3:0:0:0:
329,192,124949,1,0,0:0:0:0:
402,192,124949,1,0,3:0:0:0:
36,192,125001,1,0,0:0:0:80:kick1.wav
182,192,125001,1,0,0:0:0:65:jingle.wav
256,192,125001,1,0,0:0:0:0:
475,192,125001,1,0,3:0:0:0:
36,192,125106,1,0,0:0:0:65:jingle.wav
109,192,125106,1,0,0:0:0:0:
402,192,125106,1,0,3:0:0:0:
182,192,125212,1,0,0:0:0:0:
329,192,125212,1,0,0:0:0:0:
475,192,125212,1,0,3:0:0:0:
109,192,125317,1,0,0:0:0:65:jingle.wav
256,192,125317,1,0,0:0:0:0:
402,192,125317,1,0,3:0:0:0:
36,192,125422,1,0,0:0:0:80:kick1.wav
182,192,125422,1,0,0:0:0:65:jingle.wav
329,192,125422,1,0,0:0:0:0:
475,192,125422,1,0,3:0:0:0:
109,192,125528,1,0,0:0:0:65:jingle.wav
256,192,125528,1,0,0:0:0:0:
475,192,125528,1,0,3:0:0:0:
36,192,125633,1,0,0:0:0:65:jingle.wav
402,192,125633,1,0,0:0:0:0:
475,192,125633,1,0,3:0:0:0:
182,192,125685,1,0,0:0:0:0:
329,192,125685,1,0,3:0:0:0:
36,192,125738,1,0,0:0:0:65:jingle.wav
475,192,125738,1,0,3:0:0:0:
182,192,125791,1,0,0:0:0:0:
329,192,125791,1,0,3:0:0:0:
36,192,125843,128,0,126422:0:0:0:80:kick1.wav
109,192,125843,128,0,126422:0:0:0:65:kick2.wav
256,192,125843,128,0,126422:0:0:0:80:clap.wav
402,192,125843,128,0,126422:0:0:0:0:
475,192,125843,128,0,126422:3:0:0:0:
182,192,126264,1,0,0:0:0:80:kick1.wav
329,192,126264,1,0,3:0:0:0:
36,192,126475,1,0,0:0:0:65:jingle.wav
109,192,126475,1,0,0:0:0:0:
182,192,126475,1,0,3:0:0:0:
329,192,126528,1,0,0:0:0:0:
475,192,126528,1,0,3:0:0:0:
36,192,126580,1,0,0:0:0:65:jingle.wav
182,192,126580,1,0,3:0:0:0:
329,192,126633,1,0,0:0:0:0:
475,192,126633,1,0,3:0:0:0:
109,192,126685,1,0,0:0:0:80:kick1.wav
182,192,126685,1,0,0:0:0:65:jingle.wav
256,192,126685,1,0,0:0:0:0:
402,192,126685,1,0,3:0:0:0:
182,192,126791,1,0,0:0:0:65:jingle.wav
329,192,126791,1,0,0:0:0:0:
475,192,126791,1,0,3:0:0:0:
36,192,126896,1,0,0:0:0:0:
256,192,126896,1,0,0:0:0:0:
402,192,126896,1,0,3:0:0:0:
109,192,127001,1,0,0:0:0:65:jingle.wav
182,192,127001,1,0,0:0:0:0:
329,192,127001,1,0,3:0:0:0:
36,192,127106,1,0,0:0:0:80:kick1.wav
109,192,127106,1,0,0:0:0:65:jingle.wav
256,192,127106,1,0,0:0:0:0:
402,192,127106,1,0,3:0:0:0:
109,192,127212,1,0,0:0:0:65:jingle.wav
329,192,127212,1,0,0:0:0:0:
475,192,127212,1,0,3:0:0:0:
36,192,127317,1,0,0:0:0:0:
182,192,127317,1,0,0:0:0:0:
256,192,127317,1,0,3:0:0:0:
109,192,127422,1,0,0:0:0:65:jingle.wav
329,192,127422,1,0,0:0:0:0:
402,192,127422,1,0,3:0:0:0:
182,192,127528,1,0,0:0:0:80:kick1.wav
256,192,127528,1,0,0:0:0:65:jingle.wav
402,192,127528,1,0,0:0:0:0:
475,192,127528,1,0,3:0:0:0:
36,192,127580,1,0,0:0:0:0:
109,192,127580,1,0,3:0:0:0:
402,192,127633,1,0,0:0:0:65:jingle.wav
475,192,127633,1,0,3:0:0:0:
36,192,127685,1,0,0:0:0:0:
109,192,127685,1,0,3:0:0:0:
182,192,127738,1,0,0:0:0:0:
329,192,127738,1,0,0:0:0:0:
475,192,127738,1,0,3:0:0:0:
109,192,127843,1,0,0:0:0:65:jingle.wav
256,192,127843,1,0,0:0:0:0:
402,192,127843,1,0,3:0:0:0:
36,192,127949,1,0,0:0:0:80:kick1.wav
182,192,127949,1,0,0:0:0:65:jingle.wav
329,192,127949,1,0,0:0:0:0:
475,192,127949,1,0,3:0:0:0:
109,192,128054,1,0,0:0:0:65:jingle.wav
329,192,128054,1,0,3:0:0:0:
256,192,128054,1,0,0:0:0:0:
36,192,128159,1,0,0:0:0:65:jingle.wav
329,192,128159,1,0,0:0:0:0:
475,192,128159,1,0,3:0:0:0:
109,192,128264,1,0,0:0:0:65:jingle.wav
329,192,128264,1,0,3:0:0:0:
182,192,128264,1,0,0:0:0:0:
36,192,128370,128,0,128528:0:0:0:80:kick1.wav
109,192,128370,128,0,128528:0:0:0:65:kick2.wav
256,192,128370,128,0,128528:0:0:0:80:clap.wav
402,192,128370,128,0,128528:0:0:0:0:
475,192,128370,128,0,128528:3:0:0:0:
36,192,128580,1,0,0:0:0:65:jingle.wav
182,192,128580,1,0,0:0:0:0:
329,192,128580,1,0,3:0:0:0:
109,192,128685,1,0,0:0:0:65:jingle.wav
256,192,128685,1,0,0:0:0:0:
402,192,128685,1,0,3:0:0:0:
36,192,128791,1,0,0:0:0:80:kick1.wav
109,192,128791,1,0,0:0:0:65:jingle.wav
402,192,128791,1,0,0:0:0:0:
475,192,128791,1,0,3:0:0:0:
182,192,128843,1,0,0:0:0:0:
329,192,128843,1,0,3:0:0:0:
36,192,128896,1,0,0:0:0:65:jingle.wav
256,192,128896,1,0,0:0:0:0:
475,192,128896,1,0,3:0:0:0:
109,192,129001,1,0,0:0:0:65:jingle.wav
256,192,129001,1,0,0:0:0:0:
402,192,129001,1,0,3:0:0:0:
36,192,129106,128,0,129212:0:0:0:80:clap.wav
182,192,129106,128,0,129212:0:0:0:0:
256,192,129106,128,0,129212:0:0:0:0:
329,192,129106,128,0,129212:0:0:0:0:
475,192,129106,128,0,129212:3:0:0:0:
109,192,129212,1,0,0:0:0:80:kick1.wav
402,192,129212,1,0,3:0:0:0:
36,192,129317,1,0,0:0:0:65:jingle.wav
182,192,129317,1,0,0:0:0:0:
256,192,129317,1,0,3:0:0:0:
329,192,129370,1,0,3:0:0:0:
475,192,129370,1,0,0:0:0:0:
36,192,129422,1,0,0:0:0:65:jingle.wav
182,192,129422,1,0,3:0:0:0:
329,192,129475,1,0,3:0:0:0:
475,192,129475,1,0,0:0:0:0:
36,192,129528,1,0,0:0:0:65:jingle.wav
182,192,129528,1,0,3:0:0:0:
329,192,129580,1,0,3:0:0:0:
475,192,129580,1,0,0:0:0:0:
36,192,129633,128,0,129896:0:0:0:80:kick1.wav
109,192,129633,128,0,129896:0:0:0:65:kick2.wav
182,192,129633,128,0,129896:0:0:0:80:clap.wav
256,192,129633,128,0,129896:0:0:0:0:
402,192,129633,128,0,129896:3:0:0:0:
109,192,129949,128,0,130212:0:0:0:80:kick1.wav
182,192,129949,128,0,130212:0:0:0:65:kick2.wav
256,192,129949,128,0,130212:0:0:0:80:clap.wav
329,192,129949,128,0,130212:0:0:0:0:
475,192,129949,128,0,130212:3:0:0:0:
109,192,130264,128,0,130422:0:0:0:80:kick1.wav
256,192,130264,128,0,130422:0:0:0:65:kick2.wav
329,192,130264,128,0,130422:0:0:0:80:clap.wav
402,192,130264,128,0,130422:0:0:0:0:
475,192,130264,128,0,130422:3:0:0:0:
36,192,130475,128,0,130633:0:0:0:80:kick1.wav
182,192,130475,128,0,130633:0:0:0:65:kick2.wav
256,192,130475,128,0,130633:0:0:0:80:clap.wav
329,192,130475,128,0,130633:0:0:0:0:
402,192,130475,128,0,130633:3:0:0:0:
36,192,130685,1,0,0:0:0:80:kick1.wav
109,192,130685,1,0,0:0:0:65:kick2.wav
256,192,130685,1,0,0:0:0:80:clap.wav
402,192,130685,1,0,0:0:0:0:
475,192,130685,1,0,3:0:0:0:
182,192,130738,1,0,0:0:0:80:kick1.wav
329,192,130738,1,0,3:0:0:0:
36,192,130791,1,0,0:0:0:80:kick1.wav
475,192,130791,1,0,3:0:0:0:
182,192,130843,1,0,0:0:0:80:kick1.wav
329,192,130843,1,0,3:0:0:0:
36,192,130896,128,0,131475:0:0:0:80:kick1.wav
109,192,130896,128,0,131475:0:0:0:65:kick2.wav
256,192,130896,128,0,131475:0:0:0:80:clap.wav
402,192,130896,128,0,131475:0:0:0:0:
475,192,130896,128,0,131475:3:0:0:0:
182,192,131212,1,0,0:0:0:80:kick1.wav
329,192,131212,1,0,0:0:0:80:clap.wav
36,192,131528,1,0,0:0:0:80:kick1.wav
182,192,131528,1,0,0:0:0:65:jingle.wav
402,192,131528,1,0,0:0:0:0:
475,192,131528,1,0,3:0:0:0:
109,192,131580,1,0,0:0:0:0:
256,192,131580,1,0,3:0:0:0:
182,192,131633,1,0,0:0:0:65:jingle.wav
329,192,131633,1,0,0:0:0:0:
475,192,131633,1,0,3:0:0:0:
109,192,131738,1,0,0:0:0:65:jingle.wav
256,192,131738,1,0,0:0:0:0:
475,192,131738,1,0,3:0:0:0:
36,192,131843,1,0,0:0:0:80:kick1.wav
182,192,131843,1,0,0:0:0:80:clap.wav
329,192,131843,1,0,0:0:0:65:jingle.wav
402,192,131843,1,0,0:0:0:0:
475,192,131843,1,0,3:0:0:0:
109,192,131949,1,0,0:0:0:0:
256,192,131949,1,0,0:0:0:0:
402,192,131949,1,0,3:0:0:0:
182,192,132054,1,0,0:0:0:65:jingle.wav
329,192,132054,1,0,0:0:0:0:
475,192,132054,1,0,3:0:0:0:
36,192,132159,1,0,0:0:0:80:kick1.wav
109,192,132159,1,0,0:0:0:65:jingle.wav
256,192,132159,1,0,0:0:0:0:
402,192,132159,1,0,3:0:0:0:
36,192,132264,1,0,0:0:0:65:jingle.wav
182,192,132264,1,0,0:0:0:0:
329,192,132264,1,0,3:0:0:0:
36,192,132370,1,0,0:0:0:65:jingle.wav
256,192,132370,1,0,0:0:0:0:
402,192,132370,1,0,3:0:0:0:
36,192,132475,1,0,0:0:0:80:kick1.wav
109,192,132475,1,0,0:0:0:80:clap.wav
182,192,132475,1,0,0:0:0:65:jingle.wav
329,192,132475,1,0,0:0:0:0:
475,192,132475,1,0,3:0:0:0:
109,192,132580,1,0,0:0:0:0:
256,192,132580,1,0,0:0:0:0:
402,192,132580,1,0,3:0:0:0:
36,192,132685,1,0,0:0:0:65:jingle.wav
182,192,132685,1,0,0:0:0:0:
329,192,132685,1,0,3:0:0:0:
109,192,132791,1,0,0:0:0:80:kick1.wav
256,192,132791,1,0,0:0:0:65:jingle.wav
329,192,132791,1,0,0:0:0:0:
402,192,132791,1,0,3:0:0:0:
36,192,132896,1,0,0:0:0:0:
182,192,132896,1,0,0:0:0:0:
475,192,132896,1,0,3:0:0:0:
329,192,132949,1,0,0:0:0:0:
402,192,132949,1,0,3:0:0:0:
109,192,133001,1,0,0:0:0:65:jingle.wav
182,192,133001,1,0,0:0:0:0:
256,192,133001,1,0,3:0:0:0:
36,192,133106,1,0,0:0:0:80:kick1.wav
109,192,133106,1,0,0:0:0:80:clap.wav
329,192,133106,1,0,0:0:0:65:jingle.wav
402,192,133106,1,0,0:0:0:0:
475,192,133106,1,0,3:0:0:0:
182,192,133212,1,0,0:0:0:65:jingle.wav
256,192,133212,1,0,0:0:0:0:
329,192,133212,1,0,3:0:0:0:
109,192,133317,1,0,0:0:0:65:jingle.wav
256,192,133317,1,0,0:0:0:0:
402,192,133317,1,0,3:0:0:0:
36,192,133422,128,0,134001:0:0:0:80:kick1.wav
182,192,133422,128,0,134001:0:0:0:65:kick2.wav
256,192,133422,128,0,134001:0:0:0:80:clap.wav
329,192,133422,128,0,134001:0:0:0:0:
475,192,133422,128,0,134001:3:0:0:0:
109,192,133738,1,0,0:0:0:80:kick1.wav
402,192,133738,1,0,0:0:0:80:clap.wav
36,192,134054,1,0,0:0:0:80:kick1.wav
109,192,134054,1,0,0:0:0:65:jingle.wav
182,192,134054,1,0,0:0:0:0:
475,192,134054,1,0,3:0:0:0:
329,192,134106,1,0,0:0:0:0:
402,192,134106,1,0,3:0:0:0:
109,192,134159,1,0,0:0:0:65:jingle.wav
182,192,134159,1,0,3:0:0:0:
329,192,134212,1,0,0:0:0:0:
402,192,134212,1,0,3:0:0:0:
109,192,134264,1,0,0:0:0:65:jingle.wav
182,192,134264,1,0,3:0:0:0:
329,192,134317,1,0,0:0:0:0:
402,192,134317,1,0,3:0:0:0:
36,192,134370,1,0,0:0:0:80:kick1.wav
109,192,134370,1,0,0:0:0:80:clap.wav
182,192,134370,1,0,0:0:0:65:jingle.wav
256,192,134370,1,0,3:0:0:0:
329,192,134422,1,0,0:0:0:0:
475,192,134422,1,0,3:0:0:0:
36,192,134475,1,0,0:0:0:0:
182,192,134475,1,0,3:0:0:0:
329,192,134528,1,0,0:0:0:0:
475,192,134528,1,0,3:0:0:0:
36,192,134580,1,0,0:0:0:65:jingle.wav
182,192,134580,1,0,3:0:0:0:
329,192,134633,1,0,0:0:0:0:
475,192,134633,1,0,3:0:0:0:
36,192,134685,1,0,0:0:0:80:kick1.wav
109,192,134685,1,0,0:0:0:65:jingle.wav
256,192,134685,1,0,0:0:0:0:
402,192,134685,1,0,3:0:0:0:
182,192,134791,1,0,0:0:0:65:jingle.wav
402,192,134791,1,0,0:0:0:0:
475,192,134791,1,0,3:0:0:0:
109,192,134896,1,0,0:0:0:65:jingle.wav
256,192,134896,1,0,0:0:0:0:
329,192,134896,1,0,3:0:0:0:
36,192,135001,1,0,0:0:0:80:kick1.wav
182,192,135001,1,0,0:0:0:80:clap.wav
256,192,135001,1,0,0:0:0:65:jingle.wav
402,192,135001,1,0,0:0:0:0:
475,192,135001,1,0,3:0:0:0:
36,192,135106,1,0,0:0:0:0:
109,192,135106,1,0,0:0:0:0:
329,192,135106,1,0,3:0:0:0:
182,192,135212,1,0,0:0:0:65:jingle.wav
256,192,135212,1,0,0:0:0:0:
402,192,135212,1,0,3:0:0:0:
36,192,135317,1,0,0:0:0:80:kick1.wav
109,192,135317,1,0,0:0:0:65:jingle.wav
329,192,135317,1,0,0:0:0:0:
475,192,135317,1,0,3:0:0:0:
256,192,135370,1,0,0:0:0:0:
402,192,135370,1,0,3:0:0:0:
36,192,135422,1,0,0:0:0:0:
182,192,135422,1,0,0:0:0:0:
329,192,135422,1,0,3:0:0:0:
109,192,135528,1,0,0:0:0:65:jingle.wav
256,192,135528,1,0,0:0:0:0:
402,192,135528,1,0,3:0:0:0:
36,192,135633,1,0,0:0:0:80:kick1.wav
182,192,135633,1,0,0:0:0:80:clap.wav
256,192,135633,1,0,0:0:0:65:jingle.wav
329,192,135633,1,0,0:0:0:0:
475,192,135633,1,0,3:0:0:0:
36,192,135738,1,0,0:0:0:65:jingle.wav
109,192,135738,1,0,0:0:0:0:
475,192,135738,1,0,3:0:0:0:
402,192,135764,1,0,3:0:0:0:
329,192,135791,1,0,3:0:0:0:
256,192,135817,1,0,3:0:0:0:
36,192,135843,1,0,3:0:0:0:
109,192,135870,1,0,3:0:0:0:
182,192,135896,1,0,3:0:0:0:
256,192,135922,1,0,3:0:0:0:
36,192,135949,128,0,136528:0:0:0:80:kick1.wav
109,192,135949,128,0,136528:0:0:0:65:kick2.wav
329,192,135949,1,0,0:0:0:80:clap.wav
402,192,135949,128,0,136528:0:0:0:0:
475,192,135949,128,0,136528:3:0:0:0:
182,192,136159,1,0,0:0:0:80:kick1.wav
329,192,136159,1,0,0:0:0:80:clap.wav
182,192,136370,1,0,0:0:0:80:kick1.wav
329,192,136370,1,0,3:0:0:0:
36,192,136580,1,0,0:0:0:80:kick1.wav
182,192,136580,1,0,0:0:0:80:clap.wav
256,192,136580,1,0,0:0:0:65:jingle.wav
475,192,136580,1,0,3:0:0:0:
402,192,136633,1,0,3:0:0:0:
109,192,136685,1,0,0:0:0:65:jingle.wav
182,192,136685,1,0,0:0:0:0:
329,192,136685,1,0,3:0:0:0:
36,192,136791,1,0,0:0:0:80:kick1.wav
182,192,136791,1,0,0:0:0:80:clap.wav
256,192,136791,1,0,0:0:0:65:jingle.wav
475,192,136791,1,0,3:0:0:0:
109,192,136896,1,0,0:0:0:65:jingle.wav
329,192,136896,1,0,0:0:0:0:
402,192,136896,1,0,3:0:0:0:
182,192,136949,1,0,3:0:0:0:
36,192,137001,1,0,0:0:0:80:kick1.wav
256,192,137001,1,0,0:0:0:65:jingle.wav
329,192,137001,1,0,0:0:0:0:
475,192,137001,1,0,3:0:0:0:
109,192,137054,1,0,3:0:0:0:
182,192,137106,1,0,0:0:0:65:jingle.wav
329,192,137106,1,0,0:0:0:0:
402,192,137106,1,0,3:0:0:0:
36,192,137212,1,0,0:0:0:80:kick1.wav
109,192,137212,1,0,0:0:0:80:clap.wav
256,192,137212,1,0,0:0:0:65:jingle.wav
475,192,137212,1,0,3:0:0:0:
402,192,137264,1,0,3:0:0:0:
109,192,137317,1,0,0:0:0:65:jingle.wav
182,192,137317,1,0,0:0:0:0:
329,192,137317,1,0,3:0:0:0:
36,192,137422,1,0,0:0:0:80:kick1.wav
256,192,137422,1,0,0:0:0:80:clap.wav
402,192,137422,1,0,0:0:0:65:jingle.wav
475,192,137422,1,0,3:0:0:0:
109,192,137475,1,0,3:0:0:0:
182,192,137528,1,0,0:0:0:65:jingle.wav
329,192,137528,1,0,0:0:0:0:
402,192,137528,1,0,3:0:0:0:
36,192,137633,1,0,0:0:0:80:kick1.wav
109,192,137633,1,0,0:0:0:65:jingle.wav
256,192,137633,1,0,0:0:0:0:
475,192,137633,1,0,3:0:0:0:
182,192,137738,1,0,0:0:0:65:jingle.wav
329,192,137738,1,0,0:0:0:0:
402,192,137738,1,0,3:0:0:0:
109,192,137791,1,0,0:0:0:0:
256,192,137791,1,0,3:0:0:0:
36,192,137843,1,0,0:0:0:80:kick1.wav
182,192,137843,1,0,0:0:0:80:clap.wav
402,192,137843,1,0,0:0:0:65:jingle.wav
475,192,137843,1,0,3:0:0:0:
109,192,137949,1,0,0:0:0:65:jingle.wav
182,192,137949,1,0,0:0:0:0:
329,192,137949,1,0,3:0:0:0:
256,192,138001,1,0,0:0:0:0:
402,192,138001,1,0,3:0:0:0:
36,192,138054,1,0,0:0:0:80:kick1.wav
109,192,138054,1,0,0:0:0:80:clap.wav
329,192,138054,1,0,0:0:0:65:jingle.wav
475,192,138054,1,0,3:0:0:0:
36,192,138159,1,0,0:0:0:65:jingle.wav
109,192,138159,1,0,0:0:0:0:
182,192,138159,1,0,3:0:0:0:
256,192,138212,1,0,0:0:0:0:
329,192,138212,1,0,3:0:0:0:
36,192,138264,1,0,0:0:0:80:kick1.wav
109,192,138264,1,0,0:0:0:65:jingle.wav
402,192,138264,1,0,0:0:0:0:
475,192,138264,1,0,3:0:0:0:
182,192,138317,1,0,0:0:0:0:
256,192,138317,1,0,3:0:0:0:
329,192,138370,1,0,0:0:0:65:jingle.wav
402,192,138370,1,0,0:0:0:0:
475,192,138370,1,0,3:0:0:0:
109,192,138422,1,0,0:0:0:0:
182,192,138422,1,0,3:0:0:0:
36,192,138475,128,0,138633:0:0:0:80:kick1.wav
256,192,138475,128,0,138633:0:0:0:65:kick2.wav
329,192,138475,128,0,138633:0:0:0:80:clap.wav
402,192,138475,128,0,138633:0:0:0:0:
475,192,138475,128,0,138633:3:0:0:0:
182,192,138685,1,0,0:0:0:65:jingle.wav
36,192,138685,1,0,3:0:0:0:
329,192,138685,1,0,0:0:0:0:
256,192,138791,1,0,0:0:0:65:jingle.wav
402,192,138791,1,0,0:0:0:0:
109,192,138817,1,0,3:0:0:0:
256,192,138896,1,0,0:0:0:65:jingle.wav
402,192,138896,1,0,0:0:0:0:
182,192,138949,1,0,3:0:0:0:
329,192,139001,1,0,0:0:0:65:jingle.wav
475,192,139001,1,0,0:0:0:0:
109,192,139080,1,0,3:0:0:0:
329,192,139106,1,0,0:0:0:65:jingle.wav
475,192,139106,1,0,0:0:0:0:
36,192,139212,128,0,139370:0:0:0:80:kick1.wav
109,192,139212,128,0,139370:0:0:0:65:kick2.wav
182,192,139212,128,0,139370:0:0:0:80:clap.wav
256,192,139212,128,0,139370:0:0:0:0:
475,192,139212,128,0,139370:3:0:0:0:
109,192,139422,1,0,0:0:0:65:jingle.wav
256,192,139422,1,0,0:0:0:0:
402,192,139422,1,0,3:0:0:0:
475,192,139501,1,0,3:0:0:0:
36,192,139528,1,0,0:0:0:65:jingle.wav
182,192,139528,1,0,0:0:0:0:
329,192,139580,1,0,3:0:0:0:
36,192,139633,1,0,0:0:0:65:jingle.wav
182,192,139633,1,0,0:0:0:0:
402,192,139659,1,0,3:0:0:0:
36,192,139738,128,0,140001:0:0:0:80:kick1.wav
109,192,139738,128,0,140001:0:0:0:65:kick2.wav
256,192,139738,128,0,140001:0:0:0:80:clap.wav
329,192,139738,128,0,140001:0:0:0:0:
475,192,139738,128,0,140001:3:0:0:0:
36,192,140054,128,0,140317:0:0:0:80:kick1.wav
182,192,140054,128,0,140317:0:0:0:65:kick2.wav
256,192,140054,128,0,140317:0:0:0:80:clap.wav
402,192,140054,128,0,140317:0:0:0:0:
475,192,140054,128,0,140317:3:0:0:0:
109,192,140370,128,0,140528:0:0:0:80:kick1.wav
182,192,140370,128,0,140528:0:0:0:65:kick2.wav
256,192,140370,128,0,140528:0:0:0:80:clap.wav
329,192,140370,128,0,140528:0:0:0:0:
402,192,140370,128,0,140528:3:0:0:0:
36,192,140580,128,0,140685:0:0:0:80:kick1.wav
109,192,140580,128,0,140685:0:0:0:65:kick2.wav
256,192,140580,128,0,140685:0:0:0:80:clap.wav
402,192,140580,128,0,140685:0:0:0:0:
475,192,140580,128,0,140685:3:0:0:0:
182,192,140685,1,0,0:0:0:80:kick1.wav
329,192,140685,1,0,3:0:0:0:
36,192,140791,1,0,0:0:0:80:kick1.wav
329,192,140791,1,0,0:0:0:65:kick2.wav
402,192,140791,1,0,0:0:0:80:clap.wav
475,192,140791,1,0,3:0:0:0:
109,192,140817,1,0,0:0:0:80:kick1.wav
182,192,140843,1,0,0:0:0:80:kick1.wav
256,192,140870,1,0,0:0:0:80:kick1.wav
475,192,140896,1,0,0:0:0:80:kick1.wav
402,192,140922,1,0,0:0:0:80:kick1.wav
329,192,140949,1,0,0:0:0:80:kick1.wav
256,192,140975,1,0,0:0:0:80:kick1.wav
36,192,141001,1,0,0:0:0:80:kick1.wav
182,192,141001,1,0,3:0:0:0:
109,192,141001,1,0,0:0:0:65:kick2.wav
36,192,141212,128,0,143133:0:0:0:80:kick1.wav
109,192,141212,128,0,144001:0:0:0:65:kick2.wav
182,192,141212,128,0,142475:0:0:0:90:clap.wav
256,192,141212,128,0,143896:0:0:0:0:
329,192,141212,128,0,141370:0:0:0:0:
402,192,141212,128,0,141475:0:0:0:0:
475,192,141212,128,0,142001:3:0:0:0:
329,192,141422,128,0,142212:0:0:0:65:jingle.wav
402,192,141528,128,0,144317:0:0:0:65:jingle.wav
475,192,142054,128,0,143475:0:0:0:65:jingle.wav
329,192,142264,128,0,142738:0:0:0:65:jingle.wav
182,192,142528,128,0,142949:0:0:0:65:jingle.wav
329,192,142791,128,0,143633:0:0:0:65:jingle.wav
182,192,143001,128,0,143317:0:0:0:65:jingle.wav
36,192,143185,128,0,145528:0:0:0:65:jingle.wav
182,192,143370,128,0,144633:0:0:0:65:jingle.wav
475,192,143528,128,0,143764:0:0:0:65:jingle.wav
329,192,143685,128,0,144528:0:0:0:65:jingle.wav
475,192,143817,128,0,144422:0:0:0:65:jingle.wav
256,192,143949,128,0,144106:0:0:0:65:jingle.wav
109,192,144054,128,0,144212:0:0:0:65:jingle.wav
256,192,144159,128,0,146738:0:0:0:65:jingle.wav
109,192,144264,128,0,144949:0:0:0:65:jingle.wav
402,192,144370,128,0,145133:0:0:0:65:jingle.wav
475,192,144475,128,0,151106:0:0:0:65:jingle.wav
329,192,144580,128,0,144738:0:0:0:65:jingle.wav
182,192,144685,128,0,144843:0:0:0:65:jingle.wav
329,192,144791,128,0,145054:0:0:0:65:jingle.wav
182,192,144896,128,0,145212:0:0:0:65:jingle.wav
109,192,145001,128,0,145370:0:0:0:65:jingle.wav
329,192,145106,128,0,145870:0:0:0:65:jingle.wav
402,192,145185,128,0,145685:0:0:0:65:jingle.wav
182,192,145264,128,0,146080:0:0:0:65:jingle.wav
109,192,145422,128,0,146317:0:0:0:65:jingle.wav
36,192,145580,128,0,147264:0:0:0:65:jingle.wav
402,192,145738,128,0,151106:0:0:0:65:jingle.wav
329,192,145922,128,0,151106:0:0:0:65:jingle.wav
182,192,146133,128,0,151106:0:0:0:65:jingle.wav
109,192,146370,128,0,151106:0:0:0:65:jingle.wav
256,192,146791,128,0,151106:0:0:0:65:jingle.wav
36,192,147317,128,0,151106:0:0:0:65:jingle.wav
109,192,151738,128,0,152054:0:0:0:35:jingle.wav
402,192,151738,128,0,152054:0:0:0:0:
182,192,152370,128,0,152685:0:0:0:35:jingle.wav
329,192,152370,128,0,152685:0:0:0:0:
256,192,153001,128,0,153633:0:0:0:35:jingle.wav
182,192,153212,1,0,0:0:0:0:
329,192,153264,1,0,0:0:0:0:
109,192,153317,1,0,0:0:0:0:
402,192,153370,1,0,0:0:0:0:
36,192,153422,1,0,0:0:0:0:
475,192,153475,1,0,0:0:0:0:
329,192,153528,1,0,0:0:0:0:
182,192,153580,1,0,0:0:0:0:
36,192,153633,1,0,0:0:0:45:kick2.wav
109,192,153633,128,0,153843:0:0:0:35:jingle.wav
329,192,153633,1,0,0:0:0:45:kick1.wav
402,192,153633,1,0,0:0:0:0:
475,192,153633,1,0,0:0:0:0:
182,192,153738,128,0,153949:0:0:0:35:jingle.wav
402,192,153738,1,0,0:0:0:0:
256,192,153843,128,0,154054:0:0:0:35:jingle.wav
475,192,153843,1,0,0:0:0:0:
109,192,153949,1,0,0:0:0:35:jingle.wav
402,192,153949,128,0,154159:0:0:0:0:
36,192,154054,1,0,0:0:0:45:kick2.wav
182,192,154054,1,0,0:0:0:35:jingle.wav
329,192,154054,128,0,155528:0:0:0:0:
109,192,154159,1,0,0:0:0:0:
36,192,154264,1,0,0:0:0:40:clap.wav
256,192,154264,1,0,0:0:0:0:
475,192,154264,1,0,0:0:0:0:
475,192,154370,1,0,0:0:0:0:
182,192,154475,1,0,0:0:0:0:
182,192,154580,1,0,0:0:0:0:
182,192,154791,1,0,0:0:0:0:
36,192,154896,1,0,0:0:0:45:kick2.wav
256,192,154896,1,0,0:0:0:0:
402,192,154896,1,0,0:0:0:0:
402,192,155001,1,0,0:0:0:0:
36,192,155036,1,0,0:0:0:45:kick2.wav
182,192,155106,1,0,0:0:0:0:
475,192,155106,1,0,0:0:0:0:
109,192,155177,1,0,0:0:0:45:kick2.wav
256,192,155212,1,0,0:0:0:0:
109,192,155317,1,0,0:0:0:45:kick2.wav
402,192,155317,1,0,0:0:0:0:
256,192,155422,1,0,0:0:0:0:
36,192,155528,1,0,0:0:0:40:clap.wav
182,192,155528,1,0,0:0:0:35:jingle.wav
402,192,155528,128,0,155738:0:0:0:0:
475,192,155528,1,0,0:0:0:0:
256,192,155633,1,0,0:0:0:0:
109,192,155738,1,0,0:0:0:35:jingle.wav
329,192,155738,1,0,0:0:0:0:
475,192,155738,128,0,156370:0:0:0:0:
182,192,155843,1,0,0:0:0:0:
109,192,155949,1,0,0:0:0:0:
329,192,155949,1,0,0:0:0:0:
182,192,156054,1,0,0:0:0:0:
36,192,156159,1,0,0:0:0:45:kick2.wav
256,192,156159,1,0,0:0:0:0:
329,192,156159,1,0,0:0:0:0:
329,192,156264,1,0,0:0:0:0:
182,192,156370,128,0,158475:0:0:0:35:jingle.wav
402,192,156370,1,0,0:0:0:0:
256,192,156475,1,0,0:0:0:0:
36,192,156580,1,0,0:0:0:45:kick2.wav
475,192,156580,1,0,0:0:0:0:
329,192,156685,1,0,0:0:0:0:
109,192,156791,1,0,0:0:0:40:clap.wav
256,192,156791,1,0,0:0:0:0:
475,192,156791,1,0,0:0:0:0:
109,192,156896,1,0,0:0:0:0:
329,192,157001,1,0,0:0:0:0:
329,192,157106,1,0,0:0:0:0:
329,192,157317,1,0,0:0:0:0:
36,192,157422,1,0,0:0:0:45:kick2.wav
109,192,157422,1,0,0:0:0:0:
475,192,157422,1,0,0:0:0:0:
475,192,157528,1,0,0:0:0:0:
36,192,157563,1,0,0:0:0:45:kick2.wav
256,192,157633,1,0,0:0:0:0:
402,192,157633,1,0,0:0:0:0:
109,192,157703,1,0,0:0:0:45:kick2.wav
329,192,157738,1,0,0:0:0:0:
109,192,157843,1,0,0:0:0:45:kick2.wav
475,192,157843,1,0,0:0:0:0:
402,192,157896,1,0,0:0:0:0:
36,192,157913,1,0,0:0:0:45:kick2.wav
329,192,157949,1,0,0:0:0:0:
109,192,157984,1,0,0:0:0:45:kick2.wav
475,192,158001,1,0,0:0:0:0:
36,192,158054,1,0,0:0:0:45:kick2.wav
256,192,158054,1,0,0:0:0:40:clap.wav
402,192,158054,1,0,0:0:0:0:
109,192,158159,1,0,0:0:0:0:
256,192,158264,1,0,0:0:0:0:
329,192,158264,1,0,0:0:0:0:
109,192,158370,1,0,0:0:0:0:
402,192,158370,1,0,0:0:0:0:
256,192,158475,1,0,0:0:0:35:jingle.wav
329,192,158475,128,0,158685:0:0:0:0:
475,192,158475,1,0,0:0:0:0:
36,192,158580,1,0,0:0:0:35:jingle.wav
109,192,158580,1,0,0:0:0:0:
402,192,158580,128,0,158791:0:0:0:0:
36,192,158685,1,0,0:0:0:45:kick2.wav
182,192,158685,1,0,0:0:0:35:jingle.wav
256,192,158685,1,0,0:0:0:0:
475,192,158685,128,0,158896:0:0:0:0:
109,192,158791,128,0,159001:0:0:0:35:jingle.wav
256,192,158791,1,0,0:0:0:0:
182,192,158896,128,0,159106:0:0:0:35:jingle.wav
329,192,158896,1,0,0:0:0:0:
256,192,159001,128,0,159212:0:0:0:35:jingle.wav
402,192,159001,1,0,0:0:0:0:
36,192,159106,1,0,0:0:0:45:kick2.wav
329,192,159106,128,0,159317:0:0:0:35:jingle.wav
475,192,159106,1,0,0:0:0:0:
109,192,159212,1,0,0:0:0:35:jingle.wav
402,192,159212,128,0,159422:0:0:0:0:
36,192,159317,128,0,159528:0:0:0:40:clap.wav
182,192,159317,1,0,0:0:0:35:jingle.wav
256,192,159317,1,0,0:0:0:0:
475,192,159317,1,0,0:0:0:0:
109,192,159422,128,0,159633:0:0:0:35:jingle.wav
256,192,159422,1,0,0:0:0:0:
182,192,159528,128,0,159738:0:0:0:35:jingle.wav
329,192,159528,1,0,0:0:0:0:
256,192,159633,128,0,160159:0:0:0:35:jingle.wav
329,192,159633,1,0,0:0:0:0:
329,192,159843,1,0,0:0:0:0:
36,192,159949,1,0,0:0:0:45:kick2.wav
182,192,159949,1,0,0:0:0:0:
475,192,159949,1,0,0:0:0:0:
182,192,160054,1,0,0:0:0:0:
475,192,160089,1,0,0:0:0:45:kick2.wav
36,192,160159,1,0,0:0:0:35:jingle.wav
109,192,160159,128,0,160580:0:0:0:0:
329,192,160159,1,0,0:0:0:0:
402,192,160229,1,0,0:0:0:45:kick2.wav
256,192,160264,1,0,0:0:0:0:
182,192,160370,1,0,0:0:0:45:kick2.wav
402,192,160370,1,0,0:0:0:0:
329,192,160475,1,0,0:0:0:45:kick2.wav
475,192,160475,1,0,0:0:0:0:
402,192,160554,1,0,0:0:0:45:kick2.wav
36,192,160580,1,0,0:0:0:40:clap.wav
182,192,160580,1,0,0:0:0:35:jingle.wav
256,192,160580,128,0,161001:0:0:0:0:
475,192,160633,1,0,0:0:0:45:kick2.wav
109,192,160685,1,0,0:0:0:0:
402,192,160712,1,0,0:0:0:45:kick2.wav
182,192,160791,1,0,0:0:0:45:kick2.wav
475,192,160791,1,0,0:0:0:0:
329,192,160896,1,0,0:0:0:0:
36,192,161001,1,0,0:0:0:35:jingle.wav
109,192,161001,1,0,0:0:0:0:
402,192,161001,128,0,161212:0:0:0:0:
182,192,161106,1,0,0:0:0:0:
256,192,161106,1,0,0:0:0:0:
36,192,161212,1,0,0:0:0:45:kick2.wav
109,192,161212,128,0,161264:0:0:0:35:jingle.wav
329,192,161212,1,0,0:0:0:0:
475,192,161212,128,0,161843:0:0:0:0:
182,192,161264,128,0,161317:0:0:0:0:
256,192,161317,128,0,161370:0:0:0:0:
329,192,161370,128,0,161422:0:0:0:0:
36,192,161422,128,0,161475:0:0:0:0:
109,192,161475,128,0,161528:0:0:0:0:
182,192,161528,128,0,161580:0:0:0:0:
256,192,161580,128,0,161633:0:0:0:0:
36,192,161633,1,0,0:0:0:45:kick2.wav
109,192,161633,128,0,161685:0:0:0:0:
402,192,161633,1,0,0:0:0:0:
182,192,161685,128,0,161738:0:0:0:0:
256,192,161738,128,0,161791:0:0:0:0:
329,192,161791,128,0,161843:0:0:0:0:
109,192,161843,1,0,0:0:0:40:clap.wav
182,192,161843,128,0,161896:0:0:0:0:
402,192,161843,1,0,0:0:0:0:
256,192,161896,128,0,161949:0:0:0:0:
329,192,161949,128,0,162001:0:0:0:0:
402,192,162001,128,0,162054:0:0:0:0:
36,192,162054,1,0,0:0:0:45:kick2.wav
109,192,162054,128,0,162791:0:0:0:35:jingle.wav
256,192,162054,128,0,162106:0:0:0:0:
475,192,162054,1,0,0:0:0:0:
329,192,162106,128,0,162159:0:0:0:0:
402,192,162159,128,0,162212:0:0:0:0:
475,192,162212,128,0,162264:0:0:0:0:
182,192,162264,128,0,162317:0:0:0:0:
256,192,162317,128,0,162370:0:0:0:0:
329,192,162370,128,0,162422:0:0:0:0:
402,192,162422,128,0,162475:0:0:0:0:
36,192,162475,1,0,0:0:0:45:kick2.wav
182,192,162475,1,0,0:0:0:0:
475,192,162475,1,0,0:0:0:0:
182,192,162580,1,0,0:0:0:0:
475,192,162615,1,0,0:0:0:45:kick2.wav
256,192,162685,1,0,0:0:0:0:
329,192,162685,1,0,0:0:0:0:
475,192,162756,1,0,0:0:0:45:kick2.wav
36,192,162791,128,0,163106:0:0:0:35:jingle.wav
329,192,162791,1,0,0:0:0:0:
256,192,162896,1,0,0:0:0:45:kick2.wav
475,192,162896,1,0,0:0:0:0:
402,192,162949,1,0,0:0:0:0:
329,192,163001,1,0,0:0:0:0:
256,192,163036,1,0,0:0:0:45:kick2.wav
182,192,163054,1,0,0:0:0:0:
109,192,163106,1,0,0:0:0:40:clap.wav
329,192,163106,128,0,163212:0:0:0:35:jingle.wav
402,192,163106,1,0,0:0:0:0:
475,192,163106,1,0,0:0:0:0:
182,192,163159,1,0,0:0:0:0:
256,192,163177,1,0,0:0:0:45:kick2.wav
402,192,163212,128,0,163317:0:0:0:35:jingle.wav
109,192,163264,1,0,0:0:0:0:
36,192,163317,1,0,0:0:0:45:kick2.wav
256,192,163317,1,0,0:0:0:35:jingle.wav
329,192,163317,1,0,0:0:0:0:
475,192,163317,128,0,163422:0:0:0:0:
182,192,163422,128,0,163528:0:0:0:35:jingle.wav
402,192,163422,1,0,0:0:0:0:
36,192,163457,1,0,0:0:0:45:kick2.wav
256,192,163528,1,0,0:0:0:35:jingle.wav
329,192,163528,128,0,163633:0:0:0:0:
475,192,163528,1,0,0:0:0:0:
36,192,163598,1,0,0:0:0:45:kick2.wav
182,192,163633,128,0,163738:0:0:0:35:jingle.wav
402,192,163633,1,0,0:0:0:0:
36,192,163738,128,0,163949:0:0:0:45:kick2.wav
109,192,163738,1,0,0:0:0:35:jingle.wav
256,192,163738,1,0,0:0:0:45:kick1.wav
329,192,163738,1,0,0:0:0:0:
475,192,163738,1,0,0:0:0:0:
182,192,163843,128,0,164054:0:0:0:35:jingle.wav
475,192,163843,1,0,0:0:0:0:
256,192,163949,1,0,0:0:0:35:jingle.wav
329,192,163949,128,0,164159:0:0:0:0:
109,192,164054,128,0,164264:0:0:0:35:jingle.wav
402,192,164054,1,0,0:0:0:0:
36,192,164159,1,0,0:0:0:45:kick2.wav
256,192,164159,128,0,164370:0:0:0:35:jingle.wav
475,192,164159,1,0,0:0:0:0:
182,192,164264,1,0,0:0:0:35:jingle.wav
402,192,164264,128,0,164685:0:0:0:0:
36,192,164370,1,0,0:0:0:40:clap.wav
109,192,164370,1,0,0:0:0:35:jingle.wav
182,192,164370,1,0,0:0:0:0:
475,192,164370,128,0,164580:0:0:0:0:
109,192,164475,1,0,0:0:0:35:jingle.wav
329,192,164475,128,0,164791:0:0:0:0:
36,192,164580,1,0,0:0:0:35:jingle.wav
256,192,164580,128,0,164896:0:0:0:0:
36,192,164685,1,0,0:0:0:35:jingle.wav
182,192,164685,128,0,165001:0:0:0:0:
109,192,164791,128,0,165001:0:0:0:35:jingle.wav
36,192,164896,128,0,165001:0:0:0:35:jingle.wav
402,192,164896,1,0,0:0:0:0:
329,192,164949,128,0,165001:0:0:0:35:jingle.wav
256,192,165001,128,0,165212:0:0:0:45:kick2.wav
402,192,165001,1,0,0:0:0:35:jingle.wav
475,192,165001,1,0,0:0:0:0:
109,192,165054,128,0,165949:0:0:0:35:jingle.wav
329,192,165106,1,0,0:0:0:0:
475,192,165142,1,0,0:0:0:45:kick2.wav
182,192,165212,1,0,0:0:0:35:jingle.wav
402,192,165212,128,0,166159:0:0:0:0:
36,192,165282,1,0,0:0:0:45:kick2.wav
256,192,165317,128,0,165949:0:0:0:35:jingle.wav
329,192,165317,1,0,0:0:0:0:
36,192,165422,1,0,0:0:0:45:kick2.wav
182,192,165422,1,0,0:0:0:0:
329,192,165528,1,0,0:0:0:0:
36,192,165633,1,0,0:0:0:40:clap.wav
182,192,165633,1,0,0:0:0:0:
475,192,165633,1,0,0:0:0:0:
329,192,165738,1,0,0:0:0:0:
36,192,165843,1,0,0:0:0:0:
475,192,165843,1,0,0:0:0:0:
182,192,165949,128,0,166264:0:0:0:35:jingle.wav
329,192,165949,1,0,0:0:0:0:
36,192,166054,1,0,0:0:0:35:jingle.wav
109,192,166054,1,0,0:0:0:0:
256,192,166054,128,0,166159:0:0:0:0:
329,192,166159,128,0,166264:0:0:0:35:jingle.wav
475,192,166159,1,0,0:0:0:0:
36,192,166264,128,0,166475:0:0:0:45:kick2.wav
109,192,166264,1,0,0:0:0:35:jingle.wav
256,192,166264,1,0,0:0:0:0:
402,192,166264,1,0,0:0:0:0:
256,192,166370,1,0,0:0:0:35:jingle.wav
475,192,166370,128,0,166685:0:0:0:0:
182,192,166475,1,0,0:0:0:0:
36,192,166580,128,0,166896:0:0:0:35:jingle.wav
402,192,166580,1,0,0:0:0:0:
109,192,166685,1,0,0:0:0:45:kick2.wav
256,192,166685,1,0,0:0:0:0:
329,192,166791,1,0,0:0:0:35:jingle.wav
475,192,166791,128,0,167106:0:0:0:0:
109,192,166896,1,0,0:0:0:40:clap.wav
182,192,166896,1,0,0:0:0:35:jingle.wav
256,192,166896,128,0,167212:0:0:0:0:
402,192,166896,1,0,0:0:0:0:
36,192,167001,128,0,167317:0:0:0:35:jingle.wav
402,192,167001,1,0,0:0:0:0:
182,192,167106,1,0,0:0:0:0:
182,192,167212,1,0,0:0:0:35:jingle.wav
475,192,167212,128,0,167633:0:0:0:0:
256,192,167317,128,0,168791:0:0:0:35:jingle.wav
36,192,167422,128,0,167949:0:0:0:35:jingle.wav
182,192,167422,1,0,0:0:0:0:
109,192,167528,1,0,0:0:0:45:kick2.wav
329,192,167528,1,0,0:0:0:0:
329,192,167633,1,0,0:0:0:0:
109,192,167668,1,0,0:0:0:45:kick2.wav
402,192,167738,1,0,0:0:0:35:jingle.wav
475,192,167738,128,0,168791:0:0:0:0:
182,192,167808,1,0,0:0:0:45:kick2.wav
329,192,167843,1,0,0:0:0:0:
182,192,167949,1,0,0:0:0:45:kick2.wav
402,192,167949,1,0,0:0:0:0:
329,192,168001,1,0,0:0:0:0:
109,192,168019,1,0,0:0:0:45:kick2.wav
36,192,168054,128,0,168159:0:0:0:35:jingle.wav
402,192,168054,1,0,0:0:0:0:
182,192,168089,1,0,0:0:0:45:kick2.wav
329,192,168106,1,0,0:0:0:0:
109,192,168159,1,0,0:0:0:45:kick2.wav
402,192,168159,1,0,0:0:0:40:clap.wav
36,192,168264,128,0,168791:0:0:0:35:jingle.wav
182,192,168264,1,0,0:0:0:0:
109,192,168370,1,0,0:0:0:0:
329,192,168370,1,0,0:0:0:0:
182,192,168475,1,0,0:0:0:0:
402,192,168475,1,0,0:0:0:0:
109,192,168580,1,0,0:0:0:0:
329,192,168580,1,0,0:0:0:0:
182,192,168685,1,0,0:0:0:0:
402,192,168685,1,0,0:0:0:0:
109,192,168791,1,0,0:0:0:45:kick2.wav
182,192,168791,1,0,0:0:0:35:jingle.wav
329,192,168791,1,0,0:0:0:0:
402,192,168791,128,0,169212:0:0:0:0:
329,192,168896,1,0,0:0:0:0:
182,192,169001,1,0,0:0:0:0:
109,192,169106,1,0,0:0:0:0:
36,192,169212,1,0,0:0:0:45:kick2.wav
256,192,169212,1,0,0:0:0:0:
182,192,169317,1,0,0:0:0:35:jingle.wav
402,192,169317,128,0,169422:0:0:0:0:
109,192,169422,1,0,0:0:0:40:clap.wav
329,192,169422,1,0,0:0:0:0:
475,192,169422,1,0,0:0:0:0:
109,192,169528,1,0,0:0:0:35:jingle.wav
402,192,169528,128,0,169949:0:0:0:0:
256,192,169633,1,0,0:0:0:0:
256,192,169738,1,0,0:0:0:0:
329,192,169843,128,0,170370:0:0:0:35:jingle.wav
182,192,169949,128,0,171317:0:0:0:35:jingle.wav
256,192,169949,1,0,0:0:0:0:
36,192,170054,1,0,0:0:0:45:kick2.wav
109,192,170054,1,0,0:0:0:0:
475,192,170054,1,0,0:0:0:0:
109,192,170159,1,0,0:0:0:0:
475,192,170194,1,0,0:0:0:45:kick2.wav
36,192,170264,1,0,0:0:0:0:
402,192,170264,1,0,0:0:0:0:
256,192,170335,1,0,0:0:0:45:kick2.wav
109,192,170370,128,0,170475:0:0:0:35:jingle.wav
475,192,170370,1,0,0:0:0:0:
256,192,170475,1,0,0:0:0:45:kick2.wav
329,192,170475,1,0,0:0:0:0:
36,192,170580,1,0,0:0:0:45:kick2.wav
109,192,170580,128,0,170791:0:0:0:35:jingle.wav
475,192,170580,1,0,0:0:0:0:
402,192,170659,1,0,0:0:0:45:kick2.wav
256,192,170685,1,0,0:0:0:40:clap.wav
329,192,170685,1,0,0:0:0:0:
475,192,170738,1,0,0:0:0:45:kick2.wav
36,192,170791,1,0,0:0:0:0:
402,192,170817,1,0,0:0:0:45:kick2.wav
109,192,170896,128,0,171317:0:0:0:45:kick2.wav
256,192,170896,1,0,0:0:0:35:jingle.wav
475,192,170896,1,0,0:0:0:0:
36,192,171001,1,0,0:0:0:0:
329,192,171106,1,0,0:0:0:0:
475,192,171106,1,0,0:0:0:0:
256,192,171212,1,0,0:0:0:0:
402,192,171212,1,0,0:0:0:0:
36,192,171317,1,0,0:0:0:45:kick2.wav
256,192,171317,128,0,171370:0:0:0:0:
329,192,171317,1,0,0:0:0:0:
475,192,171317,1,0,0:0:0:0:
182,192,171370,128,0,171422:0:0:0:0:
109,192,171422,128,0,171475:0:0:0:0:
36,192,171475,128,0,171528:0:0:0:0:
329,192,171528,128,0,171580:0:0:0:35:jingle.wav
475,192,171528,128,0,171633:0:0:0:0:
256,192,171580,128,0,171633:0:0:0:0:
182,192,171633,128,0,171685:0:0:0:0:
109,192,171685,128,0,171738:0:0:0:0:
36,192,171738,1,0,0:0:0:45:kick2.wav
402,192,171738,128,0,171791:0:0:0:0:
475,192,171738,1,0,0:0:0:0:
329,192,171791,128,0,171843:0:0:0:0:
256,192,171843,128,0,171896:0:0:0:0:
182,192,171896,128,0,171949:0:0:0:0:
36,192,171949,128,0,172054:0:0:0:40:clap.wav
109,192,171949,1,0,0:0:0:35:jingle.wav
329,192,171949,1,0,0:0:0:0:
475,192,171949,128,0,172001:0:0:0:0:
402,192,172001,128,0,172054:0:0:0:0:
329,192,172054,128,0,172106:0:0:0:0:
256,192,172106,128,0,172159:0:0:0:0:
36,192,172159,1,0,0:0:0:45:kick2.wav
109,192,172159,1,0,0:0:0:0:
402,192,172159,128,0,172212:0:0:0:0:
329,192,172212,128,0,172264:0:0:0:0:
256,192,172264,128,0,172317:0:0:0:0:
182,192,172317,128,0,172370:0:0:0:0:
36,192,172370,128,0,172475:0:0:0:35:jingle.wav
329,192,172370,128,0,172422:0:0:0:0:
256,192,172422,128,0,172475:0:0:0:0:
182,192,172475,128,0,172528:0:0:0:35:jingle.wav
475,192,172475,128,0,172896:0:0:0:0:
109,192,172528,128,0,172580:0:0:0:0:
36,192,172580,1,0,0:0:0:45:kick2.wav
329,192,172580,1,0,0:0:0:0:
402,192,172580,1,0,0:0:0:0:
329,192,172685,1,0,0:0:0:0:
36,192,172720,1,0,0:0:0:45:kick2.wav
182,192,172791,1,0,0:0:0:0:
256,192,172791,1,0,0:0:0:0:
36,192,172861,1,0,0:0:0:45:kick2.wav
182,192,172896,1,0,0:0:0:35:jingle.wav
329,192,172896,128,0,173212:0:0:0:0:
36,192,173001,1,0,0:0:0:45:kick2.wav
109,192,173001,1,0,0:0:0:0:
475,192,173054,1,0,0:0:0:0:
182,192,173071,1,0,0:0:0:45:kick2.wav
402,192,173106,1,0,0:0:0:0:
109,192,173142,1,0,0:0:0:45:kick2.wav
256,192,173159,1,0,0:0:0:0:
36,192,173212,1,0,0:0:0:45:kick2.wav
182,192,173212,128,0,173422:0:0:0:40:clap.wav
402,192,173212,1,0,0:0:0:35:jingle.wav
475,192,173212,1,0,0:0:0:0:
109,192,173264,1,0,0:0:0:0:
256,192,173317,1,0,0:0:0:0:
475,192,173352,1,0,0:0:0:45:kick2.wav
329,192,173370,1,0,0:0:0:0:
36,192,173422,128,0,173633:0:0:0:35:jingle.wav
109,192,173422,1,0,0:0:0:0:
402,192,173422,1,0,0:0:0:0:
475,192,173492,1,0,0:0:0:45:kick2.wav
329,192,173528,1,0,0:0:0:0:
182,192,173528,128,0,173633:0:0:0:0:
475,192,173633,1,0,0:0:0:45:kick2.wav
109,192,173633,128,0,173843:0:0:0:35:jingle.wav
256,192,173633,128,0,173738:0:0:0:0:
402,192,173703,1,0,0:0:0:45:kick2.wav
329,192,173738,128,0,173843:0:0:0:0:
182,192,173773,1,0,0:0:0:45:kick2.wav
36,192,173843,128,0,174054:0:0:0:45:kick2.wav
256,192,173843,1,0,0:0:0:35:jingle.wav
402,192,173843,1,0,0:0:0:45:kick1.wav
475,192,173843,1,0,0:0:0:0:
109,192,173949,128,0,174159:0:0:0:35:jingle.wav
475,192,173949,1,0,0:0:0:0:
182,192,174054,128,0,174264:0:0:0:35:jingle.wav
402,192,174054,1,0,0:0:0:0:
256,192,174159,128,0,175949:0:0:0:35:jingle.wav
329,192,174159,128,0,174264:0:0:0:0:
36,192,174264,1,0,0:0:0:45:kick2.wav
402,192,174264,128,0,174370:0:0:0:0:
475,192,174370,128,0,174475:0:0:0:0:
109,192,174475,1,0,0:0:0:40:clap.wav
182,192,174475,1,0,0:0:0:0:
329,192,174475,1,0,0:0:0:0:
109,192,174580,1,0,0:0:0:0:
402,192,174685,1,0,0:0:0:0:
36,192,174791,128,0,174896:0:0:0:0:
402,192,174791,1,0,0:0:0:0:
109,192,174896,128,0,175001:0:0:0:0:
182,192,175001,128,0,175106:0:0:0:0:
402,192,175001,1,0,0:0:0:0:
36,192,175106,1,0,0:0:0:45:kick2.wav
329,192,175106,1,0,0:0:0:0:
475,192,175106,1,0,0:0:0:0:
329,192,175212,1,0,0:0:0:0:
36,192,175247,1,0,0:0:0:45:kick2.wav
182,192,175317,1,0,0:0:0:0:
475,192,175317,1,0,0:0:0:0:
109,192,175387,1,0,0:0:0:45:kick2.wav
402,192,175422,128,0,175528:0:0:0:0:
36,192,175528,1,0,0:0:0:45:kick2.wav
109,192,175528,1,0,0:0:0:0:
329,192,175528,128,0,175633:0:0:0:0:
182,192,175633,128,0,175738:0:0:0:0:
109,192,175738,1,0,0:0:0:40:clap.wav
402,192,175738,1,0,0:0:0:0:
475,192,175738,1,0,0:0:0:0:
36,192,175843,1,0,0:0:0:0:
329,192,175949,1,0,0:0:0:35:jingle.wav
402,192,175949,128,0,176370:0:0:0:0:
109,192,176054,128,0,176159:0:0:0:0:
182,192,176159,128,0,176264:0:0:0:0:
256,192,176159,1,0,0:0:0:0:
329,192,176264,128,0,176370:0:0:0:0:
36,192,176370,1,0,0:0:0:45:kick2.wav
182,192,176370,1,0,0:0:0:0:
475,192,176370,1,0,0:0:0:0:
182,192,176475,1,0,0:0:0:0:
329,192,176580,1,0,0:0:0:35:jingle.wav
475,192,176580,128,0,178685:0:0:0:0:
109,192,176685,128,0,176791:0:0:0:0:
36,192,176791,1,0,0:0:0:45:kick2.wav
182,192,176791,128,0,176896:0:0:0:0:
256,192,176896,128,0,177001:0:0:0:0:
109,192,177001,1,0,0:0:0:40:clap.wav
329,192,177001,1,0,0:0:0:0:
402,192,177001,1,0,0:0:0:0:
109,192,177106,1,0,0:0:0:0:
402,192,177212,1,0,0:0:0:0:
182,192,177317,128,0,177422:0:0:0:0:
402,192,177317,1,0,0:0:0:0:
256,192,177422,128,0,177528:0:0:0:0:
329,192,177528,128,0,177633:0:0:0:0:
402,192,177528,1,0,0:0:0:0:
36,192,177633,1,0,0:0:0:45:kick2.wav
109,192,177633,1,0,0:0:0:0:
256,192,177633,1,0,0:0:0:0:
256,192,177738,1,0,0:0:0:0:
36,192,177773,1,0,0:0:0:45:kick2.wav
182,192,177843,1,0,0:0:0:0:
329,192,177843,1,0,0:0:0:0:
109,192,177913,1,0,0:0:0:45:kick2.wav
402,192,177949,128,0,178054:0:0:0:0:
109,192,178054,1,0,0:0:0:45:kick2.wav
329,192,178054,128,0,178159:0:0:0:0:
36,192,178124,1,0,0:0:0:45:kick2.wav
256,192,178159,128,0,178264:0:0:0:0:
109,192,178194,1,0,0:0:0:45:kick2.wav
36,192,178264,1,0,0:0:0:45:kick2.wav
329,192,178264,1,0,0:0:0:40:clap.wav
402,192,178264,1,0,0:0:0:0:
182,192,178370,1,0,0:0:0:0:
36,192,178475,1,0,0:0:0:0:
329,192,178475,1,0,0:0:0:0:
109,192,178580,1,0,0:0:0:0:
256,192,178580,128,0,178685:0:0:0:0:
36,192,178685,1,0,0:0:0:35:jingle.wav
182,192,178685,128,0,178791:0:0:0:0:
329,192,178685,128,0,178791:0:0:0:0:
109,192,178791,128,0,178896:0:0:0:35:jingle.wav
256,192,178791,1,0,0:0:0:0:
402,192,178791,128,0,178896:0:0:0:0:
36,192,178896,1,0,0:0:0:45:kick2.wav
182,192,178896,1,0,0:0:0:35:jingle.wav
329,192,178896,1,0,0:0:0:0:
475,192,178896,128,0,179106:0:0:0:0:
182,192,179001,1,0,0:0:0:0:
36,192,179106,128,0,181422:0:0:0:35:jingle.wav
256,192,179106,1,0,0:0:0:0:
329,192,179212,128,0,179317:0:0:0:0:
109,192,179317,1,0,0:0:0:45:kick2.wav
402,192,179317,128,0,179422:0:0:0:0:
475,192,179422,128,0,179528:0:0:0:0:
256,192,179528,1,0,0:0:0:40:clap.wav
329,192,179528,1,0,0:0:0:0:
402,192,179528,1,0,0:0:0:0:
329,192,179633,1,0,0:0:0:0:
182,192,179738,1,0,0:0:0:0:
182,192,179843,1,0,0:0:0:0:
256,192,179843,128,0,179949:0:0:0:0:
329,192,179949,128,0,180054:0:0:0:0:
182,192,180054,1,0,0:0:0:0:
402,192,180054,128,0,180159:0:0:0:0:
109,192,180159,1,0,0:0:0:45:kick2.wav
256,192,180159,1,0,0:0:0:0:
475,192,180159,1,0,0:0:0:0:
109,192,180264,1,0,0:0:0:0:
475,192,180299,1,0,0:0:0:45:kick2.wav
182,192,180370,1,0,0:0:0:0:
329,192,180370,1,0,0:0:0:0:
402,192,180440,1,0,0:0:0:45:kick2.wav
256,192,180475,128,0,180580:0:0:0:0:
182,192,180580,128,0,180685:0:0:0:45:kick2.wav
402,192,180580,1,0,0:0:0:0:
109,192,180685,128,0,180791:0:0:0:45:kick2.wav
475,192,180685,1,0,0:0:0:0:
402,192,180764,1,0,0:0:0:45:kick2.wav
182,192,180791,1,0,0:0:0:40:clap.wav
256,192,180791,1,0,0:0:0:0:
475,192,180843,1,0,0:0:0:45:kick2.wav
109,192,180896,1,0,0:0:0:0:
402,192,180922,1,0,0:0:0:45:kick2.wav
182,192,181001,1,0,0:0:0:45:kick2.wav
475,192,181001,1,0,0:0:0:0:
329,192,181106,128,0,181212:0:0:0:0:
256,192,181212,128,0,181317:0:0:0:0:
402,192,181212,1,0,0:0:0:0:
182,192,181317,128,0,181422:0:0:0:0:
329,192,181317,1,0,0:0:0:0:
109,192,181422,128,0,181475:0:0:0:45:kick2.wav
256,192,181422,1,0,0:0:0:0:
402,192,181422,1,0,0:0:0:0:
475,192,181422,1,0,0:0:0:0:
182,192,181475,128,0,181528:0:0:0:0:
256,192,181528,128,0,181580:0:0:0:0:
329,192,181580,128,0,181633:0:0:0:0:
182,192,181633,128,0,181685:0:0:0:0:
256,192,181685,128,0,181738:0:0:0:0:
36,192,181738,128,0,181843:0:0:0:0:
329,192,181738,128,0,181791:0:0:0:0:
402,192,181791,128,0,181843:0:0:0:0:
109,192,181843,128,0,182054:0:0:0:45:kick2.wav
182,192,181843,128,0,181949:0:0:0:35:jingle.wav
256,192,181843,128,0,181896:0:0:0:0:
475,192,181843,1,0,0:0:0:0:
329,192,181896,128,0,181949:0:0:0:0:
36,192,181949,128,0,182054:0:0:0:0:
402,192,181949,128,0,182001:0:0:0:0:
475,192,182001,128,0,182054:0:0:0:0:
182,192,182054,1,0,0:0:0:40:clap.wav
256,192,182054,1,0,0:0:0:0:
402,192,182054,128,0,182106:0:0:0:0:
329,192,182106,128,0,182159:0:0:0:0:
256,192,182159,128,0,182212:0:0:0:0:
182,192,182212,128,0,182264:0:0:0:0:
36,192,182264,128,0,182475:0:0:0:45:kick2.wav
109,192,182264,1,0,0:0:0:35:jingle.wav
329,192,182264,128,0,182317:0:0:0:0:
402,192,182264,1,0,0:0:0:0:
256,192,182317,128,0,182370:0:0:0:0:
182,192,182370,128,0,182422:0:0:0:0:
475,192,182370,128,0,182475:0:0:0:0:
109,192,182422,128,0,182475:0:0:0:0:
256,192,182475,128,0,182528:0:0:0:0:
402,192,182475,128,0,182580:0:0:0:0:
182,192,182528,128,0,182580:0:0:0:0:
109,192,182580,128,0,182633:0:0:0:0:
329,192,182580,128,0,182685:0:0:0:0:
36,192,182633,128,0,182685:0:0:0:0:
182,192,182685,1,0,0:0:0:45:kick2.wav
256,192,182685,128,0,182791:0:0:0:35:jingle.wav
402,192,182685,1,0,0:0:0:0:
475,192,182685,1,0,0:0:0:0:
182,192,182791,1,0,0:0:0:0:
475,192,182826,1,0,0:0:0:45:kick2.wav
36,192,182896,128,0,183106:0:0:0:35:jingle.wav
109,192,182896,1,0,0:0:0:0:
329,192,182896,1,0,0:0:0:0:
475,192,182966,1,0,0:0:0:45:kick2.wav
182,192,183001,128,0,183106:0:0:0:0:
329,192,183001,1,0,0:0:0:0:
109,192,183106,128,0,183212:0:0:0:45:kick2.wav
256,192,183106,1,0,0:0:0:35:jingle.wav
402,192,183106,128,0,183212:0:0:0:0:
475,192,183106,1,0,0:0:0:0:
329,192,183159,1,0,0:0:0:0:
182,192,183212,128,0,183317:0:0:0:0:
256,192,183247,1,0,0:0:0:45:kick2.wav
36,192,183264,1,0,0:0:0:0:
109,192,183317,1,0,0:0:0:40:clap.wav
402,192,183317,1,0,0:0:0:0:
475,192,183317,1,0,0:0:0:0:
329,192,183370,1,0,0:0:0:0:
256,192,183387,1,0,0:0:0:45:kick2.wav
182,192,183422,1,0,0:0:0:0:
109,192,183475,1,0,0:0:0:0:
36,192,183528,1,0,0:0:0:45:kick2.wav
256,192,183528,1,0,0:0:0:0:
402,192,183528,1,0,0:0:0:0:
329,192,183633,128,0,183738:0:0:0:35:jingle.wav
475,192,183633,128,0,183738:0:0:0:0:
36,192,183668,1,0,0:0:0:45:kick2.wav
109,192,183738,1,0,0:0:0:35:jingle.wav
256,192,183738,128,0,183843:0:0:0:0:
402,192,183738,128,0,183843:0:0:0:0:
36,192,183808,1,0,0:0:0:45:kick2.wav
182,192,183843,128,0,183949:0:0:0:35:jingle.wav
329,192,183843,128,0,183949:0:0:0:0:
36,192,183949,1,0,0:0:0:45:kick2.wav
109,192,183949,128,0,184264:0:0:0:35:jingle.wav
256,192,183949,1,0,0:0:0:45:kick1.wav
402,192,183949,1,0,0:0:0:0:
475,192,183949,1,0,0:0:0:0:
182,192,184054,128,0,184370:0:0:0:35:jingle.wav
475,192,184054,1,0,0:0:0:0:
256,192,184159,128,0,184475:0:0:0:35:jingle.wav
402,192,184159,1,0,0:0:0:0:
36,192,184264,128,0,184475:0:0:0:35:jingle.wav
329,192,184264,128,0,184370:0:0:0:0:
109,192,184370,128,0,184580:0:0:0:45:kick2.wav
402,192,184370,128,0,184475:0:0:0:35:jingle.wav
475,192,184370,1,0,0:0:0:0:
182,192,184475,128,0,184580:0:0:0:35:jingle.wav
329,192,184475,128,0,184580:0:0:0:0:
36,192,184580,1,0,0:0:0:40:clap.wav
256,192,184580,1,0,0:0:0:35:jingle.wav
402,192,184580,128,0,184896:0:0:0:0:
475,192,184580,1,0,0:0:0:0:
36,192,184685,1,0,0:0:0:35:jingle.wav
329,192,184685,128,0,185001:0:0:0:0:
182,192,184791,1,0,0:0:0:35:jingle.wav
256,192,184791,128,0,185106:0:0:0:0:
36,192,184896,128,0,185001:0:0:0:35:jingle.wav
182,192,184896,1,0,0:0:0:0:
475,192,184896,128,0,185106:0:0:0:0:
109,192,185001,128,0,185106:0:0:0:35:jingle.wav
402,192,185001,128,0,185212:0:0:0:0:
36,192,185106,1,0,0:0:0:35:jingle.wav
182,192,185106,128,0,185212:0:0:0:0:
329,192,185106,128,0,185212:0:0:0:0:
36,192,185212,128,0,186159:0:0:0:45:kick2.wav
109,192,185212,1,0,0:0:0:35:jingle.wav
256,192,185212,1,0,0:0:0:0:
475,192,185264,128,0,186264:0:0:0:35:jingle.wav
329,192,185317,1,0,0:0:0:0:
109,192,185352,1,0,0:0:0:45:kick2.wav
182,192,185422,1,0,0:0:0:0:
256,192,185422,1,0,0:0:0:0:
402,192,185492,1,0,0:0:0:45:kick2.wav
109,192,185528,128,0,185633:0:0:0:35:jingle.wav
329,192,185528,128,0,185580:0:0:0:0:
256,192,185580,128,0,186475:0:0:0:35:jingle.wav
182,192,185633,128,0,185738:0:0:0:45:kick2.wav
402,192,185633,1,0,0:0:0:0:
329,192,185738,128,0,185843:0:0:0:0:
109,192,185843,1,0,0:0:0:40:clap.wav
182,192,185843,1,0,0:0:0:0:
402,192,185843,1,0,0:0:0:0:
329,192,185949,1,0,0:0:0:0:
109,192,186054,1,0,0:0:0:0:
182,192,186054,1,0,0:0:0:0:
402,192,186159,128,0,186264:0:0:0:0:
36,192,186264,128,0,186475:0:0:0:35:jingle.wav
109,192,186264,1,0,0:0:0:0:
329,192,186264,128,0,186370:0:0:0:0:
182,192,186370,128,0,186475:0:0:0:35:jingle.wav
475,192,186370,128,0,186475:0:0:0:0:
109,192,186475,1,0,0:0:0:45:kick2.wav
329,192,186475,1,0,0:0:0:0:
402,192,186475,1,0,0:0:0:0:
256,192,186580,128,0,186791:0:0:0:35:jingle.wav
329,192,186580,1,0,0:0:0:0:
182,192,186685,1,0,0:0:0:0:
109,192,186791,128,0,186896:0:0:0:35:jingle.wav
402,192,186791,128,0,187212:0:0:0:0:
36,192,186896,1,0,0:0:0:45:kick2.wav
182,192,186896,128,0,187001:0:0:0:0:
256,192,187001,128,0,187106:0:0:0:35:jingle.wav
475,192,187001,128,0,187633:0:0:0:0:
36,192,187106,1,0,0:0:0:40:clap.wav
109,192,187106,1,0,0:0:0:0:
182,192,187106,1,0,0:0:0:0:
36,192,187212,1,0,0:0:0:35:jingle.wav
329,192,187212,128,0,187528:0:0:0:0:
109,192,187317,1,0,0:0:0:0:
109,192,187422,1,0,0:0:0:35:jingle.wav
182,192,187422,128,0,187528:0:0:0:0:
402,192,187422,128,0,187633:0:0:0:0:
256,192,187528,128,0,187633:0:0:0:0:
109,192,187633,1,0,0:0:0:35:jingle.wav
182,192,187633,128,0,188264:0:0:0:0:
329,192,187633,128,0,187738:0:0:0:0:
36,192,187738,1,0,0:0:0:45:kick2.wav
256,192,187738,1,0,0:0:0:0:
475,192,187738,1,0,0:0:0:0:
256,192,187843,1,0,0:0:0:0:
475,192,187878,1,0,0:0:0:45:kick2.wav
36,192,187949,1,0,0:0:0:35:jingle.wav
109,192,187949,128,0,188791:0:0:0:0:
329,192,187949,1,0,0:0:0:0:
402,192,188019,1,0,0:0:0:45:kick2.wav
256,192,188054,1,0,0:0:0:0:
36,192,188159,1,0,0:0:0:45:kick2.wav
402,192,188159,1,0,0:0:0:0:
329,192,188212,1,0,0:0:0:0:
475,192,188229,1,0,0:0:0:45:kick2.wav
36,192,188264,128,0,189001:0:0:0:35:jingle.wav
256,192,188264,1,0,0:0:0:0:
402,192,188299,1,0,0:0:0:45:kick2.wav
329,192,188317,1,0,0:0:0:0:
182,192,188370,1,0,0:0:0:45:kick2.wav
256,192,188370,1,0,0:0:0:40:clap.wav
475,192,188370,1,0,0:0:0:0:
402,192,188475,1,0,0:0:0:0:
182,192,188580,1,0,0:0:0:0:
329,192,188580,1,0,0:0:0:0:
256,192,188685,1,0,0:0:0:0:
402,192,188685,128,0,188791:0:0:0:0:
182,192,188791,128,0,189001:0:0:0:35:jingle.wav
329,192,188791,128,0,188896:0:0:0:0:
475,192,188791,1,0,0:0:0:0:
256,192,188896,128,0,189001:0:0:0:0:
402,192,188896,1,0,0:0:0:0:
109,192,189001,1,0,0:0:0:45:kick2.wav
329,192,189001,1,0,0:0:0:35:jingle.wav
402,192,189001,1,0,0:0:0:0:
475,192,189001,128,0,189317:0:0:0:0:
109,192,189106,1,0,0:0:0:0:
182,192,189212,1,0,0:0:0:0:
256,192,189317,128,0,189422:0:0:0:0:
182,192,189422,1,0,0:0:0:45:kick2.wav
329,192,189422,128,0,189528:0:0:0:35:jingle.wav
475,192,189422,128,0,189633:0:0:0:0:
402,192,189528,128,0,189633:0:0:0:0:
36,192,189633,1,0,0:0:0:40:clap.wav
109,192,189633,1,0,0:0:0:0:
256,192,189633,1,0,0:0:0:0:
36,192,189738,1,0,0:0:0:35:jingle.wav
475,192,189738,128,0,190159:0:0:0:0:
182,192,189843,1,0,0:0:0:0:
109,192,189949,128,0,190054:0:0:0:0:
182,192,189949,1,0,0:0:0:0:
256,192,190054,128,0,190159:0:0:0:35:jingle.wav
329,192,190054,128,0,190580:0:0:0:0:
109,192,190159,1,0,0:0:0:35:jingle.wav
182,192,190159,128,0,191528:0:0:0:0:
402,192,190159,128,0,190264:0:0:0:0:
36,192,190264,1,0,0:0:0:45:kick2.wav
256,192,190264,1,0,0:0:0:0:
475,192,190264,1,0,0:0:0:0:
36,192,190370,1,0,0:0:0:0:
475,192,190405,1,0,0:0:0:45:kick2.wav
109,192,190475,1,0,0:0:0:0:
402,192,190475,1,0,0:0:0:0:
256,192,190545,1,0,0:0:0:45:kick2.wav
36,192,190580,128,0,191212:0:0:0:35:jingle.wav
475,192,190580,128,0,190685:0:0:0:0:
256,192,190685,1,0,0:0:0:45:kick2.wav
329,192,190685,128,0,190791:0:0:0:0:
109,192,190791,128,0,190896:0:0:0:45:kick2.wav
475,192,190791,1,0,0:0:0:0:
402,192,190870,1,0,0:0:0:45:kick2.wav
256,192,190896,1,0,0:0:0:40:clap.wav
329,192,190896,1,0,0:0:0:0:
475,192,190949,1,0,0:0:0:45:kick2.wav
109,192,191001,1,0,0:0:0:0:
402,192,191028,1,0,0:0:0:45:kick2.wav
256,192,191106,1,0,0:0:0:45:kick2.wav
475,192,191106,1,0,0:0:0:0:
402,192,191212,128,0,191317:0:0:0:0:
36,192,191317,128,0,191528:0:0:0:35:jingle.wav
109,192,191317,1,0,0:0:0:0:
329,192,191317,128,0,191422:0:0:0:0:
256,192,191422,128,0,191528:0:0:0:0:
402,192,191422,1,0,0:0:0:0:
109,192,191528,1,0,0:0:0:45:kick2.wav
329,192,191528,128,0,191580:0:0:0:35:jingle.wav
402,192,191528,128,0,191633:0:0:0:0:
475,192,191528,1,0,0:0:0:0:
256,192,191580,128,0,191633:0:0:0:0:
182,192,191633,128,0,191685:0:0:0:35:jingle.wav
475,192,191633,128,0,191738:0:0:0:0:
109,192,191685,128,0,191738:0:0:0:0:
36,192,191738,128,0,191843:0:0:0:35:jingle.wav
402,192,191738,128,0,191791:0:0:0:0:
329,192,191791,128,0,191843:0:0:0:0:
109,192,191843,128,0,192159:0:0:0:35:jingle.wav
256,192,191843,128,0,191896:0:0:0:0:
182,192,191896,128,0,191949:0:0:0:0:
36,192,191949,1,0,0:0:0:45:kick2.wav
475,192,191949,128,0,192001:0:0:0:0:
402,192,192001,128,0,192054:0:0:0:0:
329,192,192054,128,0,192106:0:0:0:0:
256,192,192106,128,0,192159:0:0:0:0:
36,192,192159,1,0,0:0:0:40:clap.wav
182,192,192159,128,0,192212:0:0:0:0:
475,192,192159,1,0,0:0:0:0:
256,192,192212,128,0,192264:0:0:0:0:
329,192,192264,128,0,192317:0:0:0:0:
402,192,192317,128,0,192370:0:0:0:0:
36,192,192370,128,0,192475:0:0:0:45:kick2.wav
109,192,192370,128,0,192422:0:0:0:35:jingle.wav
475,192,192370,1,0,0:0:0:0:
182,192,192422,128,0,192475:0:0:0:0:
256,192,192475,128,0,192528:0:0:0:35:jingle.wav
475,192,192475,128,0,192580:0:0:0:0:
329,192,192528,128,0,192580:0:0:0:0:
36,192,192580,128,0,192633:0:0:0:35:jingle.wav
182,192,192580,1,0,0:0:0:0:
402,192,192580,128,0,192685:0:0:0:0:
109,192,192633,128,0,192685:0:0:0:0:
182,192,192685,128,0,192738:0:0:0:35:jingle.wav
329,192,192685,1,0,0:0:0:0:
475,192,192685,128,0,193106:0:0:0:0:
256,192,192738,128,0,192791:0:0:0:0:
36,192,192791,1,0,0:0:0:45:kick2.wav
109,192,192791,1,0,0:0:0:0:
329,192,192791,1,0,0:0:0:0:
402,192,192791,1,0,0:0:0:0:
402,192,192896,1,0,0:0:0:0:
36,192,192931,1,0,0:0:0:45:kick2.wav
182,192,193001,1,0,0:0:0:0:
256,192,193001,1,0,0:0:0:0:
36,192,193071,1,0,0:0:0:45:kick2.wav
182,192,193106,128,0,193212:0:0:0:35:jingle.wav
329,192,193106,1,0,0:0:0:0:
36,192,193212,1,0,0:0:0:45:kick2.wav
256,192,193212,128,0,193317:0:0:0:0:
402,192,193212,1,0,0:0:0:0:
475,192,193264,1,0,0:0:0:0:
109,192,193282,1,0,0:0:0:45:kick2.wav
329,192,193317,128,0,193422:0:0:0:0:
182,192,193352,1,0,0:0:0:45:kick2.wav
402,192,193370,1,0,0:0:0:0:
36,192,193422,128,0,193738:0:0:0:45:kick2.wav
109,192,193422,1,0,0:0:0:40:clap.wav
256,192,193422,1,0,0:0:0:35:jingle.wav
475,192,193422,1,0,0:0:0:0:
182,192,193475,1,0,0:0:0:0:
329,192,193528,1,0,0:0:0:0:
475,192,193563,1,0,0:0:0:45:kick2.wav
256,192,193580,1,0,0:0:0:0:
182,192,193633,1,0,0:0:0:0:
329,192,193633,1,0,0:0:0:0:
475,192,193703,1,0,0:0:0:45:kick2.wav
256,192,193738,128,0,193843:0:0:0:0:
109,192,193738,1,0,0:0:0:0:
402,192,193738,128,0,193843:0:0:0:35:jingle.wav
36,192,193843,1,0,0:0:0:45:kick2.wav
182,192,193843,128,0,193949:0:0:0:0:
329,192,193843,128,0,193949:0:0:0:35:jingle.wav
475,192,193913,1,0,0:0:0:45:kick2.wav
256,192,193949,128,0,194054:0:0:0:35:jingle.wav
109,192,193949,128,0,194054:0:0:0:0:
402,192,193984,1,0,0:0:0:45:kick2.wav
36,192,194054,1,0,0:0:0:45:kick2.wav
182,192,194054,1,0,0:0:0:45:kick1.wav
475,192,194054,1,0,0:0:0:0:
329,192,194054,1,0,0:0:0:35:jingle.wav
36,192,195001,1,0,0:0:0:45:kick2.wav
36,192,195317,1,0,0:0:0:45:kick2.wav
36,192,195633,1,0,0:0:0:45:kick2.wav
36,192,195949,1,0,0:0:0:45:kick2.wav
36,192,196580,1,0,0:0:0:45:kick2.wav
36,192,197528,1,0,0:0:0:45:kick2.wav
36,192,197843,1,0,0:0:0:45:kick2.wav
36,192,198054,1,0,0:0:0:45:kick2.wav
36,192,198264,1,0,0:0:0:45:kick2.wav
36,192,198475,1,0,0:0:0:45:kick2.wav
36,192,199106,1,0,0:0:0:45:kick2.wav
36,192,200054,1,0,0:0:0:45:kick2.wav
36,192,200370,1,0,0:0:0:45:kick2.wav
329,192,200370,1,0,0:0:0:0:
475,192,200370,1,0,0:0:0:0:
36,192,200685,1,0,0:0:0:45:kick2.wav
256,192,200685,1,0,0:0:0:0:
402,192,200685,1,0,0:0:0:0:
36,192,201001,1,0,0:0:0:45:kick2.wav
329,192,201001,1,0,0:0:0:0:
475,192,201001,1,0,0:0:0:0:
36,192,201317,1,0,0:0:0:45:kick2.wav
256,192,201317,1,0,0:0:0:0:
402,192,201317,1,0,0:0:0:0:
36,192,201633,128,0,201843:0:0:0:45:kick2.wav
182,192,201633,1,0,0:0:0:35:jingle.wav
329,192,201633,1,0,0:0:0:45:kick1.wav
475,192,201633,1,0,0:0:0:0:
109,192,201843,128,0,202054:0:0:0:35:jingle.wav
256,192,201949,1,0,0:0:0:30:clap.wav
402,192,201949,1,0,0:0:0:0:
36,192,202054,1,0,0:0:0:30:kick2.wav
182,192,202054,128,0,202264:0:0:0:35:jingle.wav
36,192,202264,1,0,0:0:0:30:kick2.wav
256,192,202264,128,0,202422:0:0:0:35:jingle.wav
475,192,202264,1,0,0:0:0:0:
402,192,202370,1,0,0:0:0:0:
329,192,202422,128,0,202580:0:0:0:35:jingle.wav
36,192,202475,1,0,0:0:0:30:kick2.wav
109,192,202475,1,0,0:0:0:30:clap.wav
182,192,202475,1,0,0:0:0:0:
109,192,202580,1,0,0:0:0:30:clap.wav
256,192,202580,1,0,0:0:0:35:jingle.wav
402,192,202580,128,0,202738:0:0:0:0:
475,192,202738,128,0,202896:0:0:0:35:jingle.wav
36,192,202896,128,0,203028:0:0:0:45:kick2.wav
182,192,202896,1,0,0:0:0:35:jingle.wav
329,192,202896,1,0,0:0:0:0:
109,192,203028,128,0,203159:0:0:0:35:jingle.wav
402,192,203106,1,0,0:0:0:0:
182,192,203159,128,0,203317:0:0:0:35:jingle.wav
329,192,203212,1,0,0:0:0:0:
36,192,203317,1,0,0:0:0:30:kick2.wav
256,192,203317,128,0,203422:0:0:0:35:jingle.wav
475,192,203317,1,0,0:0:0:0:
329,192,203422,128,0,206685:0:0:0:35:jingle.wav
402,192,203422,1,0,0:0:0:0:
36,192,203528,1,0,0:0:0:30:kick2.wav
109,192,203528,1,0,0:0:0:0:
182,192,203633,1,0,0:0:0:0:
36,192,203738,1,0,0:0:0:30:kick2.wav
256,192,203738,1,0,0:0:0:30:clap.wav
475,192,203738,1,0,0:0:0:0:
182,192,203949,1,0,0:0:0:30:clap.wav
475,192,203949,1,0,0:0:0:0:
36,192,204159,1,0,0:0:0:45:kick2.wav
109,192,204159,1,0,0:0:0:0:
182,192,204475,1,0,0:0:0:30:clap.wav
475,192,204475,1,0,0:0:0:0:
36,192,204580,1,0,0:0:0:30:kick2.wav
36,192,204791,1,0,0:0:0:30:kick2.wav
475,192,204791,1,0,0:0:0:0:
256,192,204896,1,0,0:0:0:0:
36,192,205001,1,0,0:0:0:30:kick2.wav
182,192,205001,1,0,0:0:0:30:clap.wav
402,192,205001,1,0,0:0:0:0:
182,192,205106,1,0,0:0:0:30:clap.wav
475,192,205106,1,0,0:0:0:0:
109,192,205317,1,0,0:0:0:30:clap.wav
475,192,205317,1,0,0:0:0:0:
36,192,205422,1,0,0:0:0:45:kick2.wav
109,192,205422,1,0,0:0:0:30:clap.wav
402,192,205422,1,0,0:0:0:0:
182,192,205633,1,0,0:0:0:30:clap.wav
475,192,205633,1,0,0:0:0:0:
109,192,205738,1,0,0:0:0:0:
36,192,205843,1,0,0:0:0:30:kick2.wav
256,192,205843,1,0,0:0:0:30:clap.wav
475,192,205843,1,0,0:0:0:0:
36,192,206054,1,0,0:0:0:30:kick2.wav
402,192,206054,1,0,0:0:0:0:
182,192,206159,1,0,0:0:0:0:
36,192,206264,1,0,0:0:0:30:kick2.wav
256,192,206264,1,0,0:0:0:30:clap.wav
475,192,206264,1,0,0:0:0:0:
109,192,206475,1,0,0:0:0:30:clap.wav
475,192,206475,1,0,0:0:0:0:
182,192,206580,1,0,0:0:0:30:clap.wav
475,192,206580,1,0,0:0:0:0:
36,192,206685,1,0,0:0:0:45:kick2.wav
256,192,206685,1,0,0:0:0:35:jingle.wav
402,192,206685,1,0,0:0:0:0:
109,192,206896,1,0,0:0:0:30:clap.wav
329,192,206896,1,0,0:0:0:0:
36,192,207106,1,0,0:0:0:30:kick2.wav
182,192,207106,128,0,209212:0:0:0:30:clap.wav
329,192,207106,1,0,0:0:0:35:jingle.wav
475,192,207106,1,0,0:0:0:0:
36,192,207317,1,0,0:0:0:30:kick2.wav
402,192,207317,1,0,0:0:0:0:
256,192,207422,1,0,0:0:0:0:
36,192,207528,1,0,0:0:0:30:kick2.wav
109,192,207528,1,0,0:0:0:30:clap.wav
329,192,207528,1,0,0:0:0:0:
329,192,207633,1,0,0:0:0:30:clap.wav
475,192,207633,1,0,0:0:0:0:
402,192,207843,1,0,0:0:0:30:clap.wav
475,192,207843,1,0,0:0:0:0:
36,192,207949,1,0,0:0:0:45:kick2.wav
256,192,207949,1,0,0:0:0:0:
329,192,208159,1,0,0:0:0:30:clap.wav
475,192,208159,1,0,0:0:0:0:
109,192,208264,1,0,0:0:0:0:
36,192,208370,1,0,0:0:0:30:kick2.wav
256,192,208370,1,0,0:0:0:30:clap.wav
402,192,208370,1,0,0:0:0:0:
36,192,208580,1,0,0:0:0:30:kick2.wav
109,192,208580,1,0,0:0:0:0:
329,192,208685,1,0,0:0:0:30:clap.wav
475,192,208685,1,0,0:0:0:0:
36,192,208791,1,0,0:0:0:30:kick2.wav
109,192,208791,1,0,0:0:0:0:
329,192,209001,1,0,0:0:0:30:clap.wav
475,192,209001,1,0,0:0:0:0:
256,192,209106,1,0,0:0:0:0:
36,192,209212,1,0,0:0:0:45:kick2.wav
109,192,209212,1,0,0:0:0:30:clap.wav
402,192,209212,1,0,0:0:0:35:jingle.wav
475,192,209212,1,0,0:0:0:0:
182,192,209422,1,0,0:0:0:0:
36,192,209633,1,0,0:0:0:30:kick2.wav
329,192,209633,1,0,0:0:0:30:clap.wav
475,192,209633,1,0,0:0:0:0:
36,192,209843,1,0,0:0:0:30:kick2.wav
109,192,209843,1,0,0:0:0:0:
256,192,209949,1,0,0:0:0:30:clap.wav
402,192,209949,1,0,0:0:0:0:
36,192,210054,1,0,0:0:0:30:kick2.wav
182,192,210054,1,0,0:0:0:0:
329,192,210159,1,0,0:0:0:30:clap.wav
475,192,210159,1,0,0:0:0:0:
109,192,210264,1,0,0:0:0:30:clap.wav
329,192,210264,128,0,210370:0:0:0:35:jingle.wav
475,192,210264,1,0,0:0:0:0:
182,192,210370,1,0,0:0:0:35:jingle.wav
402,192,210370,128,0,210580:0:0:0:0:
36,192,210475,1,0,0:0:0:45:kick2.wav
109,192,210475,1,0,0:0:0:30:clap.wav
256,192,210475,1,0,0:0:0:0:
475,192,210580,128,0,211738:0:0:0:35:jingle.wav
182,192,210685,1,0,0:0:0:0:
36,192,210896,1,0,0:0:0:30:kick2.wav
182,192,210896,1,0,0:0:0:0:
36,192,211106,1,0,0:0:0:30:kick2.wav
109,192,211106,1,0,0:0:0:0:
182,192,211212,1,0,0:0:0:30:clap.wav
402,192,211212,1,0,0:0:0:0:
36,192,211317,1,0,0:0:0:30:kick2.wav
329,192,211317,1,0,0:0:0:0:
256,192,211422,1,0,0:0:0:0:
109,192,211528,1,0,0:0:0:30:clap.wav
402,192,211528,1,0,0:0:0:0:
182,192,211633,1,0,0:0:0:0:
36,192,211738,1,0,0:0:0:45:kick2.wav
256,192,211738,1,0,0:0:0:35:jingle.wav
402,192,211738,1,0,0:0:0:0:
182,192,212054,1,0,0:0:0:30:clap.wav
329,192,212054,1,0,0:0:0:0:
36,192,212159,1,0,0:0:0:30:kick2.wav
36,192,212370,1,0,0:0:0:30:kick2.wav
109,192,212370,128,0,212633:0:0:0:35:jingle.wav
256,192,212370,1,0,0:0:0:0:
329,192,212475,1,0,0:0:0:0:
36,192,212580,1,0,0:0:0:30:kick2.wav
402,192,212580,1,0,0:0:0:30:clap.wav
475,192,212580,1,0,0:0:0:0:
256,192,212633,128,0,212896:0:0:0:35:jingle.wav
329,192,212685,1,0,0:0:0:30:clap.wav
475,192,212685,1,0,0:0:0:0:
36,192,212896,128,0,213159:0:0:0:35:jingle.wav
329,192,213001,1,0,0:0:0:45:kick2.wav
475,192,213001,1,0,0:0:0:0:
182,192,213159,128,0,213422:0:0:0:35:jingle.wav
402,192,213212,1,0,0:0:0:0:
36,192,213317,1,0,0:0:0:0:
109,192,213422,1,0,0:0:0:30:kick2.wav
329,192,213422,128,0,213949:0:0:0:35:jingle.wav
475,192,213422,1,0,0:0:0:0:
256,192,213528,1,0,0:0:0:0:
36,192,213633,1,0,0:0:0:30:kick2.wav
475,192,213633,1,0,0:0:0:0:
182,192,213738,1,0,0:0:0:0:
109,192,213843,1,0,0:0:0:30:kick2.wav
256,192,213843,1,0,0:0:0:30:clap.wav
475,192,213843,1,0,0:0:0:0:
36,192,213949,128,0,216791:0:0:0:35:jingle.wav
109,192,214054,1,0,0:0:0:30:clap.wav
182,192,214054,1,0,0:0:0:0:
256,192,214264,1,0,0:0:0:45:kick2.wav
402,192,214264,128,0,214475:0:0:0:0:
475,192,214264,1,0,0:0:0:0:
182,192,214580,128,0,214685:0:0:0:30:clap.wav
329,192,214580,1,0,0:0:0:0:
256,192,214685,128,0,214791:0:0:0:30:kick2.wav
475,192,214685,1,0,0:0:0:0:
329,192,214896,128,0,215001:0:0:0:30:kick2.wav
475,192,214896,1,0,0:0:0:0:
182,192,215001,128,0,215106:0:0:0:0:
256,192,215106,1,0,0:0:0:30:kick2.wav
329,192,215106,128,0,215212:0:0:0:30:clap.wav
475,192,215106,1,0,0:0:0:0:
109,192,215212,1,0,0:0:0:30:clap.wav
182,192,215212,128,0,215317:0:0:0:0:
402,192,215317,128,0,215422:0:0:0:0:
109,192,215422,1,0,0:0:0:30:clap.wav
256,192,215422,128,0,215528:0:0:0:0:
182,192,215528,1,0,0:0:0:45:kick2.wav
329,192,215528,1,0,0:0:0:30:clap.wav
475,192,215528,1,0,0:0:0:0:
256,192,215738,1,0,0:0:0:30:clap.wav
329,192,215738,128,0,215949:0:0:0:0:
182,192,215843,1,0,0:0:0:0:
109,192,215949,128,0,216054:0:0:0:30:kick2.wav
256,192,215949,1,0,0:0:0:30:clap.wav
475,192,215949,1,0,0:0:0:0:
402,192,216159,1,0,0:0:0:30:kick2.wav
475,192,216159,1,0,0:0:0:0:
256,192,216264,128,0,216370:0:0:0:0:
109,192,216370,1,0,0:0:0:30:kick2.wav
402,192,216370,128,0,216475:0:0:0:30:clap.wav
475,192,216370,1,0,0:0:0:0:
329,192,216475,128,0,216554:0:0:0:0:
256,192,216554,128,0,216633:0:0:0:0:
109,192,216580,1,0,0:0:0:30:clap.wav
182,192,216580,1,0,0:0:0:0:
329,192,216633,128,0,216712:0:0:0:0:
475,192,216685,1,0,0:0:0:30:clap.wav
256,192,216712,128,0,216791:0:0:0:0:
109,192,216791,128,0,217001:0:0:0:45:kick2.wav
182,192,216791,1,0,0:0:0:35:jingle.wav
402,192,216791,1,0,0:0:0:0:
182,192,217001,128,0,217264:0:0:0:30:clap.wav
329,192,217001,1,0,0:0:0:35:jingle.wav
475,192,217001,1,0,0:0:0:0:
36,192,217212,1,0,0:0:0:30:kick2.wav
402,192,217212,1,0,0:0:0:30:clap.wav
475,192,217212,1,0,0:0:0:0:
256,192,217264,128,0,217528:0:0:0:35:jingle.wav
36,192,217422,1,0,0:0:0:30:kick2.wav
109,192,217422,1,0,0:0:0:0:
329,192,217528,128,0,217738:0:0:0:35:jingle.wav
402,192,217528,1,0,0:0:0:0:
36,192,217633,1,0,0:0:0:30:kick2.wav
182,192,217633,1,0,0:0:0:30:clap.wav
475,192,217633,1,0,0:0:0:0:
182,192,217738,1,0,0:0:0:30:clap.wav
256,192,217738,1,0,0:0:0:35:jingle.wav
402,192,217738,128,0,218054:0:0:0:0:
109,192,217949,1,0,0:0:0:30:clap.wav
256,192,217949,1,0,0:0:0:0:
36,192,218054,128,0,218370:0:0:0:45:kick2.wav
182,192,218054,1,0,0:0:0:35:jingle.wav
475,192,218054,1,0,0:0:0:0:
256,192,218264,1,0,0:0:0:30:clap.wav
329,192,218264,1,0,0:0:0:0:
109,192,218370,128,0,218685:0:0:0:35:jingle.wav
182,192,218370,1,0,0:0:0:0:
256,192,218475,1,0,0:0:0:30:kick2.wav
402,192,218475,1,0,0:0:0:30:clap.wav
475,192,218475,1,0,0:0:0:0:
36,192,218685,1,0,0:0:0:30:kick2.wav
182,192,218685,128,0,218896:0:0:0:35:jingle.wav
475,192,218685,1,0,0:0:0:0:
256,192,218791,1,0,0:0:0:30:clap.wav
329,192,218791,1,0,0:0:0:0:
36,192,218896,1,0,0:0:0:30:kick2.wav
109,192,218896,1,0,0:0:0:35:jingle.wav
475,192,218896,128,0,219106:0:0:0:0:
182,192,219106,1,0,0:0:0:30:clap.wav
256,192,219106,1,0,0:0:0:35:jingle.wav
329,192,219106,1,0,0:0:0:0:
402,192,219159,128,0,219633:0:0:0:35:jingle.wav
109,192,219212,1,0,0:0:0:0:
36,192,219317,1,0,0:0:0:45:kick2.wav
182,192,219317,1,0,0:0:0:30:clap.wav
256,192,219317,1,0,0:0:0:0:
109,192,219528,1,0,0:0:0:0:
329,192,219633,128,0,220264:0:0:0:35:jingle.wav
36,192,219738,1,0,0:0:0:30:kick2.wav
182,192,219738,1,0,0:0:0:30:clap.wav
475,192,219738,1,0,0:0:0:0:
36,192,219949,1,0,0:0:0:30:kick2.wav
109,192,219949,1,0,0:0:0:0:
256,192,220054,1,0,0:0:0:30:clap.wav
475,192,220054,1,0,0:0:0:0:
36,192,220159,1,0,0:0:0:30:kick2.wav
182,192,220159,1,0,0:0:0:0:
256,192,220264,128,0,221843:0:0:0:30:clap.wav
402,192,220264,1,0,0:0:0:35:jingle.wav
475,192,220264,1,0,0:0:0:0:
402,192,220370,1,0,0:0:0:30:clap.wav
475,192,220370,1,0,0:0:0:0:
182,192,220475,1,0,0:0:0:0:
36,192,220580,1,0,0:0:0:45:kick2.wav
329,192,220580,1,0,0:0:0:30:clap.wav
402,192,220580,1,0,0:0:0:0:
109,192,220633,1,0,0:0:0:0:
182,192,220685,1,0,0:0:0:0:
329,192,220738,1,0,0:0:0:0:
109,192,220791,1,0,0:0:0:0:
475,192,220791,1,0,0:0:0:0:
402,192,220843,1,0,0:0:0:0:
329,192,220896,1,0,0:0:0:0:
182,192,220949,1,0,0:0:0:0:
36,192,221001,1,0,0:0:0:30:kick2.wav
402,192,221001,1,0,0:0:0:0:
475,192,221001,1,0,0:0:0:0:
109,192,221054,1,0,0:0:0:0:
182,192,221106,1,0,0:0:0:0:
329,192,221159,1,0,0:0:0:0:
36,192,221212,1,0,0:0:0:30:kick2.wav
402,192,221212,1,0,0:0:0:0:
182,192,221317,1,0,0:0:0:30:clap.wav
475,192,221317,1,0,0:0:0:0:
36,192,221422,1,0,0:0:0:30:kick2.wav
329,192,221422,1,0,0:0:0:0:
182,192,221528,1,0,0:0:0:0:
109,192,221633,1,0,0:0:0:30:clap.wav
402,192,221633,1,0,0:0:0:0:
329,192,221738,1,0,0:0:0:0:
36,192,221843,1,0,0:0:0:45:kick2.wav
182,192,221843,1,0,0:0:0:35:jingle.wav
402,192,221843,1,0,0:0:0:45:kick1.wav
475,192,221843,1,0,0:0:0:0:
182,192,222159,1,0,0:0:0:30:clap.wav
329,192,222159,1,0,0:0:0:0:
36,192,222264,1,0,0:0:0:30:kick2.wav
36,192,222475,1,0,0:0:0:30:kick2.wav
256,192,222475,1,0,0:0:0:35:jingle.wav
402,192,222475,1,0,0:0:0:0:
182,192,222580,1,0,0:0:0:0:
36,192,222685,1,0,0:0:0:30:kick2.wav
329,192,222685,1,0,0:0:0:30:clap.wav
475,192,222685,1,0,0:0:0:0:
402,192,222791,1,0,0:0:0:30:clap.wav
475,192,222791,1,0,0:0:0:0:
182,192,222896,128,0,223001:0:0:0:35:jingle.wav
329,192,223001,128,0,223106:0:0:0:35:jingle.wav
36,192,223106,1,0,0:0:0:45:kick2.wav
256,192,223106,128,0,223212:0:0:0:35:jingle.wav
475,192,223106,1,0,0:0:0:0:
182,192,223212,128,0,223317:0:0:0:35:jingle.wav
109,192,223317,128,0,223422:0:0:0:35:jingle.wav
402,192,223317,1,0,0:0:0:0:
36,192,223422,128,0,223528:0:0:0:35:jingle.wav
329,192,223422,1,0,0:0:0:0:
109,192,223528,128,0,223633:0:0:0:30:kick2.wav
402,192,223528,1,0,0:0:0:35:jingle.wav
475,192,223528,1,0,0:0:0:0:
182,192,223633,128,0,223738:0:0:0:35:jingle.wav
329,192,223633,1,0,0:0:0:0:
36,192,223738,1,0,0:0:0:30:kick2.wav
256,192,223738,128,0,223843:0:0:0:35:jingle.wav
402,192,223738,1,0,0:0:0:0:
109,192,223843,1,0,0:0:0:35:jingle.wav
475,192,223843,128,0,223949:0:0:0:0:
36,192,223949,1,0,0:0:0:30:kick2.wav
182,192,223949,1,0,0:0:0:30:clap.wav
256,192,223949,1,0,0:0:0:35:jingle.wav
402,192,223949,128,0,224054:0:0:0:0:
36,192,224054,1,0,0:0:0:35:jingle.wav
329,192,224054,128,0,224159:0:0:0:0:
109,192,224054,1,0,0:0:0:0:
182,192,224159,1,0,0:0:0:30:clap.wav
402,192,224159,128,0,224264:0:0:0:35:jingle.wav
475,192,224159,1,0,0:0:0:0:
256,192,224264,128,0,224370:0:0:0:35:jingle.wav
36,192,224370,1,0,0:0:0:45:kick2.wav
109,192,224370,1,0,0:0:0:35:jingle.wav
329,192,224370,128,0,224475:0:0:0:0:
182,192,224580,128,0,225001:0:0:0:35:jingle.wav
329,192,224685,1,0,0:0:0:30:clap.wav
475,192,224685,1,0,0:0:0:0:
36,192,224791,1,0,0:0:0:30:kick2.wav
36,192,225001,1,0,0:0:0:30:kick2.wav
109,192,225001,1,0,0:0:0:35:jingle.wav
256,192,225001,1,0,0:0:0:0:
329,192,225106,1,0,0:0:0:0:
36,192,225212,1,0,0:0:0:30:kick2.wav
182,192,225212,1,0,0:0:0:30:clap.wav
402,192,225212,1,0,0:0:0:0:
402,192,225317,1,0,0:0:0:30:clap.wav
475,192,225317,1,0,0:0:0:0:
109,192,225422,128,0,225949:0:0:0:35:jingle.wav
329,192,225528,1,0,0:0:0:30:clap.wav
402,192,225528,1,0,0:0:0:0:
36,192,225633,1,0,0:0:0:45:kick2.wav
182,192,225633,1,0,0:0:0:30:clap.wav
329,192,225633,1,0,0:0:0:0:
256,192,225843,1,0,0:0:0:30:clap.wav
402,192,225843,1,0,0:0:0:0:
36,192,225949,128,0,226896:0:0:0:35:jingle.wav
329,192,225949,1,0,0:0:0:0:
256,192,226054,1,0,0:0:0:30:kick2.wav
402,192,226054,1,0,0:0:0:30:clap.wav
475,192,226054,1,0,0:0:0:0:
182,192,226106,1,0,0:0:0:0:
109,192,226159,1,0,0:0:0:0:
329,192,226264,1,0,0:0:0:30:kick2.wav
475,192,226264,1,0,0:0:0:0:
256,192,226370,1,0,0:0:0:0:
182,192,226475,1,0,0:0:0:30:kick2.wav
475,192,226475,1,0,0:0:0:30:clap.wav
109,192,226580,1,0,0:0:0:0:
182,192,226580,1,0,0:0:0:0:
256,192,226685,1,0,0:0:0:30:clap.wav
329,192,226685,1,0,0:0:0:0:
329,192,226791,1,0,0:0:0:30:clap.wav
402,192,226791,1,0,0:0:0:0:
109,192,226896,1,0,0:0:0:45:kick2.wav
256,192,226896,1,0,0:0:0:35:jingle.wav
475,192,226896,1,0,0:0:0:0:
182,192,227106,1,0,0:0:0:30:clap.wav
329,192,227106,1,0,0:0:0:0:
109,192,227317,1,0,0:0:0:30:kick2.wav
329,192,227317,1,0,0:0:0:30:clap.wav
475,192,227317,1,0,0:0:0:0:
36,192,227528,1,0,0:0:0:30:kick2.wav
256,192,227528,1,0,0:0:0:35:jingle.wav
475,192,227528,1,0,0:0:0:0:
182,192,227633,1,0,0:0:0:0:
109,192,227738,1,0,0:0:0:30:kick2.wav
402,192,227738,1,0,0:0:0:30:clap.wav
475,192,227738,1,0,0:0:0:0:
182,192,227843,1,0,0:0:0:30:clap.wav
256,192,227843,128,0,228001:0:0:0:35:jingle.wav
402,192,227843,1,0,0:0:0:0:
329,192,228001,128,0,228159:0:0:0:35:jingle.wav
109,192,228054,1,0,0:0:0:30:clap.wav
182,192,228054,1,0,0:0:0:0:
36,192,228159,1,0,0:0:0:45:kick2.wav
256,192,228159,128,0,228370:0:0:0:35:jingle.wav
475,192,228159,1,0,0:0:0:0:
109,192,228370,1,0,0:0:0:30:clap.wav
182,192,228370,128,0,228580:0:0:0:35:jingle.wav
329,192,228370,1,0,0:0:0:0:
402,192,228475,1,0,0:0:0:0:
36,192,228580,1,0,0:0:0:30:kick2.wav
109,192,228580,128,0,228791:0:0:0:30:clap.wav
256,192,228580,1,0,0:0:0:35:jingle.wav
475,192,228580,1,0,0:0:0:0:
36,192,228791,128,0,229001:0:0:0:30:kick2.wav
402,192,228791,1,0,0:0:0:35:jingle.wav
475,192,228791,1,0,0:0:0:0:
182,192,228896,1,0,0:0:0:30:clap.wav
329,192,228896,1,0,0:0:0:0:
109,192,229001,1,0,0:0:0:30:kick2.wav
402,192,229001,1,0,0:0:0:35:jingle.wav
475,192,229001,1,0,0:0:0:0:
256,192,229054,128,0,229212:0:0:0:35:jingle.wav
109,192,229106,1,0,0:0:0:0:
182,192,229106,1,0,0:0:0:0:
36,192,229212,1,0,0:0:0:30:clap.wav
329,192,229212,128,0,229370:0:0:0:35:jingle.wav
402,192,229212,1,0,0:0:0:0:
182,192,229317,1,0,0:0:0:0:
36,192,229422,1,0,0:0:0:45:kick2.wav
256,192,229422,1,0,0:0:0:30:clap.wav
329,192,229422,128,0,229738:0:0:0:35:jingle.wav
475,192,229422,1,0,0:0:0:0:
182,192,229633,1,0,0:0:0:0:
402,192,229738,128,0,230054:0:0:0:35:jingle.wav
36,192,229843,1,0,0:0:0:30:kick2.wav
109,192,229843,1,0,0:0:0:30:clap.wav
256,192,229843,1,0,0:0:0:0:
36,192,230054,1,0,0:0:0:30:kick2.wav
182,192,230054,1,0,0:0:0:35:jingle.wav
256,192,230054,128,0,230370:0:0:0:0:
329,192,230159,1,0,0:0:0:30:clap.wav
475,192,230159,1,0,0:0:0:0:
36,192,230264,1,0,0:0:0:30:kick2.wav
109,192,230264,1,0,0:0:0:0:
182,192,230370,128,0,230685:0:0:0:30:clap.wav
402,192,230370,1,0,0:0:0:35:jingle.wav
475,192,230370,1,0,0:0:0:0:
402,192,230475,1,0,0:0:0:30:clap.wav
475,192,230475,1,0,0:0:0:0:
256,192,230580,1,0,0:0:0:0:
36,192,230685,1,0,0:0:0:45:kick2.wav
109,192,230685,1,0,0:0:0:30:clap.wav
329,192,230685,128,0,231949:0:0:0:35:jingle.wav
475,192,230685,1,0,0:0:0:0:
182,192,230896,1,0,0:0:0:0:
36,192,231106,1,0,0:0:0:30:kick2.wav
182,192,231106,1,0,0:0:0:0:
256,192,231159,1,0,0:0:0:0:
402,192,231212,1,0,0:0:0:0:
36,192,231317,1,0,0:0:0:30:kick2.wav
109,192,231317,1,0,0:0:0:0:
256,192,231422,1,0,0:0:0:30:clap.wav
475,192,231422,1,0,0:0:0:0:
182,192,231528,1,0,0:0:0:30:kick2.wav
36,192,231633,1,0,0:0:0:0:
402,192,231633,1,0,0:0:0:0:
256,192,231738,1,0,0:0:0:30:clap.wav
475,192,231738,1,0,0:0:0:0:
109,192,231843,1,0,0:0:0:0:
36,192,231949,1,0,0:0:0:45:kick2.wav
256,192,231949,1,0,0:0:0:35:jingle.wav
402,192,231949,1,0,0:0:0:0:
182,192,232264,1,0,0:0:0:30:clap.wav
329,192,232264,1,0,0:0:0:0:
36,192,232370,1,0,0:0:0:30:kick2.wav
36,192,232580,1,0,0:0:0:30:kick2.wav
256,192,232580,1,0,0:0:0:35:jingle.wav
402,192,232580,128,0,232738:0:0:0:0:
182,192,232685,1,0,0:0:0:0:
475,192,232738,128,0,232896:0:0:0:35:jingle.wav
36,192,232791,1,0,0:0:0:30:kick2.wav
109,192,232791,1,0,0:0:0:30:clap.wav
256,192,232791,1,0,0:0:0:0:
109,192,232896,1,0,0:0:0:30:clap.wav
329,192,232896,1,0,0:0:0:35:jingle.wav
402,192,232896,128,0,234159:0:0:0:0:
36,192,233212,1,0,0:0:0:45:kick2.wav
475,192,233212,1,0,0:0:0:0:
329,192,233422,1,0,0:0:0:0:
109,192,233528,1,0,0:0:0:0:
256,192,233633,1,0,0:0:0:30:kick2.wav
475,192,233633,1,0,0:0:0:0:
109,192,233738,1,0,0:0:0:0:
256,192,233843,1,0,0:0:0:30:kick2.wav
475,192,233843,1,0,0:0:0:0:
109,192,233949,1,0,0:0:0:0:
182,192,234054,1,0,0:0:0:30:kick2.wav
329,192,234054,1,0,0:0:0:30:clap.wav
475,192,234054,1,0,0:0:0:0:
36,192,234159,128,0,234475:0:0:0:35:jingle.wav
109,192,234159,1,0,0:0:0:0:
182,192,234159,1,0,0:0:0:0:
256,192,234264,1,0,0:0:0:30:clap.wav
329,192,234264,1,0,0:0:0:0:
109,192,234475,128,0,236370:0:0:0:45:kick2.wav
256,192,234475,1,0,0:0:0:35:jingle.wav
475,192,234475,1,0,0:0:0:0:
182,192,234791,1,0,0:0:0:30:clap.wav
329,192,234791,1,0,0:0:0:0:
475,192,234896,1,0,0:0:0:30:kick2.wav
36,192,235106,1,0,0:0:0:30:kick2.wav
256,192,235106,1,0,0:0:0:35:jingle.wav
475,192,235106,1,0,0:0:0:0:
182,192,235212,1,0,0:0:0:0:
36,192,235317,1,0,0:0:0:30:kick2.wav
402,192,235317,1,0,0:0:0:30:clap.wav
475,192,235317,1,0,0:0:0:0:
256,192,235422,1,0,0:0:0:30:clap.wav
402,192,235422,1,0,0:0:0:0:
329,192,235633,1,0,0:0:0:30:clap.wav
475,192,235633,1,0,0:0:0:0:
36,192,235738,1,0,0:0:0:45:kick2.wav
256,192,235738,1,0,0:0:0:30:clap.wav
329,192,235738,1,0,0:0:0:35:jingle.wav
182,192,235949,1,0,0:0:0:30:clap.wav
402,192,235949,1,0,0:0:0:0:
256,192,236054,1,0,0:0:0:0:
36,192,236159,1,0,0:0:0:30:kick2.wav
402,192,236159,1,0,0:0:0:30:clap.wav
475,192,236159,1,0,0:0:0:0:
182,192,236212,1,0,0:0:0:0:
329,192,236264,1,0,0:0:0:0:
36,192,236370,1,0,0:0:0:30:kick2.wav
475,192,236370,1,0,0:0:0:0:
109,192,236475,1,0,0:0:0:0:
182,192,236580,128,0,236685:0:0:0:30:kick2.wav
329,192,236580,1,0,0:0:0:30:clap.wav
402,192,236580,1,0,0:0:0:35:jingle.wav
256,192,236685,128,0,236791:0:0:0:35:jingle.wav
402,192,236685,1,0,0:0:0:0:
475,192,236685,1,0,0:0:0:0:
36,192,236791,1,0,0:0:0:30:clap.wav
109,192,236791,1,0,0:0:0:35:jingle.wav
329,192,236791,128,0,236896:0:0:0:0:
109,192,236896,1,0,0:0:0:30:clap.wav
182,192,236896,1,0,0:0:0:35:jingle.wav
402,192,236896,128,0,237001:0:0:0:0:
36,192,237001,128,0,237317:0:0:0:45:kick2.wav
256,192,237001,1,0,0:0:0:35:jingle.wav
475,192,237001,1,0,0:0:0:0:
329,192,237212,1,0,0:0:0:30:clap.wav
402,192,237212,1,0,0:0:0:0:
109,192,237317,128,0,237633:0:0:0:35:jingle.wav
256,192,237422,1,0,0:0:0:30:kick2.wav
402,192,237422,1,0,0:0:0:30:clap.wav
475,192,237422,1,0,0:0:0:0:
36,192,237633,1,0,0:0:0:30:kick2.wav
182,192,237633,128,0,238896:0:0:0:35:jingle.wav
475,192,237633,1,0,0:0:0:0:
256,192,237738,1,0,0:0:0:0:
109,192,237843,1,0,0:0:0:30:kick2.wav
329,192,237843,1,0,0:0:0:30:clap.wav
402,192,237843,1,0,0:0:0:0:
329,192,237949,1,0,0:0:0:30:clap.wav
475,192,237949,1,0,0:0:0:0:
256,192,238159,1,0,0:0:0:30:clap.wav
402,192,238159,1,0,0:0:0:0:
36,192,238264,1,0,0:0:0:45:kick2.wav
109,192,238264,1,0,0:0:0:0:
329,192,238475,1,0,0:0:0:30:clap.wav
475,192,238475,1,0,0:0:0:0:
109,192,238580,1,0,0:0:0:0:
36,192,238685,1,0,0:0:0:30:kick2.wav
402,192,238685,1,0,0:0:0:30:clap.wav
475,192,238685,1,0,0:0:0:0:
36,192,238896,1,0,0:0:0:30:kick2.wav
256,192,238896,128,0,239106:0:0:0:35:jingle.wav
329,192,238896,1,0,0:0:0:0:
182,192,239001,1,0,0:0:0:30:clap.wav
475,192,239001,1,0,0:0:0:0:
36,192,239106,1,0,0:0:0:30:kick2.wav
109,192,239106,1,0,0:0:0:35:jingle.wav
329,192,239106,128,0,239212:0:0:0:0:
109,192,239212,1,0,0:0:0:35:jingle.wav
402,192,239212,128,0,239738:0:0:0:0:
475,192,239212,1,0,0:0:0:0:
256,192,239317,1,0,0:0:0:30:clap.wav
329,192,239317,1,0,0:0:0:0:
182,192,239422,1,0,0:0:0:0:
36,192,239528,1,0,0:0:0:45:kick2.wav
109,192,239528,1,0,0:0:0:30:clap.wav
329,192,239528,1,0,0:0:0:35:jingle.wav
256,192,239738,1,0,0:0:0:35:jingle.wav
475,192,239738,128,0,242054:0:0:0:0:
36,192,239949,1,0,0:0:0:30:kick2.wav
182,192,239949,1,0,0:0:0:30:clap.wav
402,192,239949,1,0,0:0:0:0:
36,192,240159,1,0,0:0:0:30:kick2.wav
109,192,240159,1,0,0:0:0:35:jingle.wav
256,192,240159,1,0,0:0:0:0:
182,192,240264,1,0,0:0:0:30:clap.wav
329,192,240264,1,0,0:0:0:0:
36,192,240370,1,0,0:0:0:30:kick2.wav
109,192,240370,1,0,0:0:0:0:
256,192,240475,1,0,0:0:0:30:clap.wav
402,192,240475,1,0,0:0:0:0:
256,192,240580,1,0,0:0:0:30:clap.wav
402,192,240580,1,0,0:0:0:0:
182,192,240685,1,0,0:0:0:0:
36,192,240791,128,0,242054:0:0:0:45:kick2.wav
109,192,240791,1,0,0:0:0:30:clap.wav
329,192,240791,1,0,0:0:0:0:
402,192,240791,1,0,0:0:0:0:
256,192,241001,1,0,0:0:0:0:
109,192,241212,1,0,0:0:0:30:kick2.wav
256,192,241212,1,0,0:0:0:0:
329,192,241264,1,0,0:0:0:0:
402,192,241317,1,0,0:0:0:0:
109,192,241422,1,0,0:0:0:30:kick2.wav
182,192,241422,1,0,0:0:0:0:
329,192,241528,1,0,0:0:0:30:clap.wav
402,192,241528,1,0,0:0:0:0:
109,192,241633,1,0,0:0:0:30:kick2.wav
256,192,241633,1,0,0:0:0:0:
329,192,241738,1,0,0:0:0:0:
182,192,241843,1,0,0:0:0:30:clap.wav
402,192,241843,1,0,0:0:0:0:
256,192,241949,1,0,0:0:0:0:
109,192,242054,1,0,0:0:0:45:kick2.wav
182,192,242054,1,0,0:0:0:45:kick1.wav
329,192,242054,1,0,0:0:0:0:
402,192,242054,1,0,0:0:0:0:
256,192,242212,1,0,0:0:0:35:jingle.wav
329,192,242264,1,0,0:0:0:35:jingle.wav
402,192,242317,1,0,0:0:0:35:jingle.wav
475,192,242370,1,0,0:0:0:35:jingle.wav
36,192,242422,1,0,0:0:0:35:jingle.wav
109,192,242475,1,0,0:0:0:35:jingle.wav
182,192,242528,1,0,0:0:0:35:jingle.wav
256,192,242580,1,0,0:0:0:35:jingle.wav
329,192,243054,128,0,243106:0:0:0:25:jingle.wav
475,192,243067,128,0,243120:0:0:0:35:jingle.wav
256,192,249633,132,0,250896:0:0:0:0:
329,192,250896,5,0,3:0:0:0:
475,192,250896,1,0,0:0:0:0:
36,192,251106,1,0,3:0:0:0:
109,192,251133,1,0,3:0:0:0:
182,192,251159,1,0,3:0:0:0:
256,192,251185,1,0,3:0:0:0:
329,192,251212,1,0,3:0:0:0:
475,192,251212,1,0,0:0:0:0:
256,192,251422,1,0,3:0:0:0:
182,192,251449,1,0,3:0:0:0:
109,192,251475,1,0,3:0:0:0:
36,192,251501,1,0,3:0:0:0:
329,192,251528,1,0,3:0:0:0:
475,192,251528,1,0,0:0:0:0:
329,192,251633,1,0,3:0:0:0:
475,192,251633,1,0,0:0:0:0:
36,192,251738,1,0,3:0:0:0:
109,192,251764,1,0,3:0:0:0:
182,192,251791,1,0,3:0:0:0:
256,192,251817,1,0,3:0:0:0:
329,192,251843,1,0,3:0:0:0:
475,192,251843,1,0,0:0:0:0:
36,192,251896,1,0,0:0:0:0:
182,192,251896,1,0,3:0:0:0:
329,192,251949,1,0,3:0:0:0:
475,192,251949,1,0,0:0:0:0:
36,192,252001,1,0,0:0:0:0:
182,192,252001,1,0,3:0:0:0:
475,192,252054,1,0,3:0:0:0:
402,192,252080,1,0,3:0:0:0:
329,192,252106,1,0,3:0:0:0:
256,192,252133,1,0,3:0:0:0:
36,192,252159,1,0,0:0:0:60:kick1.wav
109,192,252159,1,0,0:0:0:50:kick2.wav
182,192,252159,1,0,3:0:0:0:
402,192,252159,1,0,0:0:0:0:
475,192,252159,1,0,0:0:0:0:
329,192,252212,1,0,0:0:0:0:
109,192,252264,1,0,0:0:0:0:
256,192,252317,1,0,0:0:0:0:
36,192,252370,1,0,0:0:0:0:
182,192,252422,1,0,0:0:0:0:
329,192,252475,1,0,0:0:0:0:
109,192,252528,1,0,0:0:0:0:
256,192,252580,1,0,0:0:0:0:
475,192,252633,1,0,0:0:0:0:
329,192,252685,1,0,0:0:0:0:
182,192,252738,1,0,0:0:0:0:
402,192,252791,1,0,0:0:0:0:
256,192,252843,1,0,0:0:0:0:
36,192,252896,1,0,0:0:0:0:
182,192,252949,1,0,0:0:0:0:
329,192,253001,1,0,0:0:0:0:
109,192,253054,1,0,0:0:0:0:
256,192,253106,1,0,0:0:0:0:
475,192,253159,1,0,0:0:0:0:
329,192,253212,1,0,0:0:0:0:
182,192,253264,1,0,0:0:0:0:
402,192,253317,1,0,0:0:0:0:
256,192,253370,1,0,0:0:0:0:
36,192,253422,1,0,0:0:0:0:
182,192,253475,1,0,0:0:0:0:
329,192,253528,1,0,0:0:0:0:
109,192,253580,1,0,0:0:0:0:
256,192,253633,1,0,0:0:0:0:
402,192,253685,1,0,0:0:0:0:
182,192,253738,1,0,0:0:0:0:
329,192,253791,1,0,0:0:0:0:
475,192,253843,1,0,0:0:0:0:
256,192,253896,1,0,0:0:0:0:
402,192,253949,1,0,0:0:0:0:
182,192,254001,1,0,0:0:0:0:
329,192,254054,1,0,0:0:0:0:
109,192,254106,1,0,0:0:0:0:
256,192,254159,1,0,0:0:0:0:
36,192,254212,1,0,0:0:0:0:
182,192,254264,1,0,0:0:0:0:
329,192,254317,1,0,0:0:0:0:
109,192,254370,1,0,0:0:0:0:
402,192,254422,1,0,0:0:0:0:
182,192,254475,1,0,0:0:0:0:
329,192,254528,1,0,0:0:0:0:
475,192,254580,1,0,0:0:0:0:
109,192,254633,1,0,0:0:0:0:
256,192,254685,1,0,0:0:0:0:
402,192,254738,1,0,0:0:0:0:
36,192,254791,1,0,0:0:0:0:
182,192,254843,1,0,0:0:0:0:
329,192,254896,1,0,0:0:0:0:
109,192,254949,1,0,0:0:0:0:
256,192,255001,1,0,0:0:0:0:
402,192,255054,1,0,0:0:0:0:
182,192,255106,1,0,0:0:0:0:
329,192,255159,1,0,0:0:0:0:
475,192,255212,1,0,0:0:0:0:
256,192,255264,1,0,0:0:0:0:
402,192,255317,1,0,0:0:0:0:
182,192,255370,1,0,0:0:0:0:
329,192,255422,1,0,0:0:0:0:
109,192,255475,1,0,0:0:0:0:
256,192,255528,1,0,0:0:0:0:
36,192,255580,1,0,0:0:0:0:
182,192,255633,1,0,0:0:0:0:
475,192,255685,1,0,0:0:0:0:
256,192,255738,1,0,0:0:0:0:
36,192,255791,1,0,0:0:0:0:
402,192,255843,1,0,0:0:0:0:
182,192,255896,1,0,0:0:0:0:
329,192,255949,1,0,0:0:0:0:
109,192,256001,1,0,0:0:0:0:
402,192,256054,1,0,0:0:0:0:
182,192,256106,1,0,0:0:0:0:
109,192,256159,1,0,0:0:0:60:kick1.wav
329,192,256159,1,0,0:0:0:0:
36,192,256212,1,0,0:0:0:60:kick1.wav
256,192,256212,1,0,0:0:0:0:
182,192,256264,1,0,0:0:0:60:kick1.wav
402,192,256264,1,0,0:0:0:0:
109,192,256317,1,0,0:0:0:60:kick1.wav
329,192,256317,1,0,0:0:0:0:
256,192,256370,1,0,0:0:0:60:kick1.wav
475,192,256370,1,0,0:0:0:0:
182,192,256422,1,0,0:0:0:60:kick1.wav
402,192,256422,1,0,0:0:0:0:
109,192,256475,1,0,0:0:0:60:kick1.wav
329,192,256475,1,0,0:0:0:0:
256,192,256528,1,0,0:0:0:60:kick1.wav
402,192,256528,1,0,0:0:0:0:
36,192,256580,1,0,0:0:0:60:kick1.wav
182,192,256580,1,0,0:0:0:50:kick2.wav
329,192,256580,1,0,3:0:0:0:
475,192,256580,1,0,0:0:0:0:
109,192,256685,1,0,0:0:0:0:
256,192,256685,1,0,3:0:0:0:
402,192,256685,1,0,0:0:0:0:
109,192,256817,1,0,0:0:0:0:
256,192,256817,1,0,3:0:0:0:
402,192,256817,1,0,0:0:0:0:
109,192,256949,1,0,0:0:0:0:
256,192,256949,1,0,3:0:0:0:
402,192,256949,1,0,0:0:0:0:
109,192,257080,1,0,0:0:0:0:
256,192,257080,1,0,3:0:0:0:
402,192,257080,1,0,0:0:0:0:
36,192,257212,1,0,0:0:0:60:kick1.wav
182,192,257212,1,0,0:0:0:50:kick2.wav
329,192,257212,1,0,3:0:0:0:
402,192,257212,1,0,0:0:0:0:
475,192,257212,1,0,0:0:0:0:
256,192,257264,1,0,0:0:0:0:
109,192,257317,1,0,0:0:0:0:
329,192,257370,1,0,0:0:0:0:
182,192,257422,1,0,0:0:0:0:
402,192,257475,1,0,0:0:0:0:
256,192,257528,1,0,0:0:0:0:
475,192,257580,1,0,0:0:0:0:
329,192,257633,1,0,0:0:0:0:
182,192,257685,1,0,0:0:0:0:
36,192,257738,1,0,0:0:0:0:
256,192,257791,1,0,0:0:0:0:
109,192,257843,1,0,0:0:0:0:
329,192,257896,1,0,0:0:0:0:
182,192,257949,1,0,0:0:0:0:
402,192,258001,1,0,0:0:0:0:
256,192,258054,1,0,0:0:0:0:
475,192,258106,1,0,0:0:0:0:
329,192,258159,1,0,0:0:0:0:
36,192,258212,1,0,0:0:0:0:
256,192,258264,1,0,0:0:0:0:
109,192,258317,1,0,0:0:0:0:
329,192,258370,1,0,0:0:0:0:
182,192,258422,1,0,0:0:0:0:
402,192,258475,1,0,0:0:0:0:
256,192,258528,1,0,0:0:0:0:
475,192,258580,1,0,0:0:0:0:
36,192,258633,1,0,0:0:0:0:
329,192,258685,1,0,0:0:0:0:
109,192,258738,1,0,0:0:0:0:
402,192,258791,1,0,0:0:0:0:
182,192,258843,1,0,0:0:0:0:
475,192,258896,1,0,0:0:0:0:
256,192,258949,1,0,0:0:0:0:
36,192,259001,1,0,0:0:0:0:
329,192,259054,1,0,0:0:0:0:
109,192,259106,1,0,0:0:0:0:
402,192,259159,1,0,0:0:0:0:
182,192,259212,1,0,0:0:0:0:
475,192,259264,1,0,0:0:0:0:
36,192,259317,1,0,0:0:0:0:
256,192,259370,1,0,0:0:0:0:
109,192,259422,1,0,0:0:0:0:
329,192,259475,1,0,0:0:0:0:
182,192,259528,1,0,0:0:0:0:
402,192,259580,1,0,0:0:0:0:
256,192,259633,1,0,0:0:0:0:
475,192,259685,1,0,0:0:0:0:
36,192,259738,1,0,0:0:0:0:
329,192,259791,1,0,0:0:0:0:
109,192,259843,1,0,0:0:0:0:
402,192,259896,1,0,0:0:0:0:
182,192,259949,1,0,0:0:0:0:
475,192,260001,1,0,0:0:0:0:
256,192,260054,1,0,0:0:0:0:
402,192,260106,1,0,0:0:0:0:
182,192,260159,1,0,0:0:0:0:
329,192,260212,1,0,0:0:0:0:
109,192,260264,1,0,0:0:0:0:
256,192,260317,1,0,0:0:0:0:
36,192,260370,1,0,0:0:0:0:
182,192,260422,1,0,0:0:0:0:
329,192,260475,1,0,0:0:0:0:
109,192,260528,1,0,0:0:0:0:
402,192,260580,1,0,0:0:0:0:
182,192,260633,1,0,0:0:0:0:
329,192,260685,1,0,0:0:0:0:
475,192,260738,1,0,0:0:0:0:
256,192,260791,1,0,0:0:0:0:
402,192,260843,1,0,0:0:0:0:
182,192,260896,1,0,0:0:0:0:
329,192,260949,1,0,0:0:0:0:
109,192,261001,1,0,0:0:0:0:
256,192,261054,1,0,0:0:0:0:
36,192,261106,1,0,0:0:0:0:
329,192,261159,1,0,0:0:0:0:
182,192,261212,1,0,0:0:0:60:kick1.wav
402,192,261212,1,0,0:0:0:0:
256,192,261264,1,0,0:0:0:60:kick1.wav
475,192,261264,1,0,0:0:0:0:
109,192,261317,1,0,0:0:0:60:kick1.wav
329,192,261317,1,0,0:0:0:0:
182,192,261370,1,0,0:0:0:60:kick1.wav
402,192,261370,1,0,0:0:0:0:
36,192,261422,1,0,0:0:0:60:kick1.wav
256,192,261422,1,0,0:0:0:0:
109,192,261475,1,0,0:0:0:60:kick1.wav
329,192,261475,1,0,0:0:0:0:
182,192,261528,1,0,0:0:0:60:kick1.wav
402,192,261528,1,0,0:0:0:0:
109,192,261580,1,0,0:0:0:60:kick1.wav
256,192,261580,1,0,0:0:0:0:
36,192,261633,1,0,0:0:0:60:kick1.wav
182,192,261633,1,0,0:0:0:50:kick2.wav
329,192,261633,1,0,3:0:0:0:
475,192,261633,1,0,0:0:0:0:
109,192,261712,1,0,0:0:0:0:
256,192,261712,1,0,3:0:0:0:
402,192,261712,1,0,0:0:0:0:
182,192,261804,1,0,0:0:0:0:
329,192,261804,1,0,3:0:0:0:
109,192,261896,1,0,0:0:0:0:
256,192,261896,1,0,3:0:0:0:
402,192,261896,1,0,0:0:0:0:
182,192,261988,1,0,0:0:0:0:
329,192,261988,1,0,3:0:0:0:
109,192,262080,1,0,0:0:0:0:
256,192,262080,1,0,3:0:0:0:
402,192,262080,1,0,0:0:0:0:
182,192,262172,1,0,0:0:0:0:
329,192,262172,1,0,3:0:0:0:
36,192,262264,1,0,0:0:0:60:kick1.wav
109,192,262264,1,0,0:0:0:50:kick2.wav
256,192,262264,1,0,3:0:0:0:
402,192,262264,1,0,0:0:0:0:
475,192,262264,1,0,0:0:0:0:
182,192,262317,1,0,0:0:0:0:
329,192,262370,1,0,0:0:0:0:
475,192,262422,1,0,0:0:0:0:
36,192,262475,1,0,0:0:0:60:kick1.wav
256,192,262475,1,0,0:0:0:0:
402,192,262528,1,0,0:0:0:0:
182,192,262580,1,0,0:0:0:0:
329,192,262633,1,0,0:0:0:0:
36,192,262685,1,0,0:0:0:60:kick1.wav
475,192,262685,1,0,0:0:0:0:
256,192,262738,1,0,0:0:0:0:
109,192,262791,1,0,0:0:0:0:
329,192,262843,1,0,0:0:0:0:
36,192,262896,1,0,0:0:0:60:kick1.wav
182,192,262896,1,0,0:0:0:0:
402,192,262949,1,0,0:0:0:0:
256,192,263001,1,0,0:0:0:0:
109,192,263054,1,0,0:0:0:0:
36,192,263106,1,0,0:0:0:60:kick1.wav
329,192,263106,1,0,0:0:0:0:
475,192,263159,1,0,0:0:0:0:
256,192,263212,1,0,0:0:0:0:
402,192,263264,1,0,0:0:0:0:
36,192,263317,1,0,0:0:0:60:kick1.wav
182,192,263317,1,0,0:0:0:0:
329,192,263370,1,0,0:0:0:0:
109,192,263422,1,0,0:0:0:0:
256,192,263475,1,0,0:0:0:0:
36,192,263528,1,0,0:0:0:60:kick1.wav
475,192,263528,1,0,0:0:0:0:
329,192,263580,1,0,0:0:0:0:
182,192,263633,1,0,0:0:0:0:
402,192,263685,1,0,0:0:0:0:
36,192,263738,1,0,0:0:0:60:kick1.wav
475,192,263738,1,0,0:0:0:0:
256,192,263791,1,0,0:0:0:0:
109,192,263843,1,0,0:0:0:0:
329,192,263896,1,0,0:0:0:0:
36,192,263949,1,0,0:0:0:60:kick1.wav
475,192,263949,1,0,0:0:0:0:
182,192,264001,1,0,0:0:0:0:
329,192,264054,1,0,0:0:0:0:
109,192,264106,1,0,0:0:0:0:
36,192,264159,1,0,0:0:0:60:kick1.wav
475,192,264159,1,0,0:0:0:0:
256,192,264212,1,0,0:0:0:0:
402,192,264264,1,0,0:0:0:0:
182,192,264317,1,0,0:0:0:0:
36,192,264370,1,0,0:0:0:60:kick1.wav
475,192,264370,1,0,0:0:0:0:
329,192,264422,1,0,0:0:0:0:
182,192,264475,1,0,0:0:0:0:
402,192,264528,1,0,0:0:0:0:
36,192,264580,1,0,0:0:0:60:kick1.wav
475,192,264580,1,0,0:0:0:0:
256,192,264633,1,0,0:0:0:0:
109,192,264685,1,0,0:0:0:0:
329,192,264738,1,0,0:0:0:0:
36,192,264791,1,0,0:0:0:60:kick1.wav
475,192,264791,1,0,0:0:0:0:
182,192,264843,1,0,0:0:0:0:
329,192,264896,1,0,0:0:0:0:
36,192,264949,1,0,0:0:0:0:
256,192,265001,1,0,0:0:0:60:kick1.wav
475,192,265001,1,0,0:0:0:0:
109,192,265054,1,0,0:0:0:0:
329,192,265106,1,0,0:0:0:0:
182,192,265159,1,0,0:0:0:0:
36,192,265212,1,0,0:0:0:60:kick1.wav
475,192,265212,1,0,0:0:0:0:
256,192,265264,1,0,0:0:0:0:
402,192,265317,1,0,0:0:0:0:
182,192,265370,1,0,0:0:0:0:
329,192,265422,1,0,0:0:0:60:kick1.wav
475,192,265422,1,0,0:0:0:0:
109,192,265475,1,0,0:0:0:0:
256,192,265528,1,0,0:0:0:0:
402,192,265580,1,0,0:0:0:0:
182,192,265633,1,0,0:0:0:60:kick1.wav
475,192,265633,1,0,0:0:0:0:
36,192,265685,1,0,0:0:0:0:
256,192,265738,1,0,0:0:0:0:
109,192,265791,1,0,0:0:0:0:
329,192,265843,1,0,0:0:0:60:kick1.wav
475,192,265843,1,0,0:0:0:0:
182,192,265896,1,0,0:0:0:0:
402,192,265949,1,0,0:0:0:0:
256,192,266001,1,0,0:0:0:0:
36,192,266054,1,0,0:0:0:60:kick1.wav
475,192,266054,1,0,0:0:0:0:
182,192,266106,1,0,0:0:0:0:
329,192,266159,1,0,0:0:0:0:
475,192,266212,1,0,0:0:0:0:
36,192,266264,1,0,0:0:0:60:kick1.wav
256,192,266264,1,0,0:0:0:0:
182,192,266317,1,0,0:0:0:60:kick1.wav
402,192,266317,1,0,0:0:0:0:
109,192,266370,1,0,0:0:0:60:kick1.wav
329,192,266370,1,0,0:0:0:0:
256,192,266422,1,0,0:0:0:60:kick1.wav
475,192,266422,1,0,0:0:0:0:
182,192,266475,1,0,0:0:0:60:kick1.wav
402,192,266475,1,0,0:0:0:0:
36,192,266528,1,0,0:0:0:60:kick1.wav
329,192,266528,1,0,0:0:0:0:
109,192,266580,1,0,0:0:0:60:kick1.wav
182,192,266580,1,0,0:0:0:0:
329,192,266633,1,0,0:0:0:60:kick1.wav
475,192,266633,1,0,0:0:0:0:
36,192,266685,1,0,0:0:0:60:kick1.wav
109,192,266685,1,0,0:0:0:50:kick2.wav
256,192,266685,1,0,3:0:0:0:
402,192,266685,1,0,0:0:0:0:
182,192,266764,1,0,0:0:0:50:kick1.wav
36,192,266843,1,0,0:0:0:50:kick1.wav
475,192,266843,1,0,3:0:0:0:
329,192,266896,1,0,3:0:0:0:
182,192,266922,1,0,0:0:0:50:kick1.wav
475,192,266949,1,0,3:0:0:0:
36,192,267001,1,0,0:0:0:50:kick1.wav
402,192,267001,1,0,3:0:0:0:
329,192,267054,1,0,3:0:0:0:
182,192,267080,1,0,0:0:0:50:kick1.wav
475,192,267120,1,0,3:0:0:0:
36,192,267159,1,0,0:0:0:50:kick1.wav
402,192,267185,1,0,3:0:0:0:
182,192,267238,1,0,0:0:0:50:kick1.wav
329,192,267251,1,0,3:0:0:0:
36,192,267317,1,0,0:0:0:60:kick1.wav
109,192,267317,1,0,0:0:0:50:kick2.wav
256,192,267317,1,0,3:0:0:0:
402,192,267317,1,0,0:0:0:0:
475,192,267317,1,0,0:0:0:0:
182,192,267370,1,0,0:0:0:0:
329,192,267422,1,0,0:0:0:0:
109,192,267475,1,0,0:0:0:0:
36,192,267528,1,0,0:0:0:60:kick1.wav
256,192,267528,1,0,0:0:0:0:
402,192,267580,1,0,0:0:0:0:
182,192,267633,1,0,0:0:0:0:
329,192,267685,1,0,0:0:0:0:
36,192,267738,1,0,0:0:0:60:kick1.wav
475,192,267738,1,0,0:0:0:0:
256,192,267791,1,0,0:0:0:0:
109,192,267843,1,0,0:0:0:0:
329,192,267896,1,0,0:0:0:0:
36,192,267949,1,0,0:0:0:60:kick1.wav
182,192,267949,1,0,0:0:0:0:
402,192,268001,1,0,0:0:0:0:
256,192,268054,1,0,0:0:0:0:
475,192,268106,1,0,0:0:0:0:
36,192,268159,1,0,0:0:0:60:kick1.wav
329,192,268159,1,0,0:0:0:0:
182,192,268212,1,0,0:0:0:0:
402,192,268264,1,0,0:0:0:0:
256,192,268317,1,0,0:0:0:0:
36,192,268370,1,0,0:0:0:60:kick1.wav
475,192,268370,1,0,0:0:0:0:
182,192,268422,1,0,0:0:0:0:
329,192,268475,1,0,0:0:0:0:
109,192,268528,1,0,0:0:0:0:
256,192,268580,1,0,0:0:0:60:kick1.wav
402,192,268580,1,0,0:0:0:0:
36,192,268633,1,0,0:0:0:0:
182,192,268685,1,0,0:0:0:0:
329,192,268738,1,0,0:0:0:0:
109,192,268791,1,0,0:0:0:60:kick1.wav
256,192,268791,1,0,0:0:0:0:
402,192,268843,1,0,0:0:0:0:
182,192,268896,1,0,0:0:0:0:
329,192,268949,1,0,0:0:0:0:
256,192,269001,1,0,0:0:0:60:kick1.wav
475,192,269001,1,0,0:0:0:0:
36,192,269054,1,0,0:0:0:0:
402,192,269106,1,0,0:0:0:0:
109,192,269159,1,0,0:0:0:0:
256,192,269212,1,0,0:0:0:60:kick1.wav
329,192,269212,1,0,0:0:0:0:
182,192,269264,1,0,0:0:0:0:
402,192,269317,1,0,0:0:0:0:
109,192,269370,1,0,0:0:0:0:
256,192,269422,1,0,0:0:0:60:kick1.wav
475,192,269422,1,0,0:0:0:0:
329,192,269475,1,0,0:0:0:0:
182,192,269528,1,0,0:0:0:0:
402,192,269580,1,0,0:0:0:0:
109,192,269633,1,0,0:0:0:60:kick1.wav
256,192,269633,1,0,0:0:0:0:
329,192,269685,1,0,0:0:0:0:
182,192,269738,1,0,0:0:0:0:
36,192,269791,1,0,0:0:0:0:
256,192,269843,1,0,0:0:0:60:kick1.wav
475,192,269843,1,0,0:0:0:0:
402,192,269896,1,0,0:0:0:0:
182,192,269949,1,0,0:0:0:0:
329,192,270001,1,0,0:0:0:0:
109,192,270054,1,0,0:0:0:60:kick1.wav
475,192,270054,1,0,0:0:0:0:
256,192,270106,1,0,0:0:0:0:
36,192,270159,1,0,0:0:0:0:
402,192,270212,1,0,0:0:0:0:
182,192,270264,1,0,0:0:0:60:kick1.wav
475,192,270264,1,0,0:0:0:0:
329,192,270317,1,0,0:0:0:0:
109,192,270370,1,0,0:0:0:0:
256,192,270422,1,0,0:0:0:0:
36,192,270475,1,0,0:0:0:60:kick1.wav
475,192,270475,1,0,0:0:0:0:
182,192,270528,1,0,0:0:0:0:
402,192,270580,1,0,0:0:0:0:
256,192,270633,1,0,0:0:0:0:
109,192,270685,1,0,0:0:0:60:kick1.wav
475,192,270685,1,0,0:0:0:0:
329,192,270738,1,0,0:0:0:0:
182,192,270791,1,0,0:0:0:0:
36,192,270843,1,0,0:0:0:0:
256,192,270896,1,0,0:0:0:60:kick1.wav
475,192,270896,1,0,0:0:0:0:
109,192,270949,1,0,0:0:0:0:
402,192,271001,1,0,0:0:0:0:
256,192,271054,1,0,0:0:0:0:
36,192,271106,1,0,0:0:0:60:kick1.wav
475,192,271106,1,0,0:0:0:0:
329,192,271159,1,0,0:0:0:0:
182,192,271212,1,0,0:0:0:0:
36,192,271264,1,0,0:0:0:0:
256,192,271317,1,0,0:0:0:60:kick1.wav
475,192,271317,1,0,0:0:0:0:
109,192,271370,1,0,0:0:0:60:kick1.wav
329,192,271370,1,0,0:0:0:0:
182,192,271422,1,0,0:0:0:60:kick1.wav
402,192,271422,1,0,0:0:0:0:
36,192,271475,1,0,0:0:0:60:kick1.wav
256,192,271475,1,0,0:0:0:0:
109,192,271528,1,0,0:0:0:60:kick1.wav
329,192,271528,1,0,0:0:0:0:
182,192,271580,1,0,0:0:0:60:kick1.wav
475,192,271580,1,0,0:0:0:0:
329,192,271633,1,0,0:0:0:60:kick1.wav
402,192,271633,1,0,0:0:0:0:
36,192,271685,1,0,0:0:0:60:kick1.wav
182,192,271685,1,0,0:0:0:0:
109,192,271738,1,0,0:0:0:60:kick1.wav
256,192,271738,1,0,0:0:0:50:kick2.wav
402,192,271738,1,0,0:0:0:0:
475,192,271738,1,0,3:0:0:0:
329,192,271764,1,0,3:0:0:0:
182,192,271791,1,0,3:0:0:0:
36,192,271817,1,0,3:0:0:0:
475,192,271843,1,0,3:0:0:0:
329,192,271870,1,0,3:0:0:0:
182,192,271896,1,0,3:0:0:0:
36,192,271922,1,0,3:0:0:0:
475,192,271975,1,0,3:0:0:0:
329,192,272001,1,0,3:0:0:0:
182,192,272028,1,0,3:0:0:0:
36,192,272054,1,0,3:0:0:0:
402,192,272106,1,0,3:0:0:0:
256,192,272133,1,0,3:0:0:0:
109,192,272159,1,0,3:0:0:0:
329,192,272212,1,0,3:0:0:0:
182,192,272238,1,0,3:0:0:0:
256,192,272291,1,0,3:0:0:0:
36,192,272370,1,0,0:0:0:70:kick1.wav
109,192,272370,1,0,0:0:0:60:kick2.wav
329,192,272370,1,0,0:0:0:0:
402,192,272370,1,0,0:0:0:0:
475,192,272370,1,0,3:0:0:0:
182,192,272422,1,0,0:0:0:0:
36,192,272475,1,0,0:0:0:70:kick1.wav
256,192,272475,1,0,0:0:0:0:
329,192,272528,1,0,0:0:0:0:
109,192,272580,1,0,0:0:0:70:kick1.wav
402,192,272580,1,0,0:0:0:0:
475,192,272580,1,0,3:0:0:0:
182,192,272633,1,0,0:0:0:0:
329,192,272685,1,0,0:0:0:70:kick1.wav
475,192,272685,1,0,0:0:0:0:
256,192,272738,1,0,0:0:0:0:
109,192,272791,1,0,0:0:0:70:kick1.wav
182,192,272791,1,0,0:0:0:0:
402,192,272791,1,0,3:0:0:0:
329,192,272843,1,0,0:0:0:0:
109,192,272896,1,0,0:0:0:70:kick1.wav
256,192,272896,1,0,0:0:0:0:
36,192,272949,1,0,0:0:0:0:
182,192,273001,1,0,0:0:0:70:kick1.wav
402,192,273001,1,0,0:0:0:0:
475,192,273001,1,0,3:0:0:0:
256,192,273054,1,0,0:0:0:0:
109,192,273106,1,0,0:0:0:70:kick1.wav
402,192,273106,1,0,0:0:0:0:
329,192,273159,1,0,0:0:0:0:
36,192,273212,1,0,0:0:0:70:kick1.wav
256,192,273212,1,0,0:0:0:0:
475,192,273212,1,0,3:0:0:0:
402,192,273264,1,0,0:0:0:0:
36,192,273317,1,0,0:0:0:70:kick1.wav
182,192,273317,1,0,0:0:0:0:
256,192,273370,1,0,0:0:0:0:
109,192,273422,1,0,0:0:0:70:kick1.wav
329,192,273422,1,0,0:0:0:0:
475,192,273422,1,0,3:0:0:0:
182,192,273475,1,0,0:0:0:0:
402,192,273528,1,0,0:0:0:70:kick1.wav
475,192,273528,1,0,0:0:0:0:
256,192,273580,1,0,0:0:0:70:kick1.wav
329,192,273580,1,0,0:0:0:0:
36,192,273633,1,0,0:0:0:70:kick1.wav
109,192,273633,1,0,0:0:0:0:
182,192,273633,1,0,3:0:0:0:
402,192,273685,1,0,0:0:0:0:
109,192,273738,1,0,0:0:0:70:kick1.wav
329,192,273738,1,0,0:0:0:0:
256,192,273791,1,0,0:0:0:0:
36,192,273843,1,0,0:0:0:70:kick1.wav
402,192,273843,1,0,0:0:0:0:
475,192,273843,1,0,3:0:0:0:
182,192,273896,1,0,0:0:0:0:
329,192,273949,1,0,0:0:0:70:kick1.wav
402,192,273949,1,0,0:0:0:0:
256,192,274001,1,0,0:0:0:0:
36,192,274054,1,0,0:0:0:70:kick1.wav
182,192,274054,1,0,0:0:0:0:
475,192,274054,1,0,3:0:0:0:
329,192,274106,1,0,0:0:0:0:
109,192,274159,1,0,0:0:0:70:kick1.wav
182,192,274159,1,0,0:0:0:0:
256,192,274212,1,0,0:0:0:0:
36,192,274264,1,0,0:0:0:70:kick1.wav
329,192,274264,1,0,0:0:0:0:
475,192,274264,1,0,3:0:0:0:
109,192,274317,1,0,0:0:0:0:
329,192,274370,1,0,0:0:0:70:kick1.wav
402,192,274370,1,0,0:0:0:0:
182,192,274422,1,0,0:0:0:70:kick1.wav
256,192,274422,1,0,0:0:0:0:
36,192,274475,1,0,0:0:0:70:kick1.wav
109,192,274475,1,0,0:0:0:0:
475,192,274475,1,0,3:0:0:0:
402,192,274528,1,0,0:0:0:0:
109,192,274580,1,0,0:0:0:70:kick1.wav
182,192,274580,1,0,0:0:0:0:
256,192,274633,1,0,0:0:0:70:kick1.wav
329,192,274633,1,0,0:0:0:0:
36,192,274685,1,0,0:0:0:70:kick1.wav
402,192,274685,1,0,0:0:0:0:
475,192,274685,1,0,3:0:0:0:
182,192,274738,1,0,0:0:0:0:
109,192,274791,1,0,0:0:0:70:kick1.wav
402,192,274791,1,0,0:0:0:0:
256,192,274843,1,0,0:0:0:0:
36,192,274896,1,0,0:0:0:70:kick1.wav
182,192,274896,1,0,0:0:0:0:
475,192,274896,1,0,3:0:0:0:
329,192,274949,1,0,0:0:0:0:
182,192,275001,1,0,0:0:0:70:kick1.wav
402,192,275001,1,0,0:0:0:0:
256,192,275054,1,0,0:0:0:0:
36,192,275106,1,0,0:0:0:70:kick1.wav
329,192,275106,1,0,0:0:0:0:
475,192,275106,1,0,3:0:0:0:
182,192,275159,1,0,0:0:0:0:
109,192,275212,1,0,0:0:0:70:kick1.wav
329,192,275212,1,0,0:0:0:0:
256,192,275264,1,0,0:0:0:0:
36,192,275317,1,0,0:0:0:70:kick1.wav
182,192,275317,1,0,0:0:0:0:
475,192,275317,1,0,3:0:0:0:
329,192,275370,1,0,0:0:0:0:
36,192,275422,1,0,0:0:0:70:kick1.wav
402,192,275422,1,0,0:0:0:0:
256,192,275475,1,0,0:0:0:0:
109,192,275528,1,0,0:0:0:70:kick1.wav
329,192,275528,1,0,0:0:0:0:
475,192,275528,1,0,3:0:0:0:
182,192,275580,1,0,0:0:0:0:
402,192,275633,1,0,0:0:0:70:kick1.wav
475,192,275633,1,0,0:0:0:0:
36,192,275685,1,0,0:0:0:70:kick1.wav
109,192,275685,1,0,0:0:0:0:
182,192,275738,1,0,0:0:0:70:kick1.wav
256,192,275738,1,0,0:0:0:0:
329,192,275738,1,0,3:0:0:0:
402,192,275791,1,0,0:0:0:0:
109,192,275843,1,0,0:0:0:70:kick1.wav
182,192,275843,1,0,0:0:0:0:
256,192,275896,1,0,0:0:0:0:
36,192,275949,1,0,0:0:0:70:kick1.wav
329,192,275949,1,0,0:0:0:0:
475,192,275949,1,0,3:0:0:0:
109,192,276001,1,0,0:0:0:0:
329,192,276054,1,0,0:0:0:70:kick1.wav
402,192,276054,1,0,0:0:0:0:
182,192,276106,1,0,0:0:0:0:
36,192,276159,1,0,0:0:0:70:kick1.wav
109,192,276159,1,0,0:0:0:0:
475,192,276159,1,0,3:0:0:0:
256,192,276212,1,0,0:0:0:70:kick1.wav
329,192,276212,1,0,0:0:0:0:
36,192,276264,1,0,0:0:0:70:kick1.wav
182,192,276264,1,0,0:0:0:0:
329,192,276317,1,0,0:0:0:70:kick1.wav
402,192,276317,1,0,0:0:0:0:
36,192,276370,1,0,0:0:0:70:kick1.wav
109,192,276370,1,0,0:0:0:0:
256,192,276370,1,0,3:0:0:0:
402,192,276422,1,0,0:0:0:70:kick1.wav
475,192,276422,1,0,0:0:0:0:
182,192,276475,1,0,0:0:0:70:kick1.wav
329,192,276475,1,0,0:0:0:0:
36,192,276528,1,0,0:0:0:70:kick1.wav
109,192,276528,1,0,0:0:0:0:
256,192,276580,1,0,0:0:0:70:kick1.wav
402,192,276580,1,0,0:0:0:0:
475,192,276580,1,0,3:0:0:0:
109,192,276633,1,0,0:0:0:70:kick1.wav
182,192,276633,1,0,0:0:0:0:
329,192,276685,1,0,0:0:0:70:kick1.wav
475,192,276685,1,0,0:0:0:0:
182,192,276738,1,0,0:0:0:70:kick1.wav
256,192,276738,1,0,0:0:0:0:
36,192,276791,1,0,0:0:0:70:kick1.wav
109,192,276791,1,0,0:0:0:60:kick2.wav
402,192,276791,1,0,0:0:0:0:
475,192,276791,1,0,3:0:0:0:
329,192,276870,1,0,0:0:0:60:kick1.wav
182,192,276949,1,0,0:0:0:60:kick1.wav
402,192,277001,1,0,3:0:0:0:
109,192,277028,1,0,0:0:0:60:kick1.wav
329,192,277036,1,0,3:0:0:0:
256,192,277071,1,0,3:0:0:0:
36,192,277106,1,0,0:0:0:60:kick1.wav
182,192,277106,1,0,3:0:0:0:
475,192,277142,1,0,3:0:0:0:
402,192,277177,1,0,3:0:0:0:
109,192,277185,1,0,0:0:0:60:kick1.wav
329,192,277212,1,0,3:0:0:0:
256,192,277247,1,0,3:0:0:0:
475,192,277264,1,0,0:0:0:60:kick1.wav
36,192,277282,1,0,3:0:0:0:
109,192,277317,1,0,3:0:0:0:
402,192,277343,1,0,0:0:0:60:kick1.wav
182,192,277352,1,0,3:0:0:0:
256,192,277387,1,0,3:0:0:0:
36,192,277422,1,0,0:0:0:70:kick1.wav
109,192,277422,1,0,0:0:0:60:kick2.wav
329,192,277422,1,0,3:0:0:0:
475,192,277422,1,0,0:0:0:0:
182,192,277475,1,0,0:0:0:0:
36,192,277528,1,0,0:0:0:70:kick1.wav
402,192,277528,1,0,0:0:0:0:
256,192,277580,1,0,0:0:0:0:
109,192,277633,1,0,0:0:0:70:kick1.wav
329,192,277633,1,0,0:0:0:0:
475,192,277633,1,0,3:0:0:0:
182,192,277685,1,0,0:0:0:0:
36,192,277738,1,0,0:0:0:70:kick1.wav
329,192,277738,1,0,0:0:0:0:
402,192,277791,1,0,0:0:0:0:
109,192,277843,1,0,0:0:0:70:kick1.wav
182,192,277843,1,0,0:0:0:0:
475,192,277843,1,0,3:0:0:0:
329,192,277896,1,0,0:0:0:0:
182,192,277949,1,0,0:0:0:70:kick1.wav
402,192,277949,1,0,0:0:0:0:
256,192,278001,1,0,0:0:0:0:
36,192,278054,1,0,0:0:0:70:kick1.wav
109,192,278054,1,0,0:0:0:0:
475,192,278054,1,0,3:0:0:0:
329,192,278106,1,0,0:0:0:0:
36,192,278159,1,0,0:0:0:70:kick1.wav
182,192,278159,1,0,0:0:0:0:
402,192,278212,1,0,0:0:0:0:
109,192,278264,1,0,0:0:0:70:kick1.wav
256,192,278264,1,0,0:0:0:0:
329,192,278264,1,0,3:0:0:0:
475,192,278317,1,0,0:0:0:0:
36,192,278370,1,0,0:0:0:70:kick1.wav
329,192,278370,1,0,0:0:0:0:
109,192,278422,1,0,0:0:0:0:
182,192,278475,1,0,0:0:0:70:kick1.wav
256,192,278475,1,0,0:0:0:0:
475,192,278475,1,0,3:0:0:0:
402,192,278528,1,0,0:0:0:0:
36,192,278580,1,0,0:0:0:70:kick1.wav
182,192,278580,1,0,0:0:0:0:
329,192,278633,1,0,0:0:0:0:
109,192,278685,1,0,0:0:0:70:kick1.wav
256,192,278685,1,0,0:0:0:0:
475,192,278685,1,0,3:0:0:0:
402,192,278738,1,0,0:0:0:0:
109,192,278791,1,0,0:0:0:70:kick1.wav
182,192,278791,1,0,0:0:0:0:
256,192,278843,1,0,0:0:0:0:
36,192,278896,1,0,0:0:0:70:kick1.wav
402,192,278896,1,0,0:0:0:0:
475,192,278896,1,0,3:0:0:0:
182,192,278949,1,0,0:0:0:0:
109,192,279001,1,0,0:0:0:70:kick1.wav
402,192,279001,1,0,0:0:0:0:
329,192,279054,1,0,0:0:0:0:
36,192,279106,1,0,0:0:0:70:kick1.wav
182,192,279106,1,0,0:0:0:0:
256,192,279106,1,0,3:0:0:0:
402,192,279159,1,0,0:0:0:0:
256,192,279212,1,0,0:0:0:70:kick1.wav
475,192,279212,1,0,0:0:0:0:
182,192,279264,1,0,0:0:0:0:
109,192,279317,1,0,0:0:0:70:kick1.wav
329,192,279317,1,0,0:0:0:0:
402,192,279317,1,0,3:0:0:0:
256,192,279370,1,0,0:0:0:0:
36,192,279422,1,0,0:0:0:70:kick1.wav
109,192,279422,1,0,0:0:0:0:
475,192,279475,1,0,0:0:0:0:
182,192,279528,1,0,0:0:0:70:kick1.wav
256,192,279528,1,0,0:0:0:0:
402,192,279528,1,0,3:0:0:0:
36,192,279580,1,0,0:0:0:0:
329,192,279633,1,0,0:0:0:70:kick1.wav
402,192,279633,1,0,0:0:0:0:
109,192,279685,1,0,0:0:0:0:
182,192,279738,1,0,0:0:0:70:kick1.wav
256,192,279738,1,0,0:0:0:0:
475,192,279738,1,0,3:0:0:0:
402,192,279791,1,0,0:0:0:0:
109,192,279843,1,0,0:0:0:70:kick1.wav
256,192,279843,1,0,0:0:0:0:
329,192,279896,1,0,0:0:0:0:
182,192,279949,1,0,0:0:0:70:kick1.wav
402,192,279949,1,0,0:0:0:0:
475,192,279949,1,0,3:0:0:0:
36,192,280001,1,0,0:0:0:0:
182,192,280054,1,0,0:0:0:70:kick1.wav
329,192,280054,1,0,0:0:0:0:
402,192,280106,1,0,0:0:0:0:
36,192,280159,1,0,0:0:0:70:kick1.wav
109,192,280159,1,0,0:0:0:0:
475,192,280159,1,0,3:0:0:0:
329,192,280212,1,0,0:0:0:0:
182,192,280264,1,0,0:0:0:70:kick1.wav
475,192,280264,1,0,0:0:0:0:
256,192,280317,1,0,0:0:0:0:
36,192,280370,1,0,0:0:0:70:kick1.wav
329,192,280370,1,0,0:0:0:0:
402,192,280370,1,0,3:0:0:0:
182,192,280422,1,0,0:0:0:0:
109,192,280475,1,0,0:0:0:70:kick1.wav
329,192,280475,1,0,0:0:0:0:
36,192,280528,1,0,0:0:0:0:
182,192,280580,1,0,0:0:0:70:kick1.wav
256,192,280580,1,0,0:0:0:0:
475,192,280580,1,0,3:0:0:0:
402,192,280633,1,0,0:0:0:0:
109,192,280685,1,0,0:0:0:70:kick1.wav
182,192,280685,1,0,0:0:0:0:
329,192,280738,1,0,0:0:0:0:
36,192,280791,1,0,0:0:0:70:kick1.wav
256,192,280791,1,0,0:0:0:0:
475,192,280791,1,0,3:0:0:0:
182,192,280843,1,0,0:0:0:0:
402,192,280896,1,0,0:0:0:70:kick1.wav
475,192,280896,1,0,0:0:0:0:
109,192,280949,1,0,0:0:0:0:
36,192,281001,1,0,0:0:0:70:kick1.wav
256,192,281001,1,0,0:0:0:0:
329,192,281001,1,0,3:0:0:0:
182,192,281054,1,0,0:0:0:0:
109,192,281106,1,0,0:0:0:70:kick1.wav
329,192,281106,1,0,0:0:0:0:
402,192,281159,1,0,0:0:0:0:
36,192,281212,1,0,0:0:0:70:kick1.wav
182,192,281212,1,0,0:0:0:0:
475,192,281212,1,0,3:0:0:0:
329,192,281264,1,0,0:0:0:0:
109,192,281282,1,0,0:0:0:70:kick1.wav
402,192,281317,1,0,0:0:0:0:
182,192,281352,1,0,0:0:0:70:kick1.wav
256,192,281370,1,0,0:0:0:0:
36,192,281422,1,0,0:0:0:70:kick1.wav
329,192,281422,1,0,0:0:0:0:
475,192,281422,1,0,3:0:0:0:
182,192,281475,1,0,0:0:0:0:
402,192,281492,1,0,0:0:0:70:kick1.wav
109,192,281528,1,0,0:0:0:0:
329,192,281563,1,0,0:0:0:70:kick1.wav
256,192,281580,1,0,0:0:0:0:
36,192,281633,1,0,0:0:0:70:kick1.wav
182,192,281633,1,0,0:0:0:0:
475,192,281633,1,0,3:0:0:0:
109,192,281685,1,0,0:0:0:0:
329,192,281685,1,0,0:0:0:70:kick1.wav
402,192,281738,1,0,0:0:0:0:
182,192,281738,1,0,0:0:0:70:kick1.wav
475,192,281791,1,0,0:0:0:0:
256,192,281791,1,0,0:0:0:70:kick1.wav
36,192,281843,1,0,0:0:0:70:kick1.wav
109,192,281843,1,0,0:0:0:60:kick2.wav
329,192,281843,1,0,0:0:0:0:
402,192,281843,1,0,3:0:0:0:
256,192,281922,1,0,0:0:0:60:kick1.wav
402,192,281988,1,0,0:0:0:0:
475,192,281988,1,0,3:0:0:0:
182,192,282001,1,0,0:0:0:60:kick1.wav
329,192,282080,1,0,0:0:0:60:kick1.wav
36,192,282093,1,0,0:0:0:0:
109,192,282093,1,0,3:0:0:0:
256,192,282159,1,0,0:0:0:60:kick1.wav
402,192,282159,1,0,0:0:0:0:
475,192,282159,1,0,3:0:0:0:
109,192,282225,1,0,0:0:0:0:
182,192,282225,1,0,3:0:0:0:
329,192,282238,1,0,0:0:0:60:kick1.wav
475,192,282317,1,0,0:0:0:60:kick1.wav
36,192,282330,1,0,0:0:0:0:
109,192,282330,1,0,3:0:0:0:
182,192,282396,1,0,0:0:0:60:kick1.wav
256,192,282396,1,0,3:0:0:0:
402,192,282396,1,0,0:0:0:0:
36,192,282475,1,0,0:0:0:70:kick1.wav
109,192,282475,1,0,0:0:0:60:kick2.wav
329,192,282475,1,0,0:0:0:0:
475,192,282475,1,0,3:0:0:0:
182,192,282528,1,0,0:0:0:0:
329,192,282580,1,0,0:0:0:70:kick1.wav
402,192,282580,1,0,0:0:0:0:
109,192,282633,1,0,0:0:0:0:
36,192,282685,1,0,0:0:0:70:kick1.wav
256,192,282685,1,0,0:0:0:0:
475,192,282685,1,0,3:0:0:0:
402,192,282738,1,0,0:0:0:0:
36,192,282791,1,0,0:0:0:70:kick1.wav
182,192,282791,1,0,0:0:0:0:
329,192,282843,1,0,0:0:0:0:
109,192,282896,1,0,0:0:0:70:kick1.wav
256,192,282896,1,0,0:0:0:0:
475,192,282896,1,0,3:0:0:0:
402,192,282949,1,0,0:0:0:0:
36,192,283001,1,0,0:0:0:70:kick1.wav
256,192,283001,1,0,0:0:0:0:
329,192,283054,1,0,0:0:0:0:
109,192,283106,1,0,0:0:0:70:kick1.wav
182,192,283106,1,0,0:0:0:0:
475,192,283106,1,0,3:0:0:0:
402,192,283159,1,0,0:0:0:0:
109,192,283212,1,0,0:0:0:70:kick1.wav
256,192,283212,1,0,0:0:0:0:
36,192,283264,1,0,0:0:0:0:
182,192,283317,1,0,0:0:0:70:kick1.wav
329,192,283317,1,0,3:0:0:0:
402,192,283317,1,0,0:0:0:0:
475,192,283370,1,0,0:0:0:0:
109,192,283422,1,0,0:0:0:70:kick1.wav
329,192,283422,1,0,0:0:0:0:
182,192,283475,1,0,0:0:0:0:
36,192,283528,1,0,0:0:0:70:kick1.wav
256,192,283528,1,0,0:0:0:0:
475,192,283528,1,0,3:0:0:0:
402,192,283580,1,0,0:0:0:0:
36,192,283633,1,0,0:0:0:70:kick1.wav
182,192,283633,1,0,0:0:0:0:
329,192,283685,1,0,0:0:0:0:
109,192,283738,1,0,0:0:0:70:kick1.wav
402,192,283738,1,0,0:0:0:0:
475,192,283738,1,0,3:0:0:0:
182,192,283791,1,0,0:0:0:0:
329,192,283843,1,0,0:0:0:70:kick1.wav
402,192,283843,1,0,0:0:0:0:
256,192,283896,1,0,0:0:0:0:
36,192,283949,1,0,0:0:0:70:kick1.wav
109,192,283949,1,0,0:0:0:0:
475,192,283949,1,0,3:0:0:0:
402,192,284001,1,0,0:0:0:0:
109,192,284054,1,0,0:0:0:70:kick1.wav
182,192,284054,1,0,0:0:0:0:
256,192,284106,1,0,0:0:0:0:
36,192,284159,1,0,0:0:0:70:kick1.wav
329,192,284159,1,0,0:0:0:0:
475,192,284159,1,0,3:0:0:0:
109,192,284212,1,0,0:0:0:0:
329,192,284264,1,0,0:0:0:70:kick1.wav
402,192,284264,1,0,0:0:0:0:
256,192,284317,1,0,0:0:0:0:
36,192,284370,1,0,0:0:0:70:kick1.wav
182,192,284370,1,0,0:0:0:0:
475,192,284370,1,0,3:0:0:0:
402,192,284422,1,0,0:0:0:0:
109,192,284475,1,0,0:0:0:70:kick1.wav
182,192,284475,1,0,0:0:0:0:
256,192,284528,1,0,0:0:0:70:kick1.wav
329,192,284528,1,0,0:0:0:0:
36,192,284580,1,0,0:0:0:70:kick1.wav
402,192,284580,1,0,0:0:0:0:
475,192,284580,1,0,3:0:0:0:
109,192,284633,1,0,0:0:0:0:
329,192,284685,1,0,0:0:0:70:kick1.wav
402,192,284685,1,0,0:0:0:0:
182,192,284738,1,0,0:0:0:70:kick1.wav
256,192,284738,1,0,0:0:0:0:
36,192,284791,1,0,0:0:0:70:kick1.wav
109,192,284791,1,0,0:0:0:0:
475,192,284791,1,0,3:0:0:0:
402,192,284843,1,0,0:0:0:0:
109,192,284896,1,0,0:0:0:70:kick1.wav
182,192,284896,1,0,0:0:0:0:
256,192,284949,1,0,0:0:0:70:kick1.wav
329,192,284949,1,0,0:0:0:0:
36,192,285001,1,0,0:0:0:70:kick1.wav
402,192,285001,1,0,0:0:0:0:
475,192,285001,1,0,3:0:0:0:
182,192,285054,1,0,0:0:0:0:
109,192,285106,1,0,0:0:0:70:kick1.wav
475,192,285106,1,0,0:0:0:0:
329,192,285159,1,0,0:0:0:0:
36,192,285212,1,0,0:0:0:70:kick1.wav
182,192,285212,1,0,0:0:0:0:
256,192,285212,1,0,3:0:0:0:
402,192,285264,1,0,0:0:0:0:
182,192,285317,1,0,0:0:0:70:kick1.wav
475,192,285317,1,0,0:0:0:0:
109,192,285370,1,0,0:0:0:0:
36,192,285422,1,0,0:0:0:70:kick1.wav
329,192,285422,1,0,0:0:0:0:
402,192,285422,1,0,3:0:0:0:
256,192,285475,1,0,0:0:0:0:
109,192,285528,1,0,0:0:0:70:kick1.wav
402,192,285528,1,0,0:0:0:0:
182,192,285580,1,0,0:0:0:0:
36,192,285633,1,0,0:0:0:70:kick1.wav
256,192,285633,1,0,0:0:0:0:
329,192,285633,1,0,3:0:0:0:
402,192,285685,1,0,0:0:0:70:kick1.wav
475,192,285685,1,0,0:0:0:0:
182,192,285738,1,0,0:0:0:70:kick1.wav
256,192,285738,1,0,0:0:0:0:
36,192,285791,1,0,0:0:0:70:kick1.wav
109,192,285791,1,0,0:0:0:0:
329,192,285843,1,0,0:0:0:70:kick1.wav
402,192,285843,1,0,0:0:0:0:
475,192,285843,1,0,3:0:0:0:
182,192,285896,1,0,0:0:0:0:
256,192,285949,1,0,0:0:0:70:kick1.wav
475,192,285949,1,0,0:0:0:0:
36,192,286001,1,0,0:0:0:70:kick1.wav
402,192,286001,1,0,0:0:0:0:
109,192,286054,1,0,0:0:0:70:kick1.wav
182,192,286054,1,0,0:0:0:0:
329,192,286054,1,0,3:0:0:0:
475,192,286106,1,0,0:0:0:0:
182,192,286159,1,0,0:0:0:70:kick1.wav
256,192,286159,1,0,0:0:0:0:
109,192,286212,1,0,0:0:0:0:
36,192,286264,1,0,0:0:0:70:kick1.wav
402,192,286264,1,0,0:0:0:0:
475,192,286264,1,0,3:0:0:0:
182,192,286317,1,0,0:0:0:70:kick1.wav
256,192,286317,1,0,0:0:0:0:
329,192,286370,1,0,0:0:0:70:kick1.wav
475,192,286370,1,0,0:0:0:0:
109,192,286422,1,0,0:0:0:70:kick1.wav
182,192,286422,1,0,0:0:0:0:
256,192,286475,1,0,0:0:0:70:kick1.wav
402,192,286475,1,0,0:0:0:0:
475,192,286475,1,0,3:0:0:0:
36,192,286528,1,0,0:0:0:70:kick1.wav
109,192,286528,1,0,0:0:0:0:
182,192,286580,1,0,0:0:0:70:kick1.wav
329,192,286580,1,0,0:0:0:0:
402,192,286633,1,0,0:0:0:70:kick1.wav
475,192,286633,1,0,0:0:0:0:
36,192,286685,1,0,0:0:0:70:kick1.wav
109,192,286685,1,0,0:0:0:0:
256,192,286685,1,0,3:0:0:0:
329,192,286738,1,0,0:0:0:70:kick1.wav
402,192,286738,1,0,0:0:0:0:
36,192,286791,1,0,0:0:0:70:kick1.wav
182,192,286791,1,0,0:0:0:0:
256,192,286843,1,0,0:0:0:70:kick1.wav
329,192,286843,1,0,0:0:0:0:
36,192,286896,1,0,0:0:0:70:kick1.wav
109,192,286896,1,0,0:0:0:60:kick2.wav
402,192,286896,1,0,0:0:0:0:
475,192,286896,1,0,3:0:0:0:
182,192,286975,1,0,0:0:0:60:kick1.wav
256,192,286975,1,0,0:0:0:0:
329,192,286975,1,0,3:0:0:0:
36,192,287054,1,0,0:0:0:60:kick1.wav
256,192,287067,1,0,0:0:0:0:
402,192,287067,1,0,3:0:0:0:
182,192,287133,1,0,0:0:0:60:kick1.wav
329,192,287159,1,0,0:0:0:0:
402,192,287159,1,0,3:0:0:0:
475,192,287212,1,0,0:0:0:60:kick1.wav
36,192,287251,1,0,0:0:0:0:
182,192,287251,1,0,3:0:0:0:
329,192,287291,1,0,0:0:0:60:kick1.wav
109,192,287343,1,0,0:0:0:0:
256,192,287343,1,0,3:0:0:0:
475,192,287370,1,0,0:0:0:60:kick1.wav
109,192,287435,1,0,0:0:0:0:
182,192,287435,1,0,3:0:0:0:
329,192,287449,1,0,0:0:0:60:kick1.wav
36,192,287528,1,0,0:0:0:70:kick1.wav
256,192,287528,1,0,0:0:0:60:kick2.wav
402,192,287528,1,0,0:0:0:0:
475,192,287528,1,0,3:0:0:0:
182,192,287580,1,0,0:0:0:0:
36,192,287633,1,0,0:0:0:70:kick1.wav
109,192,287633,1,0,0:0:0:0:
329,192,287685,1,0,0:0:0:0:
182,192,287738,1,0,0:0:0:70:kick1.wav
402,192,287738,1,0,0:0:0:0:
475,192,287738,1,0,3:0:0:0:
256,192,287791,1,0,0:0:0:0:
36,192,287843,1,0,0:0:0:70:kick1.wav
475,192,287843,1,0,0:0:0:0:
329,192,287896,1,0,0:0:0:0:
109,192,287949,1,0,0:0:0:70:kick1.wav
182,192,287949,1,0,0:0:0:0:
402,192,287949,1,0,3:0:0:0:
256,192,288001,1,0,0:0:0:0:
109,192,288054,1,0,0:0:0:70:kick1.wav
475,192,288054,1,0,0:0:0:0:
182,192,288106,1,0,0:0:0:0:
36,192,288159,1,0,0:0:0:70:kick1.wav
329,192,288159,1,0,0:0:0:0:
402,192,288159,1,0,3:0:0:0:
256,192,288212,1,0,0:0:0:0:
109,192,288264,1,0,0:0:0:70:kick1.wav
402,192,288264,1,0,0:0:0:0:
329,192,288317,1,0,0:0:0:0:
36,192,288370,1,0,0:0:0:70:kick1.wav
182,192,288370,1,0,0:0:0:0:
475,192,288370,1,0,3:0:0:0:
402,192,288422,1,0,0:0:0:0:
109,192,288475,1,0,0:0:0:70:kick1.wav
182,192,288475,1,0,0:0:0:0:
256,192,288528,1,0,0:0:0:0:
36,192,288580,1,0,0:0:0:70:kick1.wav
329,192,288580,1,0,0:0:0:0:
475,192,288580,1,0,3:0:0:0:
109,192,288633,1,0,0:0:0:0:
329,192,288685,1,0,0:0:0:70:kick1.wav
402,192,288685,1,0,0:0:0:0:
256,192,288738,1,0,0:0:0:0:
36,192,288791,1,0,0:0:0:70:kick1.wav
182,192,288791,1,0,0:0:0:0:
475,192,288791,1,0,3:0:0:0:
329,192,288843,1,0,0:0:0:0:
109,192,288896,1,0,0:0:0:70:kick1.wav
475,192,288896,1,0,0:0:0:0:
256,192,288949,1,0,0:0:0:0:
36,192,289001,1,0,0:0:0:70:kick1.wav
329,192,289001,1,0,0:0:0:0:
402,192,289001,1,0,3:0:0:0:
182,192,289054,1,0,0:0:0:0:
36,192,289106,1,0,0:0:0:70:kick1.wav
475,192,289106,1,0,0:0:0:0:
256,192,289159,1,0,0:0:0:0:
109,192,289212,1,0,0:0:0:70:kick1.wav
329,192,289212,1,0,0:0:0:0:
402,192,289212,1,0,3:0:0:0:
182,192,289264,1,0,0:0:0:0:
36,192,289317,1,0,0:0:0:70:kick1.wav
402,192,289317,1,0,0:0:0:0:
256,192,289370,1,0,0:0:0:0:
109,192,289422,1,0,0:0:0:70:kick1.wav
182,192,289422,1,0,0:0:0:0:
475,192,289422,1,0,3:0:0:0:
329,192,289475,1,0,0:0:0:0:
109,192,289528,1,0,0:0:0:70:kick1.wav
402,192,289528,1,0,0:0:0:0:
36,192,289580,1,0,0:0:0:70:kick1.wav
475,192,289580,1,0,0:0:0:0:
182,192,289633,1,0,0:0:0:70:kick1.wav
256,192,289633,1,0,0:0:0:0:
329,192,289633,1,0,3:0:0:0:
109,192,289685,1,0,0:0:0:0:
329,192,289738,1,0,0:0:0:70:kick1.wav
402,192,289738,1,0,0:0:0:0:
36,192,289791,1,0,0:0:0:0:
182,192,289843,1,0,0:0:0:70:kick1.wav
256,192,289843,1,0,0:0:0:0:
475,192,289843,1,0,3:0:0:0:
329,192,289896,1,0,0:0:0:0:
182,192,289949,1,0,0:0:0:70:kick1.wav
402,192,289949,1,0,0:0:0:0:
109,192,290001,1,0,0:0:0:0:
36,192,290054,1,0,0:0:0:70:kick1.wav
329,192,290054,1,0,0:0:0:0:
475,192,290054,1,0,3:0:0:0:
256,192,290106,1,0,0:0:0:0:
182,192,290124,1,0,0:0:0:70:kick1.wav
402,192,290159,1,0,0:0:0:0:
36,192,290194,1,0,0:0:0:70:kick1.wav
329,192,290212,1,0,0:0:0:0:
109,192,290264,1,0,0:0:0:70:kick1.wav
182,192,290264,1,0,0:0:0:0:
475,192,290264,1,0,3:0:0:0:
256,192,290317,1,0,0:0:0:0:
329,192,290335,1,0,0:0:0:70:kick1.wav
109,192,290370,1,0,0:0:0:0:
475,192,290405,1,0,0:0:0:70:kick1.wav
182,192,290422,1,0,0:0:0:0:
36,192,290475,1,0,0:0:0:70:kick1.wav
256,192,290475,1,0,0:0:0:0:
402,192,290475,1,0,3:0:0:0:
475,192,290528,1,0,0:0:0:0:
109,192,290545,1,0,0:0:0:70:kick1.wav
329,192,290580,1,0,0:0:0:0:
256,192,290615,1,0,0:0:0:70:kick1.wav
182,192,290633,1,0,0:0:0:0:
109,192,290685,1,0,0:0:0:70:kick1.wav
402,192,290685,1,0,0:0:0:0:
475,192,290685,1,0,3:0:0:0:
36,192,290738,1,0,0:0:0:0:
256,192,290756,1,0,0:0:0:70:kick1.wav
329,192,290791,1,0,0:0:0:0:
402,192,290826,1,0,0:0:0:70:kick1.wav
182,192,290843,1,0,0:0:0:0:
36,192,290896,1,0,0:0:0:70:kick1.wav
109,192,290896,1,0,0:0:0:0:
329,192,290896,1,0,3:0:0:0:
475,192,290949,1,0,0:0:0:0:
256,192,290966,1,0,0:0:0:70:kick1.wav
182,192,291001,1,0,0:0:0:0:
109,192,291036,1,0,0:0:0:70:kick1.wav
329,192,291054,1,0,0:0:0:0:
182,192,291106,1,0,0:0:0:70:kick1.wav
402,192,291106,1,0,0:0:0:0:
475,192,291106,1,0,3:0:0:0:
36,192,291159,1,0,0:0:0:0:
256,192,291177,1,0,0:0:0:70:kick1.wav
329,192,291212,1,0,0:0:0:0:
402,192,291247,1,0,0:0:0:70:kick1.wav
182,192,291264,1,0,0:0:0:0:
36,192,291317,1,0,0:0:0:70:kick1.wav
256,192,291317,1,0,0:0:0:0:
475,192,291317,1,0,3:0:0:0:
109,192,291370,1,0,0:0:0:70:kick1.wav
329,192,291370,1,0,0:0:0:0:
182,192,291422,1,0,0:0:0:70:kick1.wav
402,192,291422,1,0,0:0:0:0:
109,192,291475,1,0,0:0:0:70:kick1.wav
329,192,291475,1,0,0:0:0:0:
36,192,291528,1,0,0:0:0:70:kick1.wav
256,192,291528,1,0,0:0:0:0:
475,192,291528,1,0,3:0:0:0:
182,192,291580,1,0,0:0:0:70:kick1.wav
402,192,291580,1,0,0:0:0:0:
36,192,291633,1,0,0:0:0:70:kick1.wav
109,192,291633,1,0,0:0:0:0:
329,192,291633,1,0,3:0:0:0:
256,192,291685,1,0,0:0:0:70:kick1.wav
475,192,291685,1,0,0:0:0:0:
109,192,291738,1,0,0:0:0:70:kick1.wav
182,192,291738,1,0,0:0:0:0:
329,192,291738,1,0,3:0:0:0:
256,192,291791,1,0,0:0:0:70:kick1.wav
402,192,291791,1,0,0:0:0:0:
36,192,291843,1,0,0:0:0:70:kick1.wav
109,192,291843,1,0,0:0:0:0:
475,192,291843,1,0,3:0:0:0:
182,192,291896,1,0,0:0:0:70:kick1.wav
329,192,291896,1,0,0:0:0:0:
36,192,291949,128,0,292291:0:0:0:70:kick1.wav
109,192,291949,128,0,292370:0:0:0:60:kick2.wav
256,192,291949,128,0,292435:0:0:0:0:
402,192,291949,128,0,292370:0:0:0:0:
475,192,291949,128,0,292291:3:0:0:0:
256,192,299856,5,0,0:0:0:8:kick2.wav
182,192,299922,1,0,0:0:0:10:kick2.wav
329,192,299988,1,0,0:0:0:12:kick2.wav
109,192,300054,1,0,0:0:0:14:kick2.wav
402,192,300120,1,0,0:0:0:16:kick2.wav
182,192,300185,1,0,0:0:0:18:kick2.wav
329,192,300251,1,0,0:0:0:19:kick2.wav
256,192,300317,1,0,0:0:0:20:kick2.wav
256,192,300422,1,0,0:0:0:20:kick2.wav
256,192,300554,1,0,0:0:0:20:kick2.wav
256,192,300712,1,0,0:0:0:20:kick2.wav
256,192,300896,1,0,0:0:0:20:kick2.wav
256,192,301106,1,0,0:0:0:20:kick2.wav
256,192,301343,1,0,0:0:0:20:kick2.wav
256,192,301606,1,0,0:0:0:20:kick2.wav
256,192,301896,1,0,0:0:0:20:kick2.wav
36,192,302212,1,0,0:0:0:20:kick2.wav
475,192,302264,1,0,0:0:0:18:kick2.wav
109,192,302317,1,0,0:0:0:16:kick2.wav
402,192,302370,1,0,0:0:0:14:kick2.wav
182,192,302422,1,0,0:0:0:12:kick2.wav
329,192,302475,1,0,0:0:0:14:kick2.wav
256,192,302528,1,0,0:0:0:16:kick2.wav
182,192,302580,1,0,0:0:0:18:kick2.wav
329,192,302633,1,0,0:0:0:20:kick2.wav
109,192,302685,128,0,305212:0:0:0:15:
36,192,302685,1,0,0:0:0:15:
475,192,302685,1,0,0:0:0:15:
402,192,302685,1,0,0:0:0:35:kick2.wav
256,192,305212,128,0,307738:0:0:0:0:
402,192,307738,128,0,310264:0:0:0:0:
36,192,313212,128,0,315317:0:0:0:0:
475,192,315317,128,0,317843:0:0:0:0:
256,192,317843,128,0,320370:0:0:0:0:
109,192,323317,128,0,325422:0:0:0:0:
402,192,325422,128,0,327949:0:0:0:0:
182,192,327949,128,0,330475:0:0:0:0:
329,192,330475,1,0,0:0:0:0:
36,192,333001,128,0,335528:0:0:0:0:
182,192,335528,128,0,338054:0:0:0:0:
329,192,338054,128,0,340580:0:0:0:0:
475,192,340580,1,0,0:0:0:0:
256,192,343528,128,0,353212:0:0:0:0:
