osu file format v14

[General]
AudioFilename: PrinceXPrince.mp3
AudioLeadIn: 0
PreviewTime: 54970
Countdown: 0
SampleSet: Soft
StackLeniency: 0.7
Mode: 0
LetterboxInBreaks: 0
WidescreenStoryboard: 0

[Editor]
DistanceSpacing: 1
BeatDivisor: 4
GridSize: 32
TimelineZoom: 1

[Metadata]
Title:PrincexPrince
TitleUnicode:PrincexPrince
Artist:From4to7
ArtistUnicode:From4to7
Creator:Konei
Version:Insane
Source:私がモテてどうすんだ
Tags:watashi ga motete dousunda yaoi fujoshi opening op kiss him not me
BeatmapID:1438701
BeatmapSetID:680419

[Difficulty]
HPDrainRate:7
CircleSize:4
OverallDifficulty:7
ApproachRate:9
SliderMultiplier:1.7
SliderTickRate:1

[Events]
//Background and Video events
Video,-460,"op.avi"
0,0,"bg.jpg",0,0
//Break Periods
2,29884,43999
//Storyboard Layer 0 (Background)
//Storyboard Layer 1 (Fail)
//Storyboard Layer 2 (Pass)
//Storyboard Layer 3 (Foreground)
//Storyboard Sound Samples

[TimingPoints]
-658,342.857142857143,4,2,1,60,1,0
2084,-133.333333333333,4,2,1,60,0,0
2942,-100,4,2,1,60,0,0
4742,-100,4,2,1,5,0,0
4827,-100,4,2,1,60,0,0
10313,-200,4,2,1,60,0,0
11084,-200,4,2,1,5,0,0
11170,-100,4,2,1,60,0,0
21713,-100,4,2,1,5,0,0
21970,-100,4,2,1,50,0,0
22656,-133.333333333333,4,2,1,50,0,0
27970,-100,4,2,1,50,0,0
33627,-133.333333333333,4,2,1,50,0,0
38942,-100,4,2,1,50,0,0
44599,-166.666666666667,4,2,1,50,0,0
48542,-111.111111111111,4,2,1,50,0,0
49056,-142.857142857143,4,2,1,50,0,0
49399,-100,4,2,1,50,0,0
52827,-83.3333333333333,4,2,1,50,0,0
55570,-100,4,2,1,60,0,1
64142,-200,4,2,1,60,0,1
65684,-100,4,2,1,60,0,1
66027,-100,4,2,1,60,0,0
66541,-100,4,2,1,60,0,1
77512,-100,4,2,1,60,0,0

[Colours]
Combo1 : 99,40,164
Combo2 : 18,99,22
Combo3 : 244,17,11
Combo4 : 52,84,235
Combo5 : 239,62,10

[HitObjects]
108,134,199,6,0,L|49:132,2,42.5,0|0|8,3:0|3:0|1:0,0:0:0:0:
192,206,542,1,0,0:0:0:0:
337,65,713,6,0,P|375:51|429:54,1,85,4|0,1:0|0:0,0:0:0:0:
386,130,1056,1,0,0:0:0:0:
382,214,1227,1,0,0:0:0:0:
338,287,1399,1,0,0:0:0:0:
256,309,1570,1,0,0:0:0:0:
173,287,1742,1,0,0:0:0:0:
118,221,1913,1,0,0:0:0:0:
337,65,2084,6,0,P|391:144|347:219,1,191.250007295609,4|0,1:0|1:0,0:0:0:0:
120,305,2942,2,0,L|117:209,1,85,0|8,3:0|3:0,0:0:0:0:
109,39,3284,1,0,0:0:0:0:
109,39,3370,1,0,1:0:0:0:
109,39,3456,6,0,P|148:25|207:32,1,85,4|2,1:0|0:0,0:0:0:0:
300,263,3799,2,0,P|259:273|205:258,1,85,2|2,0:0|0:0,0:0:0:0:
319,27,4142,2,0,P|362:25|402:40,1,85,2|2,0:0|0:0,0:0:0:0:
301,282,4484,6,0,P|258:278|196:222,1,127.5,8|0,3:0|0:0,0:0:0:0:
147,159,4827,6,0,L|51:180,1,85,4|2,1:0|0:0,0:0:0:0:
285,51,5170,1,0,0:0:0:0:
317,211,5342,1,2,0:0:0:0:
446,299,5513,2,0,L|453:376,2,56.6666666666667,0|0|0,1:0|1:0|1:0,0:0:0:0:
439,107,5856,2,0,L|436:202,1,85
340,351,6199,5,4,1:0:0:0:
148,265,6370,1,0,3:0:0:0:
195,164,6542,2,0,P|208:105|202:73,1,85,8|0,1:0|1:0,0:0:0:0:
58,311,6884,2,0,L|237:305,1,170,0|8,3:1|1:0,0:0:0:0:
326,254,7399,1,0,0:0:0:0:
389,96,7570,6,0,L|475:91,1,85,4|0,1:1|3:0,0:0:0:0:
326,254,7913,1,8,1:0:0:0:
220,89,8084,2,0,B|286:86|286:86|331:98|331:98|404:95,1,170,0|0,1:0|1:0,0:0:0:0:
485,288,8599,2,0,P|494:242|478:201,1,85,8|0,1:0|0:0,0:0:0:0:
362,12,8942,5,4,1:0:0:0:
170,233,9113,2,0,P|221:214|243:186,1,85,2|2,0:0|0:0,0:0:0:0:
142,112,9456,1,2,0:0:0:0:
281,313,9627,5,0,1:0:0:0:
404,176,9799,2,0,L|494:164,1,85,0|0,1:0|1:0,0:0:0:0:
265,181,10142,1,0,1:0:0:0:
26,144,10313,6,0,B|60:105|15:53|15:53|66:61|107:27,1,191.25
121,29,11170,2,0,L|128:93,1,42.5,0|0,1:0|1:0,0:0:0:0:
143,203,11342,1,8,1:3:0:0:
394,330,11684,6,0,P|440:321|478:327,1,85,4|2,1:0|0:0,0:0:0:0:
277,354,12027,1,8,1:0:0:0:
309,248,12199,1,0,0:0:0:0:
453,131,12370,2,0,L|464:221,1,85,2|0,3:2|3:3,0:0:0:0:
477,326,12713,1,8,1:0:0:0:
324,230,12884,1,0,0:0:0:0:
324,230,12970,1,0,1:0:0:0:
324,230,13056,6,0,P|282:215|233:220,1,85,2|0,3:2|3:0,0:0:0:0:
130,258,13399,1,8,1:0:0:0:
221,334,13570,1,2,0:0:0:0:
150,144,13742,1,0,3:0:0:0:
150,144,13827,1,8,1:0:0:0:
150,144,13913,2,0,L|119:55,2,85,0|8|0,3:0|1:0|3:0,0:0:0:0:
340,334,14427,6,0,P|401:335|475:260,1,170,2|8,3:2|1:0,0:0:0:0:
331,160,14942,1,0,0:0:0:0:
331,160,15027,1,0,1:0:0:0:
331,160,15113,2,0,P|343:207|373:240,1,85,2|0,3:2|3:0,0:0:0:0:
117,145,15456,2,0,P|164:133|197:103,1,85,8|0,1:0|0:0,0:0:0:0:
268,314,15799,6,0,P|210:254|121:249,1,170,2|8,3:2|1:0,0:0:0:0:
159,364,16313,1,0,0:0:0:0:
117,145,16484,1,0,3:0:0:0:
117,145,16570,1,0,1:0:0:0:
117,145,16656,2,0,P|114:93|92:55,1,85,0|8,3:0|1:0,0:0:0:0:
46,235,16999,1,0,0:0:0:0:
300,204,17170,6,0,P|342:205|401:177,1,85,4|2,1:0|3:2,0:0:0:0:
456,77,17513,1,8,1:0:0:0:
447,336,17684,2,0,P|464:280|457:247,1,85,4|0,1:0|3:0,0:0:0:0:
456,77,18027,1,2,0:0:0:0:
253,39,18199,2,0,P|209:25|161:33,1,85,8|2,1:0|0:0,0:0:0:0:
15,124,18542,5,4,3:1:0:0:
46,235,18713,1,2,0:0:0:0:
162,339,18884,1,8,1:0:0:0:
182,197,19056,1,2,3:2:0:0:
320,128,19227,2,0,P|405:136|457:71,1,170,2|8,3:2|1:0,0:0:0:0:
361,32,19742,1,0,0:0:0:0:
287,247,19913,5,0,1:0:0:0:
125,136,20084,1,2,0:0:0:0:
332,315,20256,5,0,1:0:0:0:
126,85,20427,1,0,1:0:0:0:
133,289,20599,1,0,1:0:0:0:
332,315,20770,1,0,1:0:0:0:
435,129,20942,1,0,1:0:0:0:
289,11,21113,1,0,1:0:0:0:
256,205,21284,6,0,L|259:256,1,42.5,2|0,1:3|0:0,0:0:0:0:
260,259,21627,2,0,L|254:323,1,42.5,4|4,1:0|1:0,0:0:0:0:
255,319,21970,5,0,1:0:0:0:
148,351,22142,1,0,3:0:0:0:
56,290,22313,1,0,3:0:0:0:
61,179,22484,1,0,3:0:0:0:
137,64,22656,6,0,P|219:100|275:30,1,191.250007295609,4|0,1:0|0:0,0:0:0:0:
476,276,23513,2,0,L|481:196,1,63.7500024318696
199,285,24027,6,0,L|189:220,1,63.7500024318696,4|0,3:0|0:0,0:0:0:0:
168,104,24370,1,0,0:0:0:0:
150,326,24542,2,0,L|207:278,1,63.7500024318696,8|0,3:3|0:0,0:0:0:0:
288,204,24884,1,0,0:0:0:0:
347,67,25056,1,0,0:0:0:0:
381,257,25227,1,0,0:0:0:0:
381,257,25313,1,0,1:0:0:0:
381,257,25399,6,0,P|397:311|380:382,1,127.500004863739,4|0,1:0|0:0,0:0:0:0:
83,237,25913,2,0,P|67:183|84:112,1,127.500004863739,4|0,1:0|0:0,0:0:0:0:
292,288,26427,2,0,P|228:311|156:297,1,127.500004863739,4|0,1:0|0:0,0:0:0:0:
83,237,26942,5,0,1:0:0:0:
187,119,27113,1,0,1:0:0:0:
195,329,27284,1,0,1:0:0:0:
315,118,27456,1,0,1:0:0:0:
317,329,27627,1,0,1:0:0:0:
429,237,27799,1,0,3:0:0:0:
486,40,27970,6,0,P|418:13|331:49,1,170,4|0,1:0|3:0,0:0:0:0:
255,256,28484,2,0,L|257:167,1,85,10|0,1:0|0:0,0:0:0:0:
256,44,28827,1,2,1:0:0:0:
139,182,28999,1,2,3:1:0:0:
373,182,29170,1,8,1:0:0:0:
256,340,29342,1,2,3:1:0:0:
419,296,29513,6,0,P|463:284|515:295,1,85,0|0,3:0|0:0,0:0:0:0:
29,153,44599,6,0,L|136:146,1,101.999996887207,4|0,3:1|3:0,0:0:0:0:
263,133,45284,1,8,1:0:0:0:
214,256,45627,1,0,0:0:0:0:
432,326,45970,6,0,P|468:329|493:320,1,50.9999984436036,0|0,0:0|1:0,0:0:0:0:
454,252,46313,1,0,3:0:0:0:
402,129,46656,1,8,1:0:0:0:
286,63,46999,1,0,0:0:0:0:
314,253,47170,5,0,0:0:0:0:
314,253,47256,1,0,1:0:0:0:
314,253,47342,2,0,P|263:261|197:251,1,101.999996887207,0|0,3:0|3:0,0:0:0:0:
126,249,47856,2,0,L|120:315,1,50.9999984436036,0|8,3:0|1:0,0:0:0:0:
31,194,48199,2,0,L|27:144,1,50.9999984436036,0|0,3:0|3:0,0:0:0:0:
114,58,48542,6,0,P|176:27|263:49,1,152.999995330811,4|0,1:0|3:0,0:0:0:0:
360,179,49056,2,0,P|357:238|370:285,1,89.2499972763062,8|0,1:0|0:0,0:0:0:0:
368,298,49399,2,0,P|384:241|421:185,1,114.749996498108,8|0,1:0|0:0,0:0:0:0:
435,166,49742,5,0,1:0:0:0:
446,125,49827,1,0,1:0:0:0:
431,87,49913,1,0,1:0:0:0:
395,65,49999,1,0,1:0:0:0:
360,59,50084,6,0,L|259:64,1,85,4|2,1:0|0:0,0:0:0:0:
90,73,50427,1,8,1:0:0:0:
189,192,50599,1,0,0:0:0:0:
368,298,50770,2,0,P|418:303|455:290,1,85,0|0,3:0|3:0,0:0:0:0:
222,323,51113,1,8,1:0:0:0:
345,163,51284,6,0,P|394:141|512:149,1,170,0|0,3:0|3:0,0:0:0:0:
428,226,51799,1,8,1:0:0:0:
273,36,51970,1,0,3:0:0:0:
273,36,52056,1,0,1:0:0:0:
273,36,52142,2,0,P|231:31|179:45,1,85,0|0,3:0|3:0,0:0:0:0:
61,97,52484,1,8,1:0:0:0:
93,234,52656,1,0,0:0:0:0:
256,346,52827,6,0,L|364:342,1,101.999996887207,4|0,1:0|0:0,0:0:0:0:
93,234,53170,2,0,L|201:230,1,101.999996887207,0|0,1:0|0:0,0:0:0:0:
254,125,53513,2,0,L|362:121,1,101.999996887207,0|0,1:0|3:0,0:0:0:0:
77,20,53856,2,0,L|185:16,1,101.999996887207,0|0,1:0|3:0,0:0:0:0:
394,34,54199,5,0,1:0:0:0:
412,305,54370,1,0,1:0:0:0:
165,202,54542,1,0,1:0:0:0:
492,163,54713,1,0,1:0:0:0:
492,163,55056,5,2,0:0:0:0:
412,305,55227,1,2,0:0:0:0:
268,228,55399,1,2,0:0:0:0:
125,135,55570,6,0,P|72:126|32:136,1,85,4|2,1:0|0:0,0:0:0:0:
80,232,55913,1,8,1:0:0:0:
41,132,56084,1,0,0:0:0:0:
37,326,56256,2,0,P|90:335|130:325,1,85,0|0,3:0|3:0,0:0:0:0:
235,298,56599,1,8,1:0:0:0:
330,97,56770,1,0,0:0:0:0:
330,97,56856,1,0,1:0:0:0:
330,97,56942,6,0,L|436:89,1,85,0|0,3:0|3:0,0:0:0:0:
375,204,57284,1,8,1:0:0:0:
155,262,57456,1,0,0:0:0:0:
155,262,57542,1,0,1:0:0:0:
155,262,57627,2,0,P|110:277|77:309,1,85,0|0,3:0|3:0,0:0:0:0:
300,320,57970,1,8,1:0:0:0:
240,147,58142,1,2,0:0:0:0:
440,57,58313,5,2,3:2:0:0:
209,18,58484,1,2,0:0:0:0:
17,152,58656,1,8,1:0:0:0:
156,344,58827,1,0,0:0:0:0:
156,344,58913,1,0,1:0:0:0:
156,344,58999,2,0,P|163:296|149:249,1,85,0|0,3:0|3:0,0:0:0:0:
83,47,59342,1,8,1:0:0:0:
300,216,59513,6,0,P|384:222|454:158,1,170,0|0,3:0|3:0,0:0:0:0:
210,48,60027,2,0,P|191:98|200:141,1,85,8|0,1:0|0:0,0:0:0:0:
239,331,60370,1,0,0:0:0:0:
239,331,60456,1,0,1:0:0:0:
239,331,60542,2,0,L|345:327,1,85,0|8,3:0|1:0,0:0:0:0:
489,293,60884,1,0,0:0:0:0:
473,117,61056,5,4,1:0:0:0:
259,151,61227,2,0,P|212:162|170:152,1,85,0|8,3:0|1:0,0:0:0:0:
377,234,61570,1,0,0:0:0:0:
357,43,61742,1,0,3:0:0:0:
377,234,61913,2,0,P|387:296|377:326,1,85,0|8,3:0|1:0,0:0:0:0:
253,285,62256,1,0,0:0:0:0:
128,71,62427,6,0,P|74:65|40:71,1,85,2|0,3:2|3:0,0:0:0:0:
85,180,62770,1,8,1:0:0:0:
149,351,62942,1,0,0:0:0:0:
146,334,63027,1,0,1:0:0:0:
143,317,63113,1,0,1:0:0:0:
140,300,63199,1,0,0:0:0:0:
137,283,63284,2,0,L|236:262,1,85,2|8,3:2|1:0,0:0:0:0:
383,333,63627,1,2,3:2:0:0:
441,125,63799,2,0,P|456:72|446:28,1,85,0|0,3:0|3:0,0:0:0:0:
153,181,64142,6,0,L|248:168,1,85,4|0,1:0|3:0,0:0:0:0:
441,125,64656,1,0,3:0:0:0:
143,174,64827,6,0,L|238:161,1,85,4|2,1:0|3:2,0:0:0:0:
449,119,65342,1,2,0:0:0:0:
393,261,65513,1,8,1:0:0:0:
342,35,65684,2,0,L|258:33,1,85,2|8,0:0|1:0,0:0:0:0:
50,102,66027,5,0,1:0:0:0:
27,134,66112,1,0,1:0:0:0:
15,171,66198,1,0,1:0:0:0:
16,211,66284,1,0,1:0:0:0:
29,248,66369,1,0,1:0:0:0:
52,279,66455,1,0,1:0:0:0:
77,310,66542,6,0,P|116:317|179:301,1,85,4|2,1:0|0:0,0:0:0:0:
273,260,66884,1,8,1:0:0:0:
400,156,67056,1,0,0:0:0:0:
400,156,67142,1,0,1:0:0:0:
400,156,67227,2,0,L|479:202,1,85,0|0,3:0|3:0,0:0:0:0:
275,79,67570,1,8,1:0:0:0:
66,24,67742,6,0,P|24:84|72:162,1,170,0|0,3:0|3:0,0:0:0:0:
163,254,68256,1,8,1:0:0:0:
35,347,68427,1,2,3:2:0:0:
247,335,68599,1,0,3:0:0:0:
247,335,68684,1,0,1:0:0:0:
247,335,68770,2,0,L|335:326,1,85,0|8,3:0|1:0,0:0:0:0:
487,281,69113,1,0,3:0:0:0:
368,105,69284,6,0,L|374:193,1,85,2|0,3:2|0:0,0:0:0:0:
136,103,69627,2,0,P|200:94|241:40,1,127.5,8|0,1:0|1:0,0:0:0:0:
238,39,69970,2,0,L|244:127,1,85,0|0,3:0|3:0,0:0:0:0:
259,293,70313,1,8,1:0:0:0:
22,281,70484,6,0,P|68:261|106:267,1,85,2|0,3:2|3:2,0:0:0:0:
74,353,70827,1,0,3:0:0:0:
48,171,70999,1,8,1:0:0:0:
212,233,71170,1,0,3:0:0:0:
239,222,71256,1,0,1:0:0:0:
266,212,71342,1,0,3:0:0:0:
404,39,71513,2,0,L|399:134,1,85,0|8,3:0|1:0,0:0:0:0:
384,318,71856,1,0,1:0:0:0:
384,318,71942,1,0,1:0:0:0:
