osu file format v9

[General]
AudioFilename: lilium.mp3
AudioLeadIn: 0
PreviewTime: 104440
Countdown: 0
SampleSet: Soft
StackLeniency: 0.7
Mode: 0
LetterboxInBreaks: 1

[Editor]
DistanceSpacing: 1.1
BeatDivisor: 4
GridSize: 4

[Metadata]
Title:Lilium
Artist:From The Shadows
Creator:Louis Cyphre
Version:Gothic
Source:Elfen Lied
Tags:

[Difficulty]
HPDrainRate:5
CircleSize:4
OverallDifficulty:6
ApproachRate:7
SliderMultiplier:1.51
SliderTickRate:1

[Events]
//Background and Video events
0,0,"BG2.png"
//Break Periods
//Storyboard Layer 0 (Background)
//Storyboard Layer 1 (Fail)
//Storyboard Layer 2 (Pass)
//Storyboard Layer 3 (Foreground)
//Storyboard Sound Samples
//Background Colour Transformations
3,100,163,162,255

[TimingPoints]
1296,426.621160409556,4,2,0,5,1,0
1296,-133.333333333333,4,2,0,5,0,0
20895,425.531914893617,4,1,0,15,1,0
26435,425.531914893617,4,1,0,15,1,0
26850,427.046263345196,4,1,0,15,1,0
31558,427.046263345196,4,1,0,15,1,0
31990,427.046263345196,4,1,0,10,1,0
33690,424.028268551237,4,1,0,23,1,0
37098,461.538461538462,4,2,0,23,1,0
38034,391.389432485323,4,2,0,23,1,0
38034,-200,4,2,0,23,0,0
38835,425.531914893617,4,1,0,23,1,0
41388,425.531914893617,4,1,0,23,1,0
41701,425.531914893617,4,1,0,23,1,0
41838,425.531914893617,4,2,0,5,1,0
42263,428.571428571429,4,2,0,5,1,0
43975,422.535211267606,4,1,0,23,1,0
47777,-100,4,2,0,5,0,0
48232,422.535211267606,4,2,0,5,1,0
49071,422.535211267606,4,1,0,23,1,0
50756,428.571428571429,4,1,0,23,1,0
51613,426.621160409556,4,1,0,23,1,0
52520,422.535211267606,4,1,0,23,1,0
52922,421.052631578947,4,1,0,23,1,0
55027,428.571428571429,4,1,0,23,1,0
57592,431.654676258993,4,1,0,23,1,0
60193,423.280423280423,4,1,0,23,1,0
61880,422.535211267606,4,1,0,23,1,0
68640,-100,4,2,0,5,0,0
69940,375,4,1,0,23,1,0
71815,394.736842105263,4,1,0,23,1,0
73393,382.165605095541,4,1,0,23,1,0
74921,368.098159509202,4,2,0,5,1,0
76407,375,4,2,0,5,1,0
77157,397.350993377483,4,2,0,5,1,0
77951,375,4,2,0,5,1,0
79859,375,4,2,0,5,1,0
81359,384.615384615385,4,2,0,5,1,0
85920,361.44578313253,4,1,0,23,1,0
87004,382.165605095541,4,1,0,23,1,0
87387,441.096774193548,4,1,0,23,1,0
87828,408.163265306122,4,1,0,23,1,0
89000,377.358490566038,4,1,0,23,1,0
89750,375,4,1,0,23,1,0
91240,379.746835443038,4,1,0,23,1,0
92762,392.156862745098,4,1,0,23,1,0
95090,392.156862745098,4,1,0,23,1,0
95874,384.615384615385,4,1,0,23,1,0
97370,384.615384615385,4,1,0,23,1,0
98129,375,4,1,0,23,1,0
100395,379.746835443038,4,1,0,23,1,0
101925,389.61038961039,4,1,0,23,1,0
104430,461.538461538462,4,1,0,23,1,0
105780,461.538461538462,4,1,0,23,1,0
107626,458.015267175573,4,1,0,23,1,0
109450,451.127819548872,4,1,0,23,1,0
111254,458.015267175573,4,1,0,23,1,0
112170,468.75,4,1,0,23,1,0
116660,424.778761061947,4,1,0,23,1,0
131102,437.956204379562,4,2,0,5,1,0

[Colours]
Combo1 : 128,0,0
Combo2 : 0,112,166

[HitObjects]
376,188,1296,2,0,B|328:216|316:280,1,113.249996624887,2|0
204,296,2149,1,0
116,220,2575,5,0
108,212,3002,1,0
316,100,3855,6,0,B|364:68|424:76,2,113.249996624887,0|0|2
388,192,5135,1,0
392,204,5562,1,0
308,288,5988,6,0,B|200:316,1,113.249996624887
108,252,6842,1,0
216,208,7268,6,0,B|252:100,1,113.249996624887,2|0
348,56,8121,2,0,B|308:164,2,113.249996624887
444,124,9401,5,0
412,196,9828,1,0
424,272,10255,1,0
400,344,10681,1,2
288,308,11108,5,0
280,292,11534,1,0
172,244,11961,5,0
180,228,12388,1,0
108,136,12814,5,0
172,92,13241,1,0
252,84,13668,1,0
324,52,14094,1,2
436,92,14521,5,0
428,112,14947,1,0
464,248,15801,1,0
356,292,16227,5,0
280,272,16654,1,0
200,272,17080,1,0
124,248,17507,1,2
424,92,20067,5,0
404,120,20493,1,0
424,276,20895,6,0,B|348:260|348:300|276:284,1,151
308,208,21533,1,0
224,216,21746,2,0,B|168:160,1,75.5
192,84,22171,2,0,B|188:168|112:204,2,151
360,80,23448,5,0
332,160,23660,1,0
416,148,23873,2,0,B|416:200|388:224|388:224|404:292,1,151
236,300,24724,6,0,B|160:288,1,75.5
96,236,25150,1,0
84,232,25363,1,0
172,200,25575,2,0,B|204:132|184:52,1,151
352,64,26435,5,0
400,132,26647,1,0
460,76,26850,2,0,B|404:124|408:212,1,151
464,276,27490,1,0
400,332,27704,1,0
404,344,27917,1,0
336,280,28131,2,0,B|260:256|256:304|188:280,1,151
40,208,28985,6,0,B|72:276|56:356,2,151
72,44,30266,2,0,B|120:104|208:96,1,151
260,32,30906,1,0
288,108,31120,2,0,B|328:104|360:124,1,75.5
308,188,31558,1,0
176,296,31990,6,0,B|160:260|116:252,1,75.5
44,216,32417,2,0,B|76:144|56:68,1,151
40,232,33271,1,0
56,52,33690,6,0,B|208:76,1,151
256,140,34326,1,0
456,180,34538,2,0,B|304:204,1,151
56,180,35386,6,0,B|208:204,1,151
256,268,36022,1,0
312,332,36234,1,0
56,180,36658,1,0
48,156,37078,5,4
204,104,37559,1,0
172,88,38034,6,0,B|108:48,1,75.5
292,64,38835,1,4
364,148,39118,6,0,B|424:112,2,50.3333333333333
276,216,39686,1,0
376,260,39969,2,0,B|428:272,2,50.3333333333333
288,328,40537,1,0
188,284,40820,2,0,B|156:324,2,50.3333333333333
120,196,41387,1,0
160,80,41701,2,0,B|128:40,2,50.3333333333333
264,112,42263,5,0
376,116,42549,2,0,B|416:76,2,50.3333333333333
404,224,43120,1,0
296,240,43405,2,0,B|308:296,2,50.3333333333333
224,156,43975,6,0,B|140:148|160:184|76:176,1,151
52,160,44608,1,0
236,136,44820,2,0,B|204:208|216:288,1,151
252,128,45453,1,0
220,304,45665,1,0
256,192,45876,12,0,47777
400,244,48232,6,0,B|424:168|388:96,1,151
224,108,49071,2,0,B|204:188|240:256,1,151
180,312,49704,1,0
116,260,49916,2,0,B|88:184,1,75.5
32,128,50338,5,0
356,116,50756,1,0
452,252,51184,1,0
372,280,51398,1,0
292,308,51613,2,0,B|216:336,1,75.5
144,304,52039,1,0
464,132,52520,5,0
308,104,52922,2,0,B|312:144|292:176,1,75.5
127,231,53343,2,0,B|124:192|144:160,1,75.5
388,80,53764,2,0,B|394:158|353:223,1,151
52,260,54606,2,0,B|45:181|86:116,1,151
248,76,55455,5,0
244,80,55669,1,0
220,160,55884,1,0
224,164,56098,1,0
248,244,56312,1,0
244,248,56526,1,0
216,328,56741,2,0,B|288:356|368:328,1,151
480,152,57592,6,0,B|408:176,1,75.5
388,256,58023,2,0,B|408:184|380:108,1,151
172,88,58886,1,0
164,92,59102,1,0
80,100,59318,2,0,B|88:144|68:176,1,75.5
20,244,59750,2,0,B|36:284|72:296,1,75.5
156,264,60193,6,0,B|228:248|308:264,1,151
384,292,61039,1,0
464,268,61462,1,0
480,184,61880,6,0,B|444:116|360:104,1,151
348,188,62513,1,0
159,59,62725,2,0,B|199:131|280:140,1,151
292,56,63358,1,0
160,188,63570,6,0,B|180:268|148:336,1,151
76,292,64203,1,0
300,304,64415,1,0
40,164,64837,6,0,B|112:120,2,75.5
256,192,65471,12,0,68640
404,192,69940,5,0
400,196,70315,1,0
396,200,70690,2,0,B|316:216|248:180,1,151
104,96,71440,2,0,B|44:172,2,75.5
456,56,72209,6,0,B|472:136|456:208,1,151
432,288,72801,1,0
372,228,72999,2,0,B|300:192,1,75.5
168,268,73393,2,0,B|224:216,1,75.5
248,136,73775,2,0,B|212:64|116:52,1,151
64,208,74539,5,0
32,284,74730,1,0
116,272,74921,2,0,B|168:336|192:268|252:328,1,151
352,288,75657,1,0
384,184,76025,2,0,B|400:112,1,75.5
320,80,76407,6,0,B|172:120,1,151
264,348,77157,2,0,B|412:308,1,151
296,172,77951,2,0,B|348:112,2,75.5
136,124,78701,2,0,B|108:152|96:192|108:232|136:260,2,151
316,124,79859,6,0,B|343:151|355:191|343:231|316:259,1,151
156,308,80609,2,0,B|104:256,1,75.5
20,276,80984,2,0,B|16:236|32:204,1,75.5
24,124,81359,2,0,B|100:120|164:64,1,151
328,80,82128,2,0,B|356:108|360:148,1,75.5
276,152,82512,2,0,B|232:216|244:300,2,151
432,212,83666,6,0,B|460:184|452:140,1,75.5
372,160,84051,2,0,B|320:216|336:312,2,151
212,116,85205,1,0
132,140,85397,1,0
56,104,85589,1,0
20,252,85920,6,0,B|84:292|172:268,1,151
236,220,86462,1,0
449,189,86642,2,0,B|385:149|304:172,1,151
228,136,87195,1,0
160,180,87387,6,0,B|120:112|156:36,1,151
324,220,88440,1,0
372,288,88644,1,0
216,312,89000,2,0,B|140:332|68:288,1,151
296,71,89750,6,0,B|372:52|441:94,1,151
404,256,90500,2,0,B|420:332,1,75.5
484,252,90875,2,0,B|464:168,1,75.5
388,180,91240,2,0,B|312:148,1,75.5
92,96,91619,2,0,B|160:132,1,75.5
312,232,91999,2,0,B|236:224|172:276,1,151
40,180,92762,6,0,B|32:136|44:104,1,75.5
116,144,93154,2,0,B|188:116|188:168|264:136,2,151
148,308,94330,6,0,B|224:316,2,75.5
304,324,95090,6,0,B|392:324|420:240,1,151
452,76,95874,2,0,B|436:148,1,75.5
364,104,96258,2,0,B|284:76|296:128|216:104,1,151
72,184,97027,1,0
152,308,97370,6,0,B|212:264|212:264|296:264,1,151
460,280,98129,2,0,B|476:124,1,151
336,36,98879,2,0,B|320:192,1,151
