osu file format v14

[General]
AudioFilename: Ray of Bullet.mp3
AudioLeadIn: 0
PreviewTime: 50355
Countdown: 0
SampleSet: Soft
StackLeniency: 0.3
Mode: 0
LetterboxInBreaks: 0
WidescreenStoryboard: 0

[Editor]
DistanceSpacing: 1
BeatDivisor: 4
GridSize: 8
TimelineZoom: 1

[Metadata]
Title:Ray of bullet (TV SIZE)
TitleUnicode:Ray of bullet (TV SIZE)
Artist:Freyja Iris (Hidaka Rina) & Mononobe Mitsuki (Numakura Manami)
ArtistUnicode:イリス・フレイヤ(日高里菜)、物部深月(沼倉愛美)
Creator:Hatori-kun
Version:Insane
Source:銃皇無尽のファフニール
Tags:
BeatmapID:630055
BeatmapSetID:278089

[Difficulty]
HPDrainRate:7
CircleSize:4
OverallDifficulty:8
ApproachRate:9
SliderMultiplier:1.6
SliderTickRate:2

[Events]
//Background and Video events
0,0,"1.jpg",0,0
//Break Periods
2,13826,38810
//Storyboard Layer 0 (Background)
//Storyboard Layer 1 (Fail)
//Storyboard Layer 2 (Pass)
//Storyboard Layer 3 (Foreground)
//Storyboard Sound Samples

[TimingPoints]
815.425857550614,324.324324324324,4,2,0,0,1,0
1788,-166.666666666667,4,2,0,0,0,0
6977,-100,4,2,0,0,0,0
51085,-86.9565217391304,4,2,0,0,0,1
66491,-86.9565217391304,4,2,0,0,0,0
66653,-86.9565217391304,4,2,0,0,0,1
84653,-86.9565217391304,4,2,0,0,0,0

[Colours]
Combo1 : 217,166,211
Combo2 : 192,192,192
Combo3 : 0,128,255
Combo4 : 139,151,182

[HitObjects]
72,80,815,5,0,0:0:0:0:
80,96,1139,1,0,0:0:0:0:
88,112,1464,1,0,0:0:0:0:
168,152,1626,1,0,0:0:0:0:
232,96,1788,6,0,P|296:72|384:88,1,143.999995605469
440,144,2437,1,0,0:0:0:0:
440,152,2761,6,0,B|384:168|360:232|360:232|336:184|296:184,1,191.999994140625
224,240,3734,1,0,0:0:0:0:
216,256,4058,1,0,0:0:0:0:
48,312,4382,2,0,B|40:264|40:264|56:232|32:192|32:192|24:224,1,143.999995605469
27,210,5031,2,0,L|123:202,1,95.9999970703126
264,288,5842,5,0,0:0:0:0:
328,224,6004,2,0,P|326:186|312:152,1,71.9999978027344
240,200,6328,5,0,0:0:0:0:
152,176,6491,1,0,0:0:0:0:
149,161,6572,1,0,0:0:0:0:
147,147,6653,1,0,0:0:0:0:
145,133,6734,1,0,0:0:0:0:
143,118,6815,1,0,0:0:0:0:
141,104,6896,1,0,0:0:0:0:
139,90,6977,5,0,0:0:0:0:
232,40,7139,1,0,0:0:0:0:
248,144,7301,1,0,0:0:0:0:
64,208,7464,5,0,0:0:0:0:
80,104,7626,1,0,0:0:0:0:
336,176,7788,5,0,0:0:0:0:
320,280,7950,1,0,0:0:0:0:
281,82,8112,2,0,P|331:74|436:123,1,160
480,192,8599,1,0,0:0:0:0:
376,320,8761,6,0,B|336:304|304:336|304:336|296:296|224:296,1,160
160,336,9247,1,0,0:0:0:0:
280,208,9410,1,0,0:0:0:0:
280,208,9491,1,0,0:0:0:0:
280,208,9572,6,0,P|288:168|264:112,1,80
192,56,9896,1,0,0:0:0:0:
192,56,10058,1,0,0:0:0:0:
360,104,10220,5,0,0:0:0:0:
264,200,10382,1,0,0:0:0:0:
112,40,10545,1,0,0:0:0:0:
112,40,10707,1,0,0:0:0:0:
256,128,10869,6,0,P|264:176|256:224,1,80
184,256,11193,1,0,0:0:0:0:
184,256,11355,1,0,0:0:0:0:
96,160,11518,6,0,L|112:64,1,80
184,32,11842,1,0,0:0:0:0:
184,32,12004,1,0,0:0:0:0:
344,176,12166,5,0,0:0:0:0:
416,120,12328,2,0,L|496:112,1,80
264,232,12653,2,0,L|176:240,1,80
80,152,12977,6,0,P|72:104|80:56,1,80
160,112,13301,1,0,0:0:0:0:
160,112,13464,6,0,L|272:104,1,80
64,96,39410,5,0,0:0:0:0:
88,216,39572,1,0,0:0:0:0:
192,128,39896,1,0,0:0:0:0:
192,128,40220,1,0,0:0:0:0:
192,128,40545,1,0,0:0:0:0:
192,128,40626,1,0,0:0:0:0:
192,128,40707,2,0,L|312:120,1,120
392,168,41031,2,0,P|400:104|368:40,1,120
280,40,41355,2,0,L|120:48,1,160
56,144,41842,1,0,0:0:0:0:
160,192,42004,1,0,0:0:0:0:
280,40,42166,1,0,0:0:0:0:
280,40,42491,1,0,0:0:0:0:
296,152,42653,2,0,P|352:160|416:120,1,120
440,48,42977,2,0,L|272:32,1,160
192,128,43626,1,0,0:0:0:0:
192,128,43950,1,0,0:0:0:0:
192,128,44274,1,0,0:0:0:0:
192,128,44437,1,0,0:0:0:0:
192,128,44599,1,0,0:0:0:0:
192,128,44761,1,0,0:0:0:0:
192,128,45085,1,0,0:0:0:0:
192,128,45247,1,0,0:0:0:0:
192,128,45572,1,0,0:0:0:0:
192,128,45734,1,0,0:0:0:0:
192,128,45815,1,0,0:0:0:0:
192,128,45896,2,0,L|360:144,1,160
432,208,46382,2,0,L|456:24,1,160
272,32,46869,2,0,L|296:200,1,160
184,368,47410,2,0,L|168:304,2,53.3333333333333
256,320,47734,2,0,L|264:264,2,53.3333333333333
336,360,48058,1,0,0:0:0:0:
408,304,48166,2,0,L|488:64,1,240
