osu file format v5

[General]
AudioFilename: Infinity and Beyond.mp3
AudioLeadIn: 0
PreviewTime: -1
Countdown: 0
SampleSet: Normal
StackLeniency: 0.7
Mode: 0
LetterboxInBreaks: 1
EditorBookmarks: 18966,28300,40633,50966,60299,71966,82966,93633
EditorDistanceSpacing: 0.800000011920929

[Metadata]
Title:Infinity and Beyond
Artist:French-Bread
Creator:norther
Version:Insane
Source:GOF2
Tags:

[Difficulty]
HPDrainRate:6
CircleSize:6
OverallDifficulty:7
SliderMultiplier:1.5
SliderTickRate:2

[Events]
//Background and Video events
0,0,"GOF2.jpg"
//Break Periods
2,35666,38400
//Storyboard Layer 0 (Background)
//Storyboard Layer 1 (Failing)
//Storyboard Layer 2 (Passing)
//Storyboard Layer 3 (Foreground)
//Storyboard Sound Samples
//Background Colour Transformations
3,100,163,162,255

[TimingPoints]
19300,333.333333333333,4,1,0,80,1,0
61633,-100,4,1,0,70,0,0
83299,-100,4,1,0,90,0,1

[Colours]
Combo1 : 255,150,0
Combo2 : 5,240,5
Combo3 : 5,5,240
Combo4 : 240,5,5
Combo5 : 128,128,192

[HitObjects]
288,64,18466,6,0,B|272:32|272:32|256:64|256:64|240:32|240:32|224:64|224:64|208:32|208:32|192:64|192:64|176:32|176:32,1,225
64,64,19300,6,0,B|128:160,1,75
128,64,19633,2,0,B|192:160,1,75
192,64,19966,1,0
224,128,20133,2,0,B|416:128,1,150
432,192,20633,6,0,B|384:288,1,75
368,192,20966,2,0,B|320:288,1,75
304,192,21299,1,0
272,256,21466,2,0,B|112:256,1,150
64,256,21966,5,0
32,192,22133,1,0
64,128,22300,1,0
32,64,22466,1,0
96,32,22633,1,0
160,64,22800,2,0,B|352:64,1,150
352,96,23300,5,0
416,128,23466,1,0
480,160,23633,1,0
416,192,23800,1,0
352,224,23966,1,0
288,256,24133,2,0,B|144:320,1,150,0|4
16,368,24799,1,4
256,192,25966,12,0,27299
256,64,27633,5,0
176,64,27966,1,0
96,64,28299,1,0
80,128,28633,5,8
96,160,28799,1,0
96,160,28883,1,0
128,160,28966,1,8
144,192,29133,1,0
144,192,29216,1,0
176,192,29299,1,8
192,224,29466,1,0
192,224,29549,1,0
224,224,29633,1,8
272,256,29966,6,0,B|496:144,1,225
432,96,30633,1,0
384,32,30799,2,0,B|240:96,1,150
192,144,31299,6,0,B|142:286|142:286|99:195,1,225
80,160,31966,1,0
112,96,32133,2,0,B|224:-16,1,150
272,48,32633,6,0,B|331:90|331:90|331:164|331:164|225:146,1,225
256,224,33299,1,0
208,272,33466,2,0,B|128:336|304:352,1,150
336,320,33966,5,0
368,256,34133,1,0
368,192,34300,2,0,B|288:176,1,75
304,112,34633,1,0
240,96,34800,1,0
192,192,35133,1,4
64,64,35466,1,4
224,240,39633,6,0,B|240:80|464:160,1,300,0|4
368,64,40633,6,0,B|240:64|192:96,1,150
144,128,41133,1,0
48,208,41466,2,0,B|32:240|80:272,1,75
128,224,41800,1,0
176,288,41966,1,0
288,336,42300,1,0
416,256,42633,1,0
448,176,42799,2,0,B|448:96,1,75
384,96,43133,5,0
368,160,43299,2,0,B|368:224|256:272,1,150
256,192,43799,2,0,B|320:112|208:48,1,150
112,80,44466,1,0
48,176,44799,1,0
48,240,44966,1,0
112,352,45300,2,0,B|192:352|192:240,1,150
128,208,45800,5,0
176,160,45966,2,0,B|208:96|304:96,1,150
352,128,46466,1,0
464,128,46800,1,0
400,32,47133,1,0
336,48,47300,1,0
336,160,47633,1,0
304,272,47966,1,0
192,320,48299,1,0
96,208,48633,6,0,B|144:288,1,75
192,224,48966,1,0
256,192,49133,2,0,B|336:240,1,75
336,160,49466,1,0
336,96,49633,2,0,B|304:16,1,75
256,64,49966,1,0
256,128,50133,5,0
208,208,50299,1,8
304,208,50466,1,8
96,128,50966,5,0
48,176,51133,2,0,B|128:192,1,75
112,320,51633,1,0
176,336,51799,2,0,B|208:368|272:352,1,75
304,336,52133,1,0
416,320,52466,1,0
416,240,52633,1,0
448,144,52966,1,0
352,160,53299,1,0
352,160,53466,1,0
416,64,53799,5,0
480,16,53966,2,0,B|384:0,1,75
336,16,54299,1,0
304,80,54466,1,0
192,48,54799,1,0
128,112,55133,2,0,B|64:112|48:176,1,75
64,224,55466,2,0,B|144:224|144:336,1,150
144,368,55966,1,0
112,272,56466,5,0
176,240,56633,2,0,B|256:176,1,75
304,208,56966,1,0
336,144,57133,1,0
288,64,57466,1,0
192,64,57799,1,0
144,96,57966,5,0
144,96,58133,1,0
80,128,58299,1,0
80,128,58466,1,0
80,192,58633,1,0
80,288,58966,1,0
192,320,59299,1,0
192,256,59466,1,0
288,256,59799,1,0
384,224,60133,1,0
320,128,60466,5,4
320,128,60799,1,4
320,128,61133,1,4
208,128,61633,5,0
128,128,61799,1,0
48,128,61966,1,0
256,192,62133,12,0,63299
448,320,64299,5,0
368,320,64466,1,0
288,320,64633,1,0
256,192,64799,12,0,65966
80,256,66633,6,0,B|0:144|112:32,1,225
144,32,67299,5,0
176,80,67466,1,8
208,32,67633,1,0
240,80,67799,1,8
208,128,67966,1,0
144,128,68133,1,8
112,176,68299,1,0
176,176,68466,2,0,B|176:336|496:320,1,375,8|0
496,208,69799,5,0
496,144,69966,1,0
432,144,70133,1,8
384,192,70299,1,0
336,240,70466,1,8
336,176,70633,1,0
336,112,70799,1,8
288,64,70966,1,8
240,16,71133,2,8,B|160:0|0:112|0:288,1,375,8|0
64,352,72299,5,0
112,320,72466,1,0
176,320,72633,2,0,B|336:320,1,150
368,272,73133,1,0
400,160,73466,1,0
368,48,73799,1,0
256,192,73883,12,4,74633
64,256,74966,5,0
128,256,75133,1,0
192,256,75299,2,0,B|192:80,1,150
240,64,75799,2,0,B|304:16,1,75
352,80,76133,2,0,B|272:144,1,75
288,208,76466,1,0
256,192,76549,12,4,77299
32,64,77966,6,0,B|192:128,1,150
224,144,78466,1,4
208,192,78633,2,0,B|32:224,1,150
0,240,79133,1,4
16,288,79299,2,0,B|192:320,1,150
224,336,79799,1,4
272,304,79966,2,0,B|352:160,1,150
384,32,80633,5,0
288,128,80966,2,0,B|224:192,1,75
128,288,81466,1,0
64,192,81799,2,0,B|80:80,1,75
128,64,82133,2,2,B|224:32|384:96,1,225,2|6
464,48,83299,6,0,B|368:192,1,150
288,304,83966,2,0,B|128:368,1,150
48,272,84633,2,0,B|16:112,1,150
128,32,85299,2,0,B|288:32,1,150
384,64,85966,5,0
448,64,86133,1,0
432,128,86299,2,0,B|464:208,1,75
496,320,86799,2,0,B|416:336,1,75
368,368,87133,1,0
256,288,87466,1,0
144,224,87799,1,0
80,208,87966,2,12,B|32:272|0:96,1,150,8|12
64,16,88633,6,0,B|128:80,1,75
160,112,88966,2,0,B|240:48,1,75
272,32,89299,2,0,B|352:32,2,75
272,160,89966,6,0,B|192:224,1,75
208,272,90299,2,0,B|288:336,1,75
320,288,90633,2,0,B|416:240,2,75,0|8|8
128,192,91299,6,0,B|128:96,1,75
192,128,91633,1,0
224,64,91799,2,0,B|384:16,1,150
448,112,92466,1,0
432,176,92633,1,0
416,240,92799,2,0,B|416:288|368:288,1,75
304,288,93133,1,0
240,288,93299,2,0,B|192:368|80:368,1,150,0|4
64,256,93966,6,0,B|192:256,1,75
208,224,94299,1,8
160,112,94633,2,0,B|208:16,1,75
256,16,94966,1,8
400,48,95299,2,0,B|544:192|384:336,1,300
352,352,96133,1,8
288,384,96299,1,8
144,352,96633,6,0,B|96:288|96:288|160:224,1,150
144,176,97133,2,0,B|224:96,1,75
256,80,97466,1,0
368,0,97799,1,0
416,32,97966,1,0
368,64,98133,1,0
416,96,98299,1,0
464,128,98466,1,0
464,192,98633,2,0,B|544:272|464:352,1,150,0|4
352,336,99299,5,0
304,288,99466,1,8
256,240,99633,1,0
208,192,99799,1,8
160,240,99966,2,0,B|80:304,2,75,0|8|8
48,128,100633,5,0
112,128,100799,1,8
112,64,100966,1,0
176,64,101133,1,8
176,128,101299,1,0
240,128,101466,1,8
224,160,101549,1,8
208,192,101633,1,8
304,80,101966,5,0
352,128,102133,1,0
304,176,102299,1,0
352,224,102466,1,0
448,320,102799,1,0
448,64,103133,5,0
256,48,103466,1,0
64,64,103799,1,0
176,192,104133,5,4
256,192,104299,1,4
336,192,104466,1,4
