osu file format v4

[General]
AudioFilename: Freezepop - get ready to rokk.mp3
AudioLeadIn: 1465
AudioHash: 22f67a2cbb83734c9b8e331af1fb967e
PreviewTime: -1
SampleSet: Normal
EditorBookmarks: 174606

[Metadata]
Title:Get Ready To Rokk
Artist:Freezepop
Creator:Rolled
Version:Hard

[Difficulty]
HPDrainRate:5
CircleSize:5
OverallDifficulty:7
SliderMultiplier: 1.4
SliderTickRate: 1

[Events]
0,0,"popmusic2.jpg"
2,25832,29940
2,44769,53769
2,90219,94169
2,129040,138514
3,0,128,0,0

[TimingPoints]
698,315.623356128354,4,1,0

[HitObjects]
56,336,540,1,0,
72,320,698,1,0,
88,304,855,1,0,
104,288,1013,2,0,B|104:288|216:272|176:160,1,163.333333333333
112,168,1802,1,0,
136,168,1960,1,0,
160,168,2118,1,0,
184,168,2276,1,0,
208,168,2433,1,0,
456,336,3065,5,0,
440,320,3223,1,0,
424,304,3381,1,0,
408,288,3539,2,0,B|408:288|308:266|328:176,1,140
400,168,4432,1,0,
376,168,4590,1,0,
352,168,4747,1,0,
328,168,4905,1,0,
304,168,5063,1,0,
56,48,5591,5,0,
72,64,5748,1,0,
88,80,5906,1,0,
104,96,6064,2,0,B|104:96|216:112|176:224,1,163.333333333333
112,216,6853,1,0,
136,216,7011,1,0,
160,216,7169,1,0,
184,216,7326,1,0,
208,216,7484,1,0,
456,48,8114,5,0,
440,64,8272,1,0,
424,80,8429,1,0,
408,96,8587,2,0,B|408:96|308:118|328:208,1,140
400,216,9378,1,0,
376,216,9536,1,0,
352,216,9694,1,0,
328,216,9851,1,0,
304,216,10009,1,0,
280,216,10166,1,0,
256,216,10324,1,0,
232,216,10482,2,0,L|232:216|8:8|8:152,1,420
16,160,11744,2,0,L|16:160|288:288,1,280
112,208,13007,6,0,B|112:208|264:336|360:200,3,280
354,208,15059,1,0,
354,208,15216,1,0,
354,208,15374,1,0,
216,160,15691,5,0,
256,192,15847,1,0,
296,160,16005,1,0,
256,128,16163,1,0,
256,128,16320,1,0,
256,128,16480,1,0,
256,40,16952,5,0,
256,88,17110,1,0,
256,136,17268,1,0,
256,184,17426,1,0,
256,184,17583,1,0,
256,184,17741,1,0,
208,328,18215,5,0,
240,328,18372,1,0,
272,328,18530,1,0,
304,328,18688,1,0,
304,328,18846,1,0,
304,328,19004,1,0,
328,264,19635,2,0,B|328:264|176:264,2,140
208,56,20740,5,0,
240,56,20897,1,0,
272,56,21055,1,0,
304,56,21213,1,0,
304,56,21371,1,0,
304,56,21529,1,0,
256,128,22160,1,0,
256,160,22318,1,0,
256,160,22476,1,0,
256,192,22633,1,0,
256,192,22791,1,0,
256,192,22949,1,0,
304,304,23265,5,0,
272,304,23422,1,0,
240,304,23580,1,0,
208,304,23738,1,0,
208,304,23896,1,0,
208,304,24054,1,0,
104,192,24527,5,0,
144,152,24685,1,0,
184,112,24843,1,0,
224,72,25000,1,0,
280,72,25158,1,0,
320,112,25316,1,0,
360,152,25474,1,0,
400,192,25632,1,4,
128,96,30683,5,0,
240,96,30998,1,0,
352,96,31314,1,0,
464,96,31629,1,0,
464,208,31945,1,0,
464,320,32261,1,0,
352,320,32576,1,0,
240,320,32892,1,0,
128,320,33208,5,0,
16,320,33523,1,0,
16,208,33839,1,0,
16,96,34154,1,0,
128,96,34470,1,0,
184,192,34786,1,0,
296,192,35101,1,0,
408,192,35417,1,0,
408,80,35733,5,0,
296,80,36048,1,0,
184,80,36364,1,0,
256,168,36679,1,0,
176,248,36995,1,0,
88,176,37311,1,0,
24,80,37626,1,0,
136,80,37942,1,0,
248,80,38258,5,0,
320,160,38573,1,0,
392,248,38889,1,0,
312,328,39204,1,0,
200,328,39520,1,0,
88,328,39836,1,0,
152,240,40151,1,0,
80,152,40467,1,0,
256,24,41413,5,0,
32,192,42044,1,0,
256,360,42675,1,0,
480,192,43307,1,0,
256,24,43938,1,0,
256,24,44096,1,0,
256,24,44254,1,0,
256,24,44411,1,0,
256,96,44569,1,0,
136,176,54669,5,0,
136,176,54827,1,0,
136,176,54985,1,0,
136,176,55143,1,0,
96,216,55300,1,0,
96,216,55458,1,0,
96,216,55616,1,0,
96,216,55774,1,0,
136,256,55932,1,0,
136,256,56089,1,0,
136,256,56247,1,0,
136,256,56405,1,0,
176,216,56563,1,0,
232,216,56721,5,0,
232,216,56878,1,0,
232,216,57036,1,0,
272,176,57194,5,0,
272,176,57352,1,0,
272,176,57510,1,0,
272,176,57668,1,0,
312,216,57825,1,0,
312,216,57983,1,0,
312,216,58141,1,0,
312,216,58299,1,0,
352,176,58457,1,0,
352,176,58614,1,0,
352,176,58772,1,0,
352,176,58930,1,0,
312,136,59087,1,0,
312,80,59245,5,0,
312,80,59403,1,0,
312,80,59560,1,0,
256,192,59719,12,0,61613
128,192,62244,2,0,B|128:192|207:145|256:136|314:148|345:165|376:184|392:192,3,280
64,104,64927,5,0,
80,128,65085,1,0,
96,152,65242,1,0,
112,176,65400,2,0,B|112:176|144:160|160:128,2,70
448,104,66189,5,0,
432,128,66346,1,0,
416,152,66504,1,0,
400,176,66662,2,0,B|400:176|369:160|352:128,2,70
64,280,67451,5,0,
80,256,67609,1,0,
96,232,67767,1,0,
112,208,67924,2,0,B|112:208|144:224|160:256,2,70
448,280,68714,5,0,
432,256,68871,1,0,
416,232,69029,1,0,
400,208,69187,2,0,B|400:208|368:224|352:256,2,70
64,104,69976,5,0,
80,128,70134,1,0,
96,152,70292,1,0,
112,176,70449,2,0,B|112:176|144:160|160:128,2,70
448,104,71239,5,0,
432,128,71396,1,0,
416,152,71554,1,0,
400,176,71712,2,0,B|400:176|369:160|352:128,2,70
64,280,72501,5,0,
80,256,72659,1,0,
96,232,72817,1,0,
112,208,72974,2,0,B|112:208|144:224|160:256,2,70
448,280,73763,5,0,
432,256,73921,1,0,
416,232,74079,1,0,
400,208,74237,2,0,B|400:208|368:224|352:256,4,70
336,136,75185,5,0,
296,96,75500,1,0,
240,88,75816,1,0,
240,88,75974,1,0,
208,136,76131,1,0,
176,184,76447,1,0,
216,224,76763,1,0,
240,240,76921,1,0,
264,224,77078,1,0,
288,208,77236,1,0,
312,192,77394,5,0,
344,240,77710,1,0,
376,288,78025,1,0,
336,328,78341,1,0,
336,328,78499,1,0,
280,336,78656,1,0,
224,336,78972,1,0,
184,296,79288,1,0,
168,272,79446,1,0,
168,240,79603,1,0,
168,208,79761,1,0,
112,56,80235,5,0,
224,56,80550,1,0,
336,56,80866,2,0,B|336:56|336:176,2,70
448,56,81497,1,0,
448,168,81813,1,0,
408,208,81971,1,0,
408,208,82128,1,0,
408,208,82286,1,0,
408,256,82444,1,0,
408,336,82759,5,0,
296,336,83074,1,0,
184,336,83390,2,0,B|184:336|184:216,2,70
72,336,84021,1,0,
72,224,84337,1,0,
112,184,84495,1,0,
112,184,84653,1,0,
112,184,84810,1,0,
32,32,85285,6,0,B|32:32|96:32,1,70
152,32,85600,2,0,B|152:32|224:32,1,70
272,56,85916,2,0,B|272:56|304:88,1,70
360,144,86231,2,0,B|360:144|424:144,1,70
464,184,86547,2,0,B|464:184|464:240,1,70
424,288,86863,2,0,B|424:288|368:336,1,70
312,344,87178,2,0,B|312:344|248:288,1,70
56,344,87810,6,0,B|56:344|120:296,1,70
152,264,88125,2,0,B|152:264|208:216,1,70
256,192,88441,2,0,B|256:192|320:160,1,70
280,120,88756,2,0,B|280:120|216:96,1,70
160,72,89072,2,0,B|160:72|104:40,1,70
64,80,89388,2,0,B|64:80|64:152,1,70
64,208,89703,2,0,B|64:208|64:272,1,70
120,280,90019,1,0,
96,160,95069,5,0,
208,160,95385,1,0,
320,160,95700,1,0,
432,160,96016,1,0,
432,216,96174,1,0,
432,272,96331,1,0,
432,328,96489,1,0,
376,328,96647,1,0,
320,328,96805,1,0,
264,328,96963,1,0,
152,328,97278,1,0,
96,328,97436,1,0,
40,328,97594,5,0,
104,240,97909,1,0,
176,160,98225,1,0,
288,160,98541,1,0,
344,160,98699,1,0,
400,160,98856,1,0,
448,128,99014,1,0,
424,80,99172,1,0,
368,80,99330,1,0,
312,80,99488,1,0,
200,80,99803,1,0,
144,80,99961,1,0,
88,80,100119,1,0,
80,192,100434,5,0,
160,272,100750,1,0,
240,192,101066,1,0,
280,232,101224,1,0,
320,272,101381,1,0,
360,312,101539,1,0,
400,272,101697,1,0,
440,232,101855,1,0,
440,176,102013,1,0,
440,64,102328,1,0,
384,64,102486,1,0,
328,64,102644,1,0,
216,64,102959,5,0,
280,160,103275,1,0,
352,248,103592,1,0,
296,248,103749,1,0,
240,248,103907,1,0,
240,304,104065,1,0,
240,360,104223,1,0,
184,360,104381,1,0,
128,360,104538,1,0,
80,256,104852,1,0,
112,144,105169,1,0,
256,192,105800,12,0,106116
256,192,106431,12,0,106747
256,192,107063,12,0,107378
256,192,107694,12,0,108009
256,192,108325,12,0,108641
256,192,108956,12,0,109272
56,64,109904,1,0,
256,336,110535,1,0,
456,64,111166,1,0,
480,32,111481,6,0,B|480:32|8:376,1,560
32,136,113375,1,0,
32,24,114005,2,0,B|32:24|504:368,1,560
480,128,115899,1,0,
344,296,116531,6,0,B|344:296|344:144,2,140
256,248,117478,1,0,
168,296,117794,2,0,B|168:296|168:152,2,140
256,248,118741,1,0,
160,248,119056,5,0,
48,88,119688,1,0,
256,80,120319,1,0,
424,176,120950,1,0,
480,352,121580,2,0,B|480:352|8:8,1,560
32,248,123474,1,0,
32,360,124105,2,0,B|32:360|504:16,1,560
480,256,125999,1,0,
344,88,126630,2,0,B|344:88|344:240,2,140
256,136,127577,1,0,
168,88,127893,2,0,B|168:88|168:232,2,140
256,136,128840,1,0,
64,64,139414,5,0,
64,64,139572,1,0,
424,72,140044,5,0,
424,72,140202,1,0,
424,312,140676,5,0,
424,312,140834,1,0,
72,312,141308,5,0,
72,312,141466,1,0,
160,192,141939,5,0,
160,192,142097,1,0,
360,192,142570,5,0,
360,192,142728,1,0,
256,72,143201,5,0,
256,72,143359,1,0,
256,312,143833,5,0,
256,312,143991,1,0,
256,192,144622,12,0,146515
168,136,146990,1,0,
224,136,147148,1,0,
280,136,147305,1,0,
336,136,147463,1,0,
160,32,148251,1,0,
200,72,148409,1,0,
152,96,148567,1,0,
192,136,148725,1,0,
144,160,148883,1,0,
184,200,149040,1,0,
224,240,149198,1,0,
256,192,149356,5,0,
192,64,150303,2,0,B|192:64|256:40|272:40|336:72,1,140
432,144,151565,2,0,B|432:144|464:192|464:232|424:288,1,140
344,248,152512,1,0,
256,248,152828,1,0,
168,248,153144,1,0,
264,152,153775,1,0,
192,80,154406,2,0,B|192:80|245:57|279:58|308:65|334:88|360:104,4,140
112,160,156300,1,0,
192,288,156931,5,0,
288,232,157562,1,0,
368,152,158194,1,0,
384,128,158351,1,0,
320,64,158667,1,0,
320,64,158746,1,0,
320,64,158825,1,0,
288,64,158983,1,0,
64,80,159456,5,0,
120,176,160087,1,0,
168,208,160403,1,0,
224,208,160719,1,0,
320,152,161350,1,0,
360,184,161665,1,0,
392,232,161981,1,0,
320,320,162612,2,0,B|320:320|240:344|200:344|136:328|96:304|56:256,2,280
288,216,164506,5,0,
248,176,164822,1,0,
208,136,165137,1,0,
168,96,165453,1,0,
120,64,165769,1,0,
64,160,166400,2,0,B|64:160|32:248|40:312|96:360|192:352,1,280
264,280,167662,1,0,
352,208,168294,5,0,
368,184,168451,1,0,
368,128,168767,1,0,
368,128,168846,1,0,
368,128,168925,1,0,
344,104,169083,1,0,
368,24,169556,6,0,B|368:24|384:24|328:24|280:32|224:32|160:40|96:56|40:96|24:152|24:216|32:264|80:312|152:336|216:360|296:360|376:352|448:328|464:248|464:184|456:136|400:104|336:96|272:104|216:120|184:152|160:192|200:216|240:232,2,1120
