osu file format v7

[General]
AudioFilename: phant.mp3
AudioLeadIn: 2000
PreviewTime: 8946
Countdown: 0
SampleSet: Soft
StackLeniency: 0.7
Mode: 0
LetterboxInBreaks: 1

[Editor]
DistanceSpacing: 0.800000011920929
BeatDivisor: 4
GridSize: 8

[Metadata]
Title:Fantaisie-Impromptu
Artist:Frederic Chopin
Creator:lepidopodus
Version:Easy
Source:Taiko no Tatsujin
Tags:Yuji Masubuchi Yuuji Fantasie Fantasy classic classical

[Difficulty]
HPDrainRate:1
CircleSize:3
OverallDifficulty:3
SliderMultiplier:0.8
SliderTickRate:1

[Events]
//Background and Video events
0,0,"BG.jpg"
//Break Periods
//Storyboard Layer 0 (Background)
//Storyboard Layer 1 (Fail)
//Storyboard Layer 2 (Pass)
//Storyboard Layer 3 (Foreground)
//Storyboard Sound Samples
//Background Colour Transformations
3,100,163,162,255

[TimingPoints]
525,526.315789473684,4,2,0,80,1,0
5261,-100,4,2,0,70,0,0
8682,-100,4,2,0,80,0,0
21314,-100,4,1,0,80,0,0
25787,-100,4,1,0,80,0,1
44472,-100,4,2,0,80,0,1
44730,-100,4,2,0,80,0,0
61308,-100,4,1,0,80,0,0
62616,350.877192982456,4,1,0,80,1,0
66826,-100,4,1,0,80,0,1
85072,-100,4,1,0,80,0,0
85773,526.315789473684,4,2,0,80,1,0

[Colours]
Combo1 : 255,221,170
Combo2 : 189,130,130
Combo3 : 255,159,64
Combo4 : 170,0,0

[HitObjects]
256,192,525,1,4
256,192,2630,12,4,4735
256,192,6840,5,0
384,192,7893,1,2
416,136,8419,1,2
352,136,8946,6,0,B|256:136|256:32,1,160,0|8
384,40,11051,2,0,B|480:40|480:144,1,160,0|8
448,264,13156,6,0,B|408:352|304:352,1,160,0|8
256,352,14735,1,8
256,288,15261,2,0,B|256:200,3,80,0|0|8|8
256,144,17367,6,0,B|352:144|352:248,1,160,0|8
248,328,19472,2,0,B|152:328|152:224,1,160,0|8
152,96,21577,5,4
256,32,22630,1,8
256,160,23682,1,0
256,224,24209,1,0
256,288,24735,2,0,B|288:320,2,40,0|0|4
192,288,25788,6,0,B|160:320|112:312,2,80,0|0|0
248,256,27367,1,8
248,192,27893,6,0,B|236:148|267:110,2,80,0|0|0
248,256,29472,1,8
304,288,29998,6,0,B|347:299|364:345,1,80,0|8
424,336,31051,2,0,B|467:324|484:278,1,80,0|8
436,239,32103,5,0
481,193,32630,1,8
435,147,33156,2,0,B|435:91,2,40,0|0|4
370,147,34209,6,0,B|370:203|314:203,1,80
260,202,35261,1,0
195,202,35788,1,8
131,202,36314,6,0,B|75:202|75:258,1,80
75,311,37367,1,0
138,311,37893,1,8
201,311,38419,5,0
246,265,38946,1,8
200,219,39472,1,0
245,173,39998,1,8
199,127,40524,6,0,B|127:127,3,60
90,127,42103,1,4
90,191,42630,5,4
153,191,43156,1,4
216,191,43682,1,4
256,72,44735,5,4
256,192,45787,1,8
320,304,46840,1,0
192,304,47892,1,8
128,304,48419,1,8
64,304,48945,6,0,B|64:208|168:208,1,160,0|8
232,208,50524,1,2
296,208,51050,6,0,B|400:208|400:96,1,160,0|8
400,48,52629,1,2
336,48,53156,5,4
208,48,54208,1,8
144,48,54735,1,8
144,48,55261,2,0,B|144:112,3,53.3333333333333,0|8|0|8
224,192,57366,6,0,B|248:240|344:128|376:184,1,160,0|8
408,232,58945,1,2
416,296,59471,6,0,B|416:360|352:296|272:296,1,160,0|8
216,296,61050,1,2
216,296,61577,5,4
120,120,62616,2,0,B|64:120,4,40,0|8|8|0|0
184,120,63668,1,0
248,120,64019,6,0,B|312:56,1,80,0|2
368,64,64721,2,0,B|432:128,1,80,0|2
424,184,65423,5,2
424,248,65773,1,2
424,312,66124,2,0,B|456:344,2,40,0|0|0
360,312,66826,6,0,L|320:312|288:280,1,80,4|2
248,240,67528,2,0,L|216:208|176:208,1,80,0|2
120,208,68230,2,0,L|80:208|48:176,3,80,0|2|0|2
56,112,69633,6,0,L|88:80|128:80,1,80,0|2
184,80,70335,2,0,L|224:80|264:48,1,80,0|2
320,56,71037,5,0
384,56,71387,1,2
448,56,71738,2,0,L|496:56,2,40,0|0|4
432,120,72440,6,0,L|408:200,1,80,0|2
368,248,73142,2,0,L|304:296,1,80,0|2
240,304,73844,2,0,L|152:304,3,80,0|2|0|2
120,256,75247,5,0
160,208,75598,1,2
120,160,75949,1,0
160,112,76300,1,2
200,64,76651,6,0,L|264:64,4,60,0|0|0|0|4
136,64,78054,2,0,L|72:64,4,60,0|0|0|0|4
136,128,79458,6,0,L|200:192,1,80,0|8
240,232,80159,1,0
304,232,80510,1,2
368,232,80861,6,0,L|432:168,1,80,0|8
424,112,81563,1,0
360,112,81914,1,2
296,112,82265,6,0,L|232:48,1,80,0|2
176,56,82966,2,0,L|112:120,1,80,0|2
256,192,83668,12,4,85072
80,88,87878,6,0,B|80:24|144:88|224:88,1,160
280,88,89457,1,0
344,88,89983,6,0,B|480:96|480:288|344:296,1,320,2|4
256,208,93141,2,4,B|256:56,1,140
