osu file format v9

[General]
AudioFilename: Etude 10-4.mp3
AudioLeadIn: 1000
PreviewTime: 1109
Countdown: 0
SampleSet: Normal
StackLeniency: 0.7
Mode: 1
LetterboxInBreaks: 1

[Editor]
DistanceSpacing: 1.8
BeatDivisor: 4
GridSize: 8

[Metadata]
Title:Etude Op. 10-4
Artist:Frederic Chopin
Creator:lepidopodus
Version:Taiko Oni
Source:Taiko no Tatsujin
Tags:Yuji Masubuchi Yuuji classic classical opus

[Difficulty]
HPDrainRate:5
CircleSize:5
OverallDifficulty:5
ApproachRate:5
SliderMultiplier:1.4
SliderTickRate:1

[Events]
//Background and Video events
0,0,"1289311309_piano_441058.png"
//Break Periods
//Storyboard Layer 0 (Background)
//Storyboard Layer 1 (Fail)
//Storyboard Layer 2 (Pass)
//Storyboard Layer 3 (Foreground)
//Storyboard Sound Samples
//Background Colour Transformations
3,100,163,162,255

[TimingPoints]
1468,358.208955223881,4,1,0,90,1,0
2900,358.208955223881,5,1,0,90,1,0
4343,338.983050847458,5,1,0,90,1,0
4343,-106.382978723404,5,1,0,90,0,0
5707,398.671096345515,4,1,0,90,1,0
5707,-90.0900900900901,4,1,0,90,0,0
7275,359.928014397121,4,1,0,90,1,0
11594,359.928014397121,5,1,0,90,1,0
13038,358.208955223881,4,1,0,90,1,0
14470,358.208955223881,5,1,0,90,1,0
15913,338.983050847458,5,1,0,90,1,0
15913,-106.382978723404,5,1,0,90,0,0
17277,398.671096345515,4,1,0,90,1,0
17277,-90.0900900900901,4,1,0,90,0,0
18455,480,4,1,0,90,1,0
18455,-74.6268656716418,4,1,0,90,0,0
18940,359.281437125748,4,1,0,90,1,0
23251,-100,4,1,0,90,0,1
45526,397.350993377483,4,1,0,90,1,0
45526,-90.0900900900901,4,1,0,90,0,0
46320,441.176470588235,5,1,0,90,1,0
46320,-81.3008130081301,5,1,0,90,0,0
48089,397.350993377483,4,1,0,90,1,0
48089,-90.0900900900901,4,1,0,90,0,0
51262,348.837209302326,4,1,0,90,1,0
51262,-103.092783505155,4,1,0,90,0,0
52657,348.837209302326,5,1,0,90,1,0
52657,-103.092783505155,5,1,0,90,0,0
54055,397.350993377483,4,1,0,90,1,0
54055,-90.0900900900901,4,1,0,90,0,0
57225,348.837209302326,4,1,0,90,1,0
57225,-103.092783505155,4,1,0,90,0,0
58620,348.837209302326,5,1,0,90,1,0
58620,-103.092783505155,5,1,0,90,0,0
60021,370.37037037037,4,1,0,90,1,1
60021,-97.0873786407767,4,1,0,90,0,1
65940,397.350993377483,4,1,0,90,1,0
65940,-90.0900900900901,4,1,0,90,0,0
67529,397.350993377483,5,1,0,90,1,0
67529,-90.0900900900901,5,1,0,90,0,0
69124,359.281437125748,4,1,0,90,1,0
71998,359.281437125748,5,1,0,90,1,0
73445,359.281437125748,4,1,0,90,1,0
74878,358.208955223881,4,1,0,90,1,0
76310,358.208955223881,5,1,0,90,1,0
77748,338.983050847458,5,1,0,90,1,0
77748,-106.382978723404,5,1,0,90,0,0
79112,398.671096345515,4,1,0,90,1,0
79112,-90.0900900900901,4,1,0,90,0,0
80690,359.928014397121,4,1,0,90,1,0
86448,358.208955223881,4,1,0,90,1,0
89313,358.208955223881,5,1,0,90,1,0
90760,397.350993377483,4,1,0,90,1,0
90760,-90.0900900900901,4,1,0,90,0,0
91940,480,4,1,0,90,1,0
91940,-74.6268656716418,4,1,0,90,0,0
92427,359.281437125748,4,1,0,90,1,0
102479,382.165605095541,4,1,0,90,1,0
102479,-94.3396226415094,4,1,0,90,0,0
103243,425.531914893617,4,1,0,90,1,0
103243,-84.7457627118644,4,1,0,90,0,0
104094,382.165605095541,4,1,0,90,1,0
104094,-94.3396226415094,4,1,0,90,0,0
104483,382.165605095541,4,1,0,90,1,0
104483,-94.3396226415094,4,1,0,90,0,0
105629,359.281437125748,4,1,0,90,1,0
115688,425.531914893617,4,1,0,90,1,0
115688,-84.7457627118644,4,1,0,90,0,0
116539,359.281437125748,4,1,0,90,1,0
117257,361.44578313253,4,1,0,90,1,0
118702,480,4,1,0,90,1,0
118702,-74.6268656716418,4,1,0,90,0,0

[HitObjects]
280,200,1467,1,0
280,200,1647,1,8
280,200,1736,1,8
280,200,1826,1,8
280,200,2005,1,8
280,200,2094,1,8
280,200,2184,1,8
280,200,2363,1,8
280,200,2453,1,8
280,200,2542,1,8
280,200,2721,1,8
280,200,2811,1,8
280,200,2900,1,8
280,200,3079,1,8
280,200,3169,1,8
280,200,3259,1,8
280,200,3438,1,8
280,200,3527,1,8
280,200,3617,1,8
280,200,3796,1,8
280,200,3885,1,8
280,200,3975,1,8
304,176,4065,1,8
280,200,4154,1,8
280,200,4343,1,0
280,200,4427,1,8
280,200,4512,1,8
280,200,4597,1,0
280,200,4681,1,0
280,200,4766,1,8
280,200,4851,1,8
280,200,4936,1,0
280,200,5020,1,0
280,200,5105,1,8
280,200,5190,1,8
280,200,5275,1,0
280,200,5359,1,0
280,200,5444,1,8
280,200,5529,1,8
304,176,5614,1,0
280,200,5707,1,0
280,200,5906,1,8
280,200,6105,1,8
280,200,6305,1,0
280,200,6504,1,8
280,200,6703,1,0
280,200,6803,1,0
280,200,6903,1,8
280,200,7275,1,0
280,200,7454,1,8
280,200,7544,1,8
280,200,7634,1,8
280,200,7814,1,8
280,200,7904,1,8
280,200,7994,1,8
280,200,8174,1,8
280,200,8264,1,8
280,200,8354,1,8
280,200,8534,1,8
280,200,8624,1,8
280,200,8714,1,8
280,200,8894,1,8
280,200,8984,1,8
280,200,9074,1,8
280,200,9254,1,8
280,200,9344,1,8
280,200,9434,1,8
280,200,9614,1,8
280,200,9704,1,8
280,200,9794,1,8
304,176,9884,1,8
280,200,9974,1,8
280,200,10154,1,0
280,200,10334,1,0
280,200,10514,1,12
280,200,10784,1,8
280,200,10874,1,0
280,200,11054,1,0
280,200,11234,1,12
280,200,11504,1,8
280,200,11594,1,0
280,200,11774,1,8
280,200,11864,1,8
280,200,12044,1,8
280,200,12134,1,8
280,200,12313,1,8
280,200,12403,1,8
280,200,12493,1,0
280,200,12583,1,0
280,200,12673,1,8
280,200,12763,1,8
280,200,12853,1,0
280,200,13038,1,0
280,200,13217,1,8
280,200,13306,1,8
280,200,13396,1,8
280,200,13575,1,8
280,200,13664,1,8
280,200,13754,1,8
280,200,13933,1,8
280,200,14023,1,8
280,200,14112,1,8
280,200,14291,1,8
280,200,14381,1,8
280,200,14470,1,8
280,200,14649,1,8
280,200,14739,1,8
280,200,14829,1,8
280,200,15008,1,8
280,200,15097,1,8
280,200,15187,1,8
280,200,15366,1,8
280,200,15455,1,8
280,200,15545,1,8
304,176,15635,1,8
280,200,15724,1,8
280,200,15913,1,0
280,200,15997,1,8
280,200,16082,1,8
280,200,16167,1,0
280,200,16251,1,0
280,200,16336,1,8
280,200,16421,1,8
280,200,16506,1,0
280,200,16590,1,0
280,200,16675,1,8
280,200,16760,1,8
280,200,16845,1,0
280,200,16929,1,0
280,200,17014,1,8
280,200,17099,1,8
304,176,17184,1,0
280,200,17277,1,0
280,200,17476,1,8
280,200,17675,1,8
280,200,17875,1,0
280,200,18074,1,8
280,200,18273,1,0
280,200,18373,1,0
280,200,18455,1,8
280,200,18940,1,8
280,200,19119,1,8
280,200,19209,1,8
280,200,19299,1,8
280,200,19478,1,8
280,200,19568,1,8
280,200,19658,1,8
280,200,19838,1,8
280,200,19928,1,8
280,200,20017,1,0
280,200,20197,1,8
280,200,20287,1,8
280,200,20377,1,8
280,200,20556,1,8
280,200,20646,1,8
280,200,20736,1,8
280,200,20916,1,8
280,200,21005,1,8
280,200,21095,1,8
280,200,21275,1,8
280,200,21365,1,8
280,200,21454,1,0
280,200,21634,1,8
280,200,21724,1,8
280,200,21814,1,8
280,200,21993,1,8
280,200,22083,1,8
280,200,22173,1,8
280,200,22353,1,8
280,200,22442,1,8
280,200,22532,1,8
280,200,22712,1,8
280,200,22802,1,8
280,200,22892,1,0
280,200,23251,1,8
280,200,23341,1,8
280,200,23431,1,0
280,200,23520,1,0
280,200,23610,1,8
280,200,23700,1,8
280,200,23790,1,0
280,200,23880,1,0
280,200,23969,1,8
280,200,24329,1,12
280,200,24688,1,0
280,200,24868,1,8
280,200,25047,1,0
280,200,25137,1,0
280,200,25227,1,8
280,200,25407,1,0
280,200,25586,1,8
280,200,25766,1,0
280,200,25856,1,0
280,200,25945,1,8
280,200,26125,1,0
280,200,26215,1,0
280,200,26305,1,0
280,200,26395,1,8
280,200,26484,1,0
280,200,26574,1,0
280,200,26664,1,0
280,200,26754,1,8
280,200,26844,1,0
280,200,26934,1,0
280,200,27023,1,0
280,200,27113,1,0
280,200,27203,1,8
280,200,27562,1,0
280,200,27742,1,0
280,200,27922,1,0
280,200,28011,1,0
280,200,28101,1,0
280,200,28281,1,0
280,200,28460,1,0
280,200,28640,1,0
280,200,28730,1,0
280,200,28820,1,0
280,200,28999,1,0
280,200,29179,1,0
280,200,29359,1,0
280,200,29448,1,0
280,200,29538,1,0
280,200,29718,1,0
280,200,29808,1,0
280,200,29898,1,0
280,200,30077,1,12
280,200,30437,1,0
280,200,30616,1,8
280,200,30796,1,0
280,200,30886,1,0
280,200,30975,1,8
280,200,31155,1,0
280,200,31335,1,8
280,200,31514,1,0
280,200,31604,1,0
280,200,31694,1,8
280,200,31874,1,0
280,200,31963,1,0
280,200,32053,1,0
280,200,32143,1,8
280,200,32233,1,0
280,200,32323,1,0
280,200,32413,1,0
280,200,32502,1,8
280,200,32592,1,0
280,200,32682,1,0
280,200,32772,1,0
280,200,32862,1,0
280,200,32951,1,8
280,200,33311,1,8
280,200,33580,1,0
280,200,33670,1,8
280,200,33850,1,0
280,200,34029,1,8
280,200,34209,1,0
280,200,34389,1,8
280,200,34568,1,0
280,200,34748,1,8
280,200,34838,1,0
280,200,34928,1,0
280,200,35017,1,0
280,200,35107,1,8
280,200,35287,1,0
280,200,35466,1,8
280,200,35646,1,0
280,200,35826,1,8
280,200,35916,1,8
280,200,36005,1,8
280,200,36095,1,8
280,200,36185,1,0
280,200,36365,1,8
280,200,36454,1,8
280,200,36544,1,8
280,200,36724,1,8
280,200,36814,1,8
280,200,36904,1,8
280,200,36993,1,8
280,200,37083,1,0
280,200,37263,1,12
280,200,37442,1,0
280,200,37532,1,0
280,200,37622,1,0
280,200,37802,1,8
280,200,37892,1,8
280,200,37981,1,8
280,200,38161,1,8
280,200,38251,1,8
280,200,38341,1,8
280,200,38431,1,8
280,200,38520,1,0
280,200,38700,1,12
280,200,38880,1,0
280,200,38969,1,0
280,200,39059,1,0
280,200,39239,1,8
280,200,39419,1,0
280,200,39598,1,8
280,200,39688,1,0
280,200,39778,1,0
280,200,39957,1,8
280,200,40137,1,0
280,200,40317,1,8
280,200,40407,1,0
280,200,40496,1,0
280,200,40676,1,8
280,200,40856,1,0
280,200,41035,1,8
280,200,41125,1,0
280,200,41215,1,0
280,200,41395,1,0
280,200,41574,1,8
280,200,41664,1,8
280,200,41754,1,0
280,200,41934,1,4
280,200,42293,1,12
280,200,42472,1,0
280,200,42652,1,4
280,200,43011,1,12
280,200,43191,1,0
280,200,43371,1,4
280,200,43730,1,12
280,200,43910,1,0
280,200,44089,1,4
280,200,44448,1,12
280,200,44808,1,0
280,200,44987,1,8
280,200,45077,1,8
280,200,45167,1,0
280,200,45347,1,8
280,200,45437,1,8
280,200,45526,1,0
280,200,45724,1,8
280,200,45824,1,8
280,200,45923,1,0
280,200,46122,1,8
280,200,46221,1,8
280,200,46320,1,0
280,200,46540,1,8
280,200,46650,1,8
280,200,46761,1,0
280,200,46981,1,8
280,200,47092,1,8
280,200,47202,1,0
280,200,47422,1,8
280,200,47533,1,8
280,200,47643,1,0
280,200,48089,1,4
280,200,48486,1,8
280,200,48883,1,8
280,200,48983,1,0
280,200,49082,1,0
280,200,49181,1,0
280,200,49281,1,8
280,200,49678,1,8
280,200,49777,1,8
280,200,49877,1,0
280,200,49976,1,8
280,200,50075,1,0
280,200,50274,1,8
280,200,50473,1,8
280,200,50771,1,8
280,200,50870,1,0
280,200,51069,1,8
280,200,51262,1,4
280,200,51610,1,8
280,200,51698,1,8
280,200,51785,1,8
280,200,51872,1,8
280,200,51959,1,0
280,200,52046,1,0
280,200,52134,1,0
280,200,52221,1,0
280,200,52308,1,8
280,200,52395,1,8
280,200,52482,1,8
280,200,52570,1,8
280,200,52657,1,0
280,200,52744,1,0
280,200,52831,1,0
280,200,52918,1,0
280,200,53006,1,8
280,200,53093,1,8
280,200,53180,1,8
280,200,53267,1,8
280,200,53355,1,0
280,200,53442,1,0
280,200,53529,1,0
280,200,53616,1,0
280,200,53703,1,8
280,200,53791,1,8
280,200,53878,1,8
280,200,53965,1,8
280,200,54055,1,0
280,200,54452,1,8
280,200,54849,1,8
280,200,54949,1,0
280,200,55048,1,0
280,200,55147,1,0
280,200,55247,1,8
280,200,55644,1,8
280,200,55743,1,8
280,200,55843,1,0
280,200,55942,1,8
280,200,56041,1,0
272,160,56174,1,8
272,160,56306,1,8
256,192,56439,12,0,56836
304,168,57225,5,4
304,168,57573,1,8
304,168,57661,1,8
304,168,57748,1,0
304,168,57835,1,8
304,168,57922,1,8
304,168,58009,1,8
304,168,58097,1,0
304,168,58184,1,8
304,168,58271,1,8
304,168,58358,1,8
304,168,58445,1,0
304,168,58533,1,8
304,168,58620,1,8
304,168,58707,1,8
304,168,58794,1,0
304,168,58881,1,8
304,168,58969,1,8
304,168,59056,1,8
304,168,59143,1,0
304,168,59230,1,8
304,168,59318,1,8
304,168,59405,1,8
304,168,59492,1,0
304,168,59579,1,8
304,168,59666,1,0
304,168,59754,1,0
304,168,59841,1,0
304,168,59928,1,0
304,168,60021,1,0
304,168,60113,1,8
304,168,60206,1,8
304,168,60298,1,0
304,168,60391,1,8
304,168,60483,1,8
304,168,60576,1,0
304,168,60669,1,8
304,168,60761,1,0
304,168,60946,1,8
304,168,61039,1,0
304,168,61132,1,8
304,168,61224,1,8
304,168,61317,1,0
304,168,61409,1,8
304,168,61502,1,0
304,168,61595,1,8
304,168,61687,1,8
304,168,61780,1,0
304,168,61872,1,8
304,168,61965,1,8
304,168,62058,1,0
304,168,62150,1,8
304,168,62243,1,0
304,168,62428,1,8
304,168,62520,1,0
304,168,62613,1,8
304,168,62706,1,8
304,168,62798,1,0
304,168,62891,1,8
304,168,62983,1,0
304,168,63076,1,8
304,168,63169,1,8
304,168,63261,1,0
304,168,63354,1,8
304,168,63446,1,8
304,168,63539,1,0
304,168,63632,1,8
304,168,63724,1,0
304,168,63909,1,8
304,168,64002,1,0
304,168,64095,1,8
304,168,64187,1,8
304,168,64280,1,0
304,168,64372,1,8
304,168,64465,1,0
304,168,64650,1,8
304,168,64743,1,0
304,168,64835,1,8
304,168,64928,1,8
304,168,65020,1,0
304,168,65113,1,8
304,168,65206,1,0
304,168,65391,1,8
304,168,65483,1,0
304,168,65576,1,8
304,168,65669,1,8
304,168,65761,1,0
304,168,65854,1,8
304,168,65940,1,0
304,168,67231,1,0
304,168,67330,1,0
304,168,67430,1,8
304,168,67529,1,8
304,168,67628,1,0
304,168,67728,1,0
304,168,67827,1,8
304,168,67926,1,8
304,168,68026,1,0
304,168,68125,1,0
304,168,68224,1,8
304,168,68324,1,8
304,168,68423,1,0
304,168,68522,1,0
304,168,68622,1,8
304,168,68721,1,8
304,168,68820,1,0
304,168,68920,1,0
304,168,69019,1,0
304,168,69124,1,0
304,168,69483,1,8
304,168,69842,1,8
304,168,70201,1,8
304,168,70561,1,0
304,168,70920,1,8
304,168,71279,1,8
304,168,71638,1,8
304,168,71998,1,4
312,240,74522,5,8
312,240,74612,1,8
312,240,74702,1,0
312,240,74792,1,0
280,200,74878,1,0
280,200,75057,1,8
280,200,75146,1,8
280,200,75236,1,8
280,200,75415,1,8
280,200,75504,1,8
280,200,75594,1,8
280,200,75773,1,8
280,200,75863,1,8
280,200,75952,1,8
280,200,76131,1,8
280,200,76221,1,8
280,200,76310,1,8
280,200,76489,1,8
280,200,76579,1,8
280,200,76669,1,8
280,200,76848,1,8
280,200,76937,1,8
280,200,77027,1,8
280,200,77206,1,8
280,200,77295,1,8
280,200,77385,1,8
304,176,77475,1,8
280,200,77564,1,8
280,200,77748,1,0
280,200,77832,1,8
280,200,77917,1,8
280,200,78002,1,0
280,200,78086,1,0
280,200,78171,1,8
280,200,78256,1,8
280,200,78341,1,0
280,200,78425,1,0
280,200,78510,1,8
280,200,78595,1,8
280,200,78680,1,0
280,200,78764,1,0
280,200,78849,1,8
280,200,78934,1,8
304,176,79019,1,0
280,200,79112,1,0
280,200,79311,1,8
280,200,79510,1,8
280,200,79710,1,0
280,200,79909,1,8
280,200,80108,1,0
280,200,80208,1,0
280,200,80308,1,8
280,200,80690,1,0
280,200,80869,1,8
280,200,80959,1,8
280,200,81049,1,8
280,200,81229,1,8
280,200,81319,1,8
280,200,81409,1,8
280,200,81589,1,8
280,200,81679,1,8
280,200,81769,1,8
280,200,81949,1,8
280,200,82039,1,8
280,200,82129,1,8
280,200,82309,1,8
280,200,82399,1,8
280,200,82489,1,8
280,200,82669,1,8
280,200,82759,1,8
280,200,82849,1,8
280,200,83029,1,8
280,200,83119,1,8
280,200,83209,1,8
304,176,83299,1,8
280,200,83389,1,8
280,200,83569,1,0
280,200,83749,1,0
280,200,83929,1,12
280,200,84199,1,8
280,200,84289,1,0
280,200,84469,1,0
280,200,84649,1,12
280,200,84919,1,8
280,200,85009,1,0
280,200,85099,1,8
280,200,85189,1,8
280,200,85279,1,0
280,200,85369,1,0
280,200,85549,1,0
280,200,85639,1,8
280,200,85728,1,8
280,200,85818,1,0
280,200,85908,1,0
312,184,86088,1,8
312,184,86148,1,0
312,184,86208,1,0
312,184,86268,1,0
312,184,86448,1,0
312,184,86627,1,8
312,184,86716,1,8
312,184,86806,1,8
312,184,86985,1,8
312,184,87074,1,8
312,184,87164,1,8
312,184,87343,1,8
312,184,87433,1,8
312,184,87522,1,8
312,184,87701,1,8
312,184,87791,1,8
312,184,87880,1,8
312,184,88059,1,8
312,184,88149,1,8
312,184,88239,1,8
312,184,88418,1,8
312,184,88507,1,8
312,184,88597,1,8
312,184,88776,1,8
312,184,88865,1,8
312,184,88955,1,8
312,184,89045,1,8
312,184,89134,1,8
312,184,89313,1,0
312,184,89403,1,8
312,184,89492,1,8
312,184,89582,1,0
312,184,89671,1,0
312,184,89761,1,8
312,184,89850,1,8
312,184,89940,1,0
312,184,90030,1,0
312,184,90119,1,8
312,184,90209,1,8
312,184,90298,1,0
312,184,90388,1,0
312,184,90477,1,8
312,184,90567,1,8
312,184,90656,1,0
312,184,90760,1,0
312,184,90958,1,8
312,184,91157,1,8
312,184,91356,1,0
312,184,91554,1,8
312,184,91753,1,0
312,184,91852,1,0
312,184,91940,1,8
312,184,92427,1,8
312,184,92606,1,8
312,184,92696,1,8
312,184,92786,1,8
312,184,92965,1,8
312,184,93055,1,8
312,184,93145,1,8
312,184,93325,1,8
312,184,93415,1,8
312,184,93504,1,0
312,184,93684,1,8
312,184,93774,1,8
312,184,93864,1,8
312,184,94043,1,8
312,184,94133,1,8
312,184,94223,1,8
312,184,94403,1,8
312,184,94492,1,8
312,184,94582,1,8
312,184,94762,1,8
312,184,94852,1,8
312,184,94941,1,0
312,184,95121,1,8
312,184,95211,1,8
312,184,95301,1,8
312,184,95480,1,8
312,184,95570,1,8
312,184,95660,1,8
312,184,95840,1,8
312,184,95929,1,8
312,184,96019,1,8
312,184,96199,1,8
312,184,96289,1,8
312,184,96379,1,0
312,184,96558,1,8
312,184,96648,1,8
312,184,96738,1,0
312,184,96918,1,8
312,184,97007,1,8
312,184,97097,1,0
312,184,97277,1,8
312,184,97367,1,8
312,184,97456,1,0
312,184,97636,1,8
312,184,97726,1,8
312,184,97816,1,0
312,184,97906,1,0
312,184,97995,1,0
312,184,98085,1,0
312,184,98175,1,0
312,184,98355,1,8
312,184,98534,1,0
312,184,98624,1,0
312,184,98714,1,8
312,184,98894,1,0
312,184,99073,1,8
312,184,99253,1,0
312,184,99343,1,0
312,184,99432,1,8
312,184,99612,1,0
312,184,99702,1,0
312,184,99792,1,8
312,184,99971,1,0
312,184,100061,1,0
312,184,100151,1,8
312,184,100331,1,8
312,184,100421,1,8
312,184,100510,1,0
312,184,100600,1,0
312,184,100690,1,8
312,184,100780,1,8
312,184,100870,1,8
312,184,100959,1,8
312,184,101049,1,0
312,184,101648,1,0
312,184,101708,1,0
312,184,101768,1,8
312,184,102479,1,12
312,184,102861,1,4
312,184,103243,1,4
312,184,103668,1,4
312,184,104094,1,4
312,184,104483,1,0
312,184,104578,1,0
312,184,104674,1,0
312,184,104769,1,8
312,184,104865,1,0
312,184,104960,1,0
312,184,105056,1,0
312,184,105151,1,8
312,184,105247,1,0
312,184,105342,1,0
312,184,105438,1,0
312,184,105533,1,8
288,168,105629,1,0
288,168,105718,1,0
288,168,105808,1,0
288,168,105898,1,8
288,168,105988,1,0
288,168,106077,1,0
288,168,106167,1,0
288,168,106257,1,8
288,168,106347,1,0
288,168,106437,1,0
288,168,106526,1,0
288,168,106616,1,8
288,168,106706,1,0
288,168,106796,1,0
288,168,106886,1,0
288,168,107065,1,4
288,168,107425,1,8
288,168,107514,1,0
288,168,107604,1,0
288,168,107694,1,8
288,168,107784,1,8
288,168,107874,1,0
288,168,107964,1,0
288,168,108053,1,8
288,168,108143,1,8
288,168,108233,1,0
288,168,108323,1,0
288,168,108413,1,8
288,168,108502,1,8
288,168,108592,1,0
288,168,108682,1,0
288,168,108772,1,8
288,168,108862,1,8
288,168,108952,1,0
288,168,109041,1,0
288,168,109131,1,8
288,168,109221,1,8
288,168,109311,1,0
288,168,109401,1,0
288,168,109490,1,8
288,168,109580,1,8
288,168,109670,1,0
288,168,109760,1,0
288,168,109940,1,4
288,168,111377,1,8
288,168,111556,1,8
288,168,111646,1,8
288,168,111736,1,8
288,168,111916,1,8
288,168,112005,1,8
288,168,112095,1,8
288,168,112275,1,8
288,168,112365,1,8
288,168,112455,1,8
288,168,112634,1,8
288,168,112724,1,8
288,168,112814,1,8
288,168,112993,1,8
288,168,113083,1,8
288,168,113173,1,0
288,168,113353,1,8
288,168,113443,1,8
288,168,113532,1,0
288,168,113712,1,8
288,168,113802,1,8
288,168,113892,1,0
288,168,114071,1,8
288,168,114161,1,8
288,168,114251,1,0
288,168,114431,1,8
288,168,114520,1,8
288,168,114610,1,0
288,168,114700,1,0
288,168,114790,1,0
288,168,114880,1,0
288,168,114970,1,8
288,168,115059,1,8
288,168,115149,1,8
288,168,115239,1,8
288,168,115329,1,0
288,168,115419,1,0
288,168,115508,1,0
288,168,115598,1,0
288,168,115688,1,0
112,248,116539,2,0,L|280:248,1,140
288,168,117257,1,8
256,192,117979,12,0,118341
288,168,118702,5,0
288,168,119662,1,12
288,168,120502,1,0
288,168,120622,1,0
