osu file format v9

[General]
AudioFilename: Etude 10-4.mp3
AudioLeadIn: 1000
PreviewTime: 1109
Countdown: 0
SampleSet: Normal
StackLeniency: 0.7
Mode: 1
LetterboxInBreaks: 1

[Editor]
DistanceSpacing: 1.8
BeatDivisor: 4
GridSize: 8

[Metadata]
Title:Etude Op. 10-4
Artist:Frederic Chopin
Creator:lepidopodus
Version:Taiko Inner Oni
Source:Taiko no Tatsujin
Tags:Yuji Masubuchi Yuuji classic classical opus

[Difficulty]
HPDrainRate:5
CircleSize:5
OverallDifficulty:5
ApproachRate:5
SliderMultiplier:1.4
SliderTickRate:1

[Events]
//Background and Video events
0,0,"1289311309_piano_441058.png"
//Break Periods
//Storyboard Layer 0 (Background)
//Storyboard Layer 1 (Fail)
//Storyboard Layer 2 (Pass)
//Storyboard Layer 3 (Foreground)
//Storyboard Sound Samples
//Background Colour Transformations
3,100,163,162,255

[TimingPoints]
1468,358.208955223881,4,1,0,90,1,0
2900,358.208955223881,5,1,0,90,1,0
4343,338.983050847458,5,1,0,90,1,0
4343,-106.382978723404,5,1,0,90,0,0
5707,398.671096345515,4,1,0,90,1,0
5707,-90.0900900900901,4,1,0,90,0,0
7275,359.928014397121,4,1,0,90,1,0
11594,359.928014397121,5,1,0,90,1,0
13038,358.208955223881,4,1,0,90,1,0
14470,358.208955223881,5,1,0,90,1,0
15913,338.983050847458,5,1,0,90,1,0
15913,-106.382978723404,5,1,0,90,0,0
17277,398.671096345515,4,1,0,90,1,0
17277,-90.0900900900901,4,1,0,90,0,0
18455,480,4,1,0,90,1,0
18455,-74.6268656716418,4,1,0,90,0,0
18940,359.281437125748,4,1,0,90,1,0
23251,-100,4,1,0,90,0,1
27562,239.520958083832,6,1,0,90,1,1
27562,-150,6,1,0,90,0,1
30437,359.281437125748,4,1,0,90,1,1
33311,239.520958083832,6,1,0,90,1,1
33311,-150,6,1,0,90,0,1
36185,359.281437125748,4,1,0,90,1,1
45526,397.350993377483,4,1,0,90,1,0
45526,-90.0900900900901,4,1,0,90,0,0
46320,441.176470588235,5,1,0,90,1,0
46320,-81.3008130081301,5,1,0,90,0,0
48089,397.350993377483,4,1,0,90,1,0
48089,-90.0900900900901,4,1,0,90,0,0
51262,348.837209302326,4,1,0,90,1,0
51262,-103.092783505155,4,1,0,90,0,0
52657,348.837209302326,5,1,0,90,1,0
52657,-103.092783505155,5,1,0,90,0,0
54055,397.350993377483,4,1,0,90,1,0
54055,-90.0900900900901,4,1,0,90,0,0
57225,348.837209302326,4,1,0,90,1,0
57225,-103.092783505155,4,1,0,90,0,0
58620,348.837209302326,5,1,0,90,1,0
58620,-103.092783505155,5,1,0,90,0,0
60021,370.37037037037,4,1,0,90,1,1
60021,-97.0873786407767,4,1,0,90,0,1
65940,397.350993377483,4,1,0,90,1,0
65940,-90.0900900900901,4,1,0,90,0,0
67529,397.350993377483,5,1,0,90,1,0
67529,-90.0900900900901,5,1,0,90,0,0
69124,359.281437125748,4,1,0,90,1,0
71998,359.281437125748,5,1,0,90,1,0
73445,359.281437125748,4,1,0,90,1,0
74878,358.208955223881,4,1,0,90,1,0
76310,358.208955223881,5,1,0,90,1,0
77748,338.983050847458,5,1,0,90,1,0
77748,-106.382978723404,5,1,0,90,0,0
79112,398.671096345515,4,1,0,90,1,0
79112,-90.0900900900901,4,1,0,90,0,0
80690,359.928014397121,4,1,0,90,1,0
86448,358.208955223881,4,1,0,90,1,0
89313,358.208955223881,5,1,0,90,1,0
90760,397.350993377483,4,1,0,90,1,0
90760,-90.0900900900901,4,1,0,90,0,0
91940,480,4,1,0,90,1,0
91940,-74.6268656716418,4,1,0,90,0,0
92427,359.281437125748,4,1,0,90,1,0
102479,382.165605095541,4,1,0,90,1,0
102479,-94.3396226415094,4,1,0,90,0,0
103243,425.531914893617,4,1,0,90,1,0
103243,-84.7457627118644,4,1,0,90,0,0
104094,382.165605095541,4,1,0,90,1,0
104094,-94.3396226415094,4,1,0,90,0,0
104483,382.165605095541,4,1,0,90,1,0
104483,-94.3396226415094,4,1,0,90,0,0
105629,359.281437125748,4,1,0,90,1,0
115688,425.531914893617,4,1,0,90,1,0
115688,-84.7457627118644,4,1,0,90,0,0
116539,359.281437125748,4,1,0,90,1,0
117257,361.44578313253,4,1,0,90,1,0
118702,480,4,1,0,90,1,0
118702,-74.6268656716418,4,1,0,90,0,0

[HitObjects]
264,200,1467,1,4
264,200,1647,1,8
264,200,1736,1,8
264,200,1826,1,0
264,200,2005,1,8
264,200,2094,1,8
264,200,2184,1,0
264,200,2273,1,8
264,200,2363,1,8
264,200,2453,1,8
264,200,2542,1,0
264,200,2721,1,8
264,200,2811,1,8
264,200,2900,1,0
264,200,3079,1,8
264,200,3168,1,8
264,200,3258,1,0
264,200,3437,1,8
264,200,3526,1,8
264,200,3616,1,0
264,200,3705,1,8
264,200,3795,1,8
264,200,3885,1,8
264,200,3974,1,0
264,200,4153,1,8
264,200,4243,1,8
264,200,4343,1,0
264,200,4427,1,8
264,200,4512,1,8
264,200,4597,1,8
264,200,4681,1,0
264,200,4766,1,8
264,200,4851,1,8
264,200,4936,1,8
264,200,5020,1,0
264,200,5105,1,8
264,200,5190,1,8
264,200,5275,1,8
264,200,5359,1,0
264,200,5444,1,8
264,200,5529,1,0
264,200,5707,1,8
264,200,5906,1,8
264,200,6105,1,0
264,200,6305,1,0
264,200,6504,1,8
264,200,6637,1,0
264,200,6703,1,0
264,200,6770,1,0
264,200,6903,1,8
264,200,7275,1,0
264,200,7454,1,8
264,200,7544,1,8
264,200,7634,1,0
264,200,7814,1,8
264,200,7904,1,8
264,200,7994,1,0
264,200,8084,1,8
264,200,8174,1,8
264,200,8264,1,8
264,200,8354,1,0
264,200,8534,1,8
264,200,8624,1,8
264,200,8714,1,0
264,200,8894,1,8
264,200,8984,1,8
264,200,9074,1,0
264,200,9254,1,8
264,200,9344,1,8
264,200,9434,1,0
264,200,9524,1,8
264,200,9614,1,8
264,200,9704,1,8
264,200,9794,1,0
264,200,9974,1,8
264,200,10064,1,8
264,200,10154,1,0
264,200,10334,1,0
264,200,10424,1,0
264,200,10514,1,8
264,200,10694,1,0
264,200,10784,1,8
264,200,10874,1,0
264,200,11054,1,8
264,200,11144,1,0
264,200,11234,1,0
264,200,11414,1,0
264,200,11594,1,0
264,200,11773,1,8
264,200,11863,1,0
264,200,12043,1,8
264,200,12133,1,0
264,200,12313,1,0
264,200,12433,1,8
264,200,12493,1,8
264,200,12553,1,8
264,200,12673,1,0
264,200,12853,1,8
264,200,13038,1,0
264,200,13217,1,8
264,200,13306,1,8
264,200,13396,1,0
264,200,13575,1,8
264,200,13664,1,8
264,200,13754,1,0
264,200,13843,1,8
264,200,13933,1,8
264,200,14023,1,8
264,200,14112,1,0
264,200,14291,1,8
264,200,14381,1,8
264,200,14470,1,0
264,200,14649,1,8
264,200,14738,1,8
264,200,14828,1,0
264,200,15007,1,8
264,200,15096,1,8
264,200,15186,1,0
264,200,15275,1,8
264,200,15365,1,8
264,200,15455,1,8
264,200,15544,1,0
264,200,15723,1,8
264,200,15813,1,8
264,200,15913,1,0
264,200,15997,1,8
264,200,16082,1,8
264,200,16167,1,8
264,200,16251,1,0
264,200,16336,1,8
264,200,16421,1,8
264,200,16506,1,8
264,200,16590,1,0
264,200,16675,1,8
264,200,16760,1,8
264,200,16845,1,0
264,200,16929,1,8
264,200,17014,1,0
264,200,17099,1,8
264,200,17277,1,0
264,200,17476,1,0
264,200,17675,1,8
264,200,17875,1,8
264,200,18074,1,0
264,200,18207,1,8
264,200,18273,1,8
264,200,18340,1,8
264,200,18455,1,0
264,200,18940,1,0
264,200,19119,1,8
264,200,19299,1,8
264,200,19389,1,8
264,200,19568,1,8
264,200,19658,1,0
264,200,19748,1,8
264,200,19838,1,8
264,200,19928,1,8
264,200,20017,1,0
264,200,20197,1,8
264,200,20377,1,0
264,200,20556,1,8
264,200,20736,1,8
264,200,20826,1,8
264,200,21005,1,8
264,200,21095,1,0
264,200,21185,1,8
264,200,21275,1,8
264,200,21365,1,8
264,200,21454,1,0
264,200,21634,1,8
264,200,21814,1,0
264,200,21993,1,8
264,200,22173,1,0
264,200,22263,1,8
264,200,22442,1,8
264,200,22532,1,0
264,200,22622,1,8
264,200,22712,1,8
264,200,22802,1,8
264,200,22892,1,0
264,200,23071,1,8
264,200,23251,1,0
264,200,23341,1,8
264,200,23431,1,0
264,200,23520,1,0
264,200,23610,1,8
264,200,23730,1,0
264,200,23850,1,0
264,200,23969,1,0
264,200,24329,1,12
264,200,24688,1,0
264,200,24868,1,8
264,200,25047,1,0
264,200,25137,1,0
264,200,25227,1,8
264,200,25407,1,0
264,200,25586,1,8
264,200,25766,1,0
264,200,25856,1,0
264,200,25945,1,8
264,200,26125,1,0
264,200,26305,1,8
264,200,26484,1,0
264,200,26574,1,0
264,200,26664,1,8
264,200,26754,1,0
264,200,26844,1,0
264,200,26934,1,8
264,200,27113,1,8
264,200,27203,1,0
264,200,27293,1,0
264,200,27383,1,0
264,200,27562,1,8
264,200,27652,1,8
264,200,27862,1,8
264,200,27952,1,0
264,200,28101,1,8
264,200,28191,1,0
264,200,28281,1,0
264,200,28371,1,0
264,200,28580,1,8
264,200,28670,1,0
264,200,28820,1,8
264,200,28910,1,0
264,200,28999,1,0
264,200,29089,1,0
264,200,29299,1,8
264,200,29389,1,0
264,200,29538,1,8
264,200,29628,1,0
264,200,29718,1,0
264,200,29898,1,0
264,200,29987,1,0
264,200,30077,1,8
264,200,30437,1,0
264,200,30616,1,8
264,200,30796,1,0
264,200,30886,1,0
264,200,30975,1,8
264,200,31155,1,0
264,200,31335,1,8
264,200,31514,1,0
264,200,31604,1,0
264,200,31694,1,8
264,200,31874,1,0
264,200,32053,1,8
264,200,32233,1,0
264,200,32323,1,0
264,200,32413,1,8
264,200,32502,1,0
264,200,32592,1,0
264,200,32682,1,8
264,200,32862,1,8
264,200,32951,1,0
264,200,33041,1,0
264,200,33131,1,0
264,200,33311,1,8
264,200,33401,1,8
264,200,33610,1,0
264,200,33700,1,8
264,200,33850,1,8
264,200,33939,1,0
264,200,34029,1,0
264,200,34119,1,8
264,200,34329,1,0
264,200,34419,1,8
264,200,34568,1,8
264,200,34658,1,0
264,200,34748,1,0
264,200,34838,1,8
264,200,35047,1,0
264,200,35137,1,8
264,200,35287,1,8
264,200,35377,1,0
264,200,35466,1,0
264,200,35646,1,8
264,200,35826,1,8
264,200,35916,1,8
264,200,36005,1,8
264,200,36095,1,8
264,200,36185,1,0
264,200,36365,1,8
264,200,36454,1,0
264,200,36544,1,8
264,200,36724,1,0
264,200,36814,1,8
264,200,36904,1,0
264,200,37083,1,8
264,200,37173,1,0
264,200,37263,1,8
264,200,37442,1,8
264,200,37532,1,0
264,200,37622,1,0
264,200,37802,1,8
264,200,37892,1,0
264,200,37981,1,8
264,200,38161,1,0
264,200,38251,1,8
264,200,38341,1,0
264,200,38520,1,8
264,200,38610,1,0
264,200,38700,1,8
264,200,38880,1,8
264,200,38969,1,0
264,200,39059,1,0
264,200,39239,1,0
264,200,39419,1,8
264,200,39598,1,0
264,200,39688,1,8
264,200,39778,1,0
264,200,39957,1,0
264,200,40137,1,8
264,200,40317,1,0
264,200,40407,1,8
264,200,40496,1,0
264,200,40676,1,0
264,200,40856,1,8
264,200,41035,1,0
264,200,41125,1,8
264,200,41215,1,0
264,200,41395,1,0
264,200,41574,1,8
264,200,41664,1,0
264,200,41754,1,0
264,200,41934,1,0
264,200,42113,1,0
264,200,42203,1,0
264,200,42293,1,8
264,200,42383,1,0
264,200,42562,1,8
264,200,42652,1,0
264,200,42832,1,0
264,200,42922,1,8
264,200,43011,1,0
264,200,43191,1,8
264,200,43281,1,0
264,200,43371,1,0
264,200,43550,1,0
264,200,43640,1,0
264,200,43730,1,8
264,200,43820,1,0
264,200,43999,1,8
264,200,44089,1,0
264,200,44269,1,0
264,200,44359,1,8
264,200,44448,1,0
264,200,44628,1,8
264,200,44718,1,0
264,200,44808,1,0
264,200,44898,1,8
264,200,44987,1,8
264,200,45077,1,0
264,200,45167,1,0
264,200,45347,1,8
264,200,45437,1,0
264,200,45526,1,0
264,200,45625,1,8
264,200,45724,1,8
264,200,45824,1,0
264,200,45923,1,0
264,200,46122,1,8
264,200,46320,1,0
264,200,46467,1,8
264,200,46614,1,8
264,200,46761,1,0
264,200,46908,1,8
264,200,47055,1,8
264,200,47202,1,0
264,200,47312,1,8
264,200,47422,1,8
264,200,47533,1,0
264,200,47643,1,8
264,200,47753,1,8
264,200,47864,1,0
264,200,47974,1,0
264,200,48089,1,0
264,200,48486,1,8
264,200,48883,1,8
264,200,48983,1,0
264,200,49082,1,0
264,200,49181,1,0
264,200,49281,1,8
264,200,49479,1,8
264,200,49579,1,8
264,200,49777,1,0
264,200,49877,1,8
264,200,49976,1,8
264,200,50075,1,0
264,200,50208,1,0
264,200,50340,1,0
264,200,50473,1,8
264,200,50671,1,0
264,200,50771,1,0
264,200,50870,1,8
264,200,51069,1,8
264,200,51262,1,0
264,200,51610,1,8
264,200,51698,1,0
264,200,51785,1,8
264,200,51872,1,8
264,200,51959,1,0
264,200,52046,1,8
264,200,52134,1,8
264,200,52221,1,8
264,200,52308,1,0
264,200,52395,1,8
264,200,52482,1,8
264,200,52570,1,0
264,200,52657,1,8
264,200,52744,1,8
264,200,52831,1,8
264,200,52918,1,0
264,200,53005,1,8
264,200,53093,1,8
264,200,53180,1,0
264,200,53267,1,8
264,200,53354,1,8
264,200,53441,1,8
264,200,53529,1,0
264,200,53616,1,8
264,200,53703,1,8
264,200,53790,1,0
264,200,54055,1,0
264,200,54452,1,8
264,200,54849,1,8
264,200,54949,1,0
264,200,55048,1,0
264,200,55147,1,0
264,200,55247,1,8
264,200,55445,1,8
264,200,55545,1,8
264,200,55743,1,0
264,200,55843,1,8
264,200,55942,1,8
264,200,56041,1,0
264,200,56174,1,8
264,200,56306,1,8
264,200,56439,1,8
264,200,56571,1,8
264,200,56637,1,8
264,200,56704,1,8
264,200,56836,1,0
264,200,57035,1,8
264,200,57225,1,0
264,200,57573,1,8
264,200,57661,1,0
264,200,57748,1,8
264,200,57835,1,8
264,200,57922,1,0
264,200,58009,1,8
264,200,58097,1,8
264,200,58184,1,8
264,200,58271,1,0
264,200,58358,1,8
264,200,58445,1,8
264,200,58533,1,0
264,200,58620,1,8
264,200,58707,1,8
264,200,58794,1,8
264,200,58881,1,0
264,200,58968,1,8
264,200,59056,1,8
264,200,59143,1,0
264,200,59230,1,8
264,200,59317,1,8
264,200,59404,1,8
264,200,59492,1,0
264,200,59579,1,8
264,200,59666,1,8
264,200,59753,1,0
264,200,59928,1,0
264,200,60021,1,0
264,200,60206,1,8
264,200,60298,1,0
264,200,60483,1,8
264,200,60576,1,0
264,200,60669,1,0
264,200,60761,1,8
264,200,60946,1,8
264,200,61039,1,0
264,200,61224,1,0
264,200,61317,1,8
264,200,61502,1,0
264,200,61687,1,8
264,200,61780,1,0
264,200,61965,1,8
264,200,62058,1,0
264,200,62150,1,0
264,200,62243,1,8
264,200,62428,1,0
264,200,62520,1,8
264,200,62706,1,8
264,200,62798,1,0
264,200,62983,1,8
264,200,63076,1,0
264,200,63169,1,0
264,200,63261,1,8
264,200,63446,1,8
264,200,63539,1,0
264,200,63632,1,0
264,200,63724,1,8
264,200,63817,1,8
264,200,63909,1,0
264,200,64002,1,8
264,200,64187,1,8
264,200,64280,1,0
264,200,64372,1,0
264,200,64465,1,8
264,200,64558,1,0
264,200,64650,1,0
264,200,64743,1,8
264,200,64928,1,8
264,200,65020,1,0
264,200,65113,1,0
264,200,65206,1,8
264,200,65298,1,8
264,200,65391,1,0
264,200,65483,1,8
264,200,65669,1,8
264,200,65761,1,0
264,200,65854,1,0
264,200,65940,1,8
264,200,66138,1,8
264,200,66238,1,8
264,200,66337,1,8
264,200,66469,1,8
264,200,66602,1,8
264,200,66734,1,0
264,200,66834,1,8
264,200,66933,1,8
264,200,67032,1,8
264,200,67132,1,0
264,200,67231,1,8
264,200,67330,1,8
264,200,67430,1,8
264,200,67529,1,0
264,200,67628,1,8
264,200,67727,1,8
264,200,67827,1,8
264,200,67926,1,0
264,200,68025,1,8
264,200,68125,1,8
264,200,68224,1,8
264,200,68323,1,0
264,200,68423,1,8
264,200,68522,1,8
264,200,68621,1,8
264,200,68721,1,0
264,200,68820,1,8
264,200,68919,1,8
264,200,69019,1,8
264,200,69124,1,0
264,200,69483,1,8
264,200,69842,1,8
264,200,70201,1,8
264,200,70381,1,4
264,200,70561,1,4
264,200,70920,1,8
264,200,71279,1,8
264,200,71638,1,8
264,200,71818,1,4
264,200,71998,1,4
264,208,74522,1,8
264,208,74612,1,8
264,208,74702,1,0
264,208,74792,1,0
264,208,74878,1,0
264,208,75057,1,8
264,208,75146,1,8
264,208,75236,1,0
264,208,75415,1,8
264,208,75504,1,8
264,208,75594,1,0
264,208,75683,1,8
264,208,75773,1,8
264,208,75863,1,8
264,208,75952,1,0
264,208,76131,1,8
264,208,76221,1,8
264,208,76310,1,0
264,208,76489,1,8
264,208,76578,1,8
264,208,76668,1,0
264,208,76847,1,8
264,208,76936,1,8
264,208,77026,1,0
264,208,77115,1,8
264,208,77205,1,8
264,208,77295,1,8
264,208,77384,1,0
264,208,77563,1,8
264,208,77653,1,8
264,208,77748,1,0
264,208,77832,1,8
264,208,77917,1,8
264,208,78002,1,8
264,208,78086,1,0
264,208,78171,1,8
264,208,78256,1,8
264,208,78341,1,8
264,208,78425,1,0
264,208,78510,1,8
264,208,78595,1,8
264,208,78680,1,8
264,208,78764,1,0
264,208,78849,1,8
264,208,78934,1,0
264,208,79112,1,8
264,208,79311,1,8
264,208,79510,1,0
264,208,79710,1,0
264,208,79909,1,8
264,208,80042,1,0
264,208,80108,1,0
264,208,80175,1,0
264,208,80308,1,8
264,208,80690,1,0
264,208,80869,1,8
264,208,80959,1,8
264,208,81049,1,0
264,208,81229,1,8
264,208,81319,1,8
264,208,81409,1,0
264,208,81499,1,8
264,208,81589,1,8
264,208,81679,1,8
264,208,81769,1,0
264,208,81949,1,8
264,208,82039,1,8
264,208,82129,1,0
264,208,82309,1,8
264,208,82399,1,8
264,208,82489,1,0
264,208,82669,1,8
264,208,82759,1,8
264,208,82849,1,0
264,208,82939,1,8
264,208,83029,1,8
264,208,83119,1,8
264,208,83209,1,0
264,208,83389,1,8
264,208,83479,1,8
264,208,83569,1,0
264,208,83749,1,0
264,208,83839,1,8
264,208,83929,1,8
264,208,84109,1,8
264,208,84199,1,0
264,208,84289,1,8
264,208,84469,1,8
264,208,84559,1,8
264,208,84649,1,0
264,208,84829,1,8
264,208,85009,1,0
264,208,85189,1,0
264,208,85279,1,8
264,208,85459,1,0
264,208,85549,1,8
264,208,85728,1,0
288,192,85848,1,8
288,192,85908,1,8
288,192,85968,1,8
288,192,86088,1,0
288,192,86268,1,8
264,208,86448,1,0
264,208,86627,1,8
264,208,86716,1,8
264,208,86806,1,0
264,208,86985,1,8
264,208,87074,1,8
264,208,87164,1,0
264,208,87253,1,8
264,208,87343,1,8
264,208,87433,1,8
264,208,87522,1,0
264,208,87701,1,8
264,208,87791,1,8
264,208,87880,1,0
264,208,87970,1,8
264,208,88059,1,8
264,208,88149,1,8
264,208,88239,1,0
264,208,88418,1,8
264,208,88507,1,8
264,208,88597,1,0
264,208,88686,1,8
264,208,88776,1,8
264,208,88865,1,8
264,208,88955,1,0
264,208,89134,1,8
264,208,89224,1,8
264,208,89313,1,0
264,208,89402,1,8
264,208,89492,1,8
264,208,89581,1,8
264,208,89671,1,0
264,208,89760,1,8
264,208,89850,1,8
264,208,89939,1,8
264,208,90029,1,0
264,208,90118,1,8
264,208,90208,1,8
264,208,90298,1,0
264,208,90387,1,8
264,208,90477,1,0
264,208,90566,1,8
264,208,90760,1,0
264,208,90958,1,0
264,208,91157,1,8
264,208,91356,1,8
264,208,91554,1,0
264,208,91687,1,8
264,208,91753,1,8
264,208,91819,1,8
264,208,91940,1,0
264,208,92427,1,0
264,208,92606,1,8
264,208,92786,1,8
264,208,92876,1,8
264,208,93055,1,8
264,208,93145,1,0
264,208,93235,1,8
264,208,93325,1,8
264,208,93415,1,8
264,208,93504,1,0
264,208,93684,1,8
264,208,93864,1,0
264,208,94043,1,8
264,208,94223,1,8
264,208,94313,1,8
264,208,94492,1,8
264,208,94582,1,0
264,208,94672,1,8
264,208,94762,1,8
264,208,94852,1,8
264,208,94941,1,0
264,208,95121,1,8
264,208,95301,1,0
264,208,95480,1,8
264,208,95660,1,0
264,208,95750,1,8
264,208,95929,1,8
264,208,96019,1,0
264,208,96109,1,8
264,208,96199,1,8
264,208,96289,1,8
264,208,96379,1,0
264,208,96558,1,8
264,208,96738,1,0
264,208,96918,1,8
264,208,97007,1,8
264,208,97097,1,0
264,208,97187,1,8
264,208,97367,1,8
264,208,97456,1,0
264,208,97546,1,8
264,208,97636,1,8
264,208,97816,1,0
264,208,97906,1,0
264,208,97995,1,0
264,208,98085,1,0
264,208,98175,1,0
264,208,98355,1,8
264,208,98534,1,0
264,208,98624,1,0
264,208,98714,1,8
264,208,98894,1,0
264,208,99073,1,8
264,208,99253,1,0
264,208,99343,1,0
264,208,99432,1,8
264,208,99612,1,0
264,208,99792,1,8
264,208,99971,1,0
264,208,100061,1,0
264,208,100151,1,8
264,208,100241,1,0
264,208,100331,1,0
264,208,100421,1,8
264,208,100600,1,8
264,208,100690,1,0
264,208,100870,1,0
264,208,101049,1,4
264,208,101588,1,0
264,208,101648,1,0
264,208,101708,1,0
264,208,101768,1,8
264,208,102127,1,12
264,208,102479,1,4
264,208,102670,1,0
264,208,102765,1,0
264,208,102861,1,8
264,208,102956,1,8
264,208,103052,1,8
264,208,103115,1,0
264,208,103179,1,0
264,208,103243,1,0
264,208,103668,1,4
264,208,104094,1,4
264,208,104483,1,8
264,208,104578,1,8
264,208,104674,1,0
264,208,104769,1,0
264,208,104865,1,8
264,208,104960,1,8
264,208,105056,1,0
264,208,105151,1,0
264,208,105247,1,8
264,208,105342,1,8
264,208,105438,1,0
264,208,105533,1,0
264,208,105629,1,8
264,208,105718,1,8
264,208,105808,1,0
264,208,105898,1,0
264,208,105988,1,8
264,208,106078,1,8
264,208,106167,1,0
264,208,106257,1,0
264,208,106347,1,8
264,208,106437,1,0
264,208,106527,1,8
264,208,106617,1,0
264,208,106706,1,8
264,208,106796,1,0
264,208,106886,1,8
264,208,106946,1,0
264,208,107006,1,0
264,208,107066,1,0
264,208,107425,1,0
264,208,107515,1,0
264,208,107605,1,8
264,208,107694,1,8
264,208,107784,1,0
264,208,107874,1,0
264,208,107964,1,8
264,208,108054,1,8
264,208,108143,1,0
264,208,108233,1,0
264,208,108323,1,8
264,208,108413,1,8
264,208,108503,1,0
264,208,108593,1,0
264,208,108682,1,8
264,208,108772,1,8
264,208,108862,1,0
264,208,108952,1,0
264,208,109042,1,8
264,208,109131,1,8
280,176,109221,1,0
264,208,109311,1,8
264,208,109401,1,0
264,208,109491,1,8
264,208,109581,1,0
264,208,109670,1,8
264,208,109760,1,0
280,176,109820,1,8
280,176,109880,1,8
280,176,109940,1,8
280,176,110299,1,0
280,176,110389,1,8
280,176,110479,1,8
280,176,110569,1,8
280,176,110658,1,0
280,176,110748,1,8
280,176,110838,1,8
280,176,110928,1,8
280,176,111018,1,0
280,176,111108,1,8
280,176,111197,1,8
280,176,111287,1,8
280,176,111377,1,0
280,176,111557,1,8
280,176,111646,1,8
280,176,111736,1,0
280,176,111916,1,8
280,176,112006,1,0
280,176,112096,1,8
280,176,112275,1,0
280,176,112365,1,8
280,176,112455,1,0
280,176,112634,1,8
280,176,112724,1,8
280,176,112814,1,0
280,176,112994,1,8
280,176,113084,1,8
280,176,113173,1,0
280,176,113263,1,8
280,176,113353,1,8
280,176,113443,1,8
280,176,113533,1,0
280,176,113623,1,8
280,176,113712,1,8
280,176,113802,1,8
280,176,113892,1,0
280,176,113982,1,8
280,176,114072,1,8
280,176,114161,1,8
280,176,114251,1,0
280,176,114341,1,0
280,176,114431,1,0
280,176,114521,1,8
280,176,114611,1,0
280,176,114700,1,0
280,176,114790,1,8
280,176,114880,1,0
280,176,114970,1,0
280,176,115060,1,8
280,176,115149,1,0
280,176,115239,1,0
280,176,115329,1,8
280,176,115419,1,0
280,176,115509,1,0
280,176,115599,1,8
280,208,115688,5,0
280,208,116326,1,8
280,208,116432,1,0
280,208,116539,1,0
280,208,116628,1,0
280,208,116718,1,8
280,208,116808,1,0
280,208,116898,1,0
280,208,116988,1,8
280,208,117077,1,0
280,208,117167,1,0
280,208,117257,1,8
280,208,117347,1,8
280,208,117437,1,0
280,208,117528,1,0
280,208,117618,1,8
280,208,117708,1,8
280,208,117799,1,0
280,208,117889,1,0
280,208,117979,1,8
280,208,118070,1,8
280,208,118160,1,0
280,208,118250,1,0
280,208,118341,1,0
280,208,118431,1,0
280,208,118522,1,8
280,208,118612,1,0
280,208,118702,1,0
280,208,119502,1,0
280,208,119582,1,0
280,208,119662,1,0
280,208,120462,1,8
280,208,120542,1,8
280,208,120622,1,8
