osu file format v9

[General]
AudioFilename: Etude 10-4.mp3
AudioLeadIn: 1000
PreviewTime: 1109
Countdown: 0
SampleSet: Soft
StackLeniency: 0.7
Mode: 0
LetterboxInBreaks: 1

[Editor]
DistanceSpacing: 1.2
BeatDivisor: 4
GridSize: 8

[Metadata]
Title:Etude Op. 10-4
Artist:Frederic Chopin
Creator:lepidopodus
Version:Normal
Source:Taiko no Tatsujin
Tags:Yuji Masubuchi Yuuji classic classical opus

[Difficulty]
HPDrainRate:4
CircleSize:3
OverallDifficulty:4
ApproachRate:5
SliderMultiplier:1.2
SliderTickRate:1

[Events]
//Background and Video events
0,0,"1289311309_piano_441058.png"
//Break Periods
2,69324,73678
//Storyboard Layer 0 (Background)
//Storyboard Layer 1 (Fail)
//Storyboard Layer 2 (Pass)
//Storyboard Layer 3 (Foreground)
//Storyboard Sound Samples
//Background Colour Transformations
3,100,163,162,255

[TimingPoints]
1468,358.208955223881,4,2,0,55,1,0
4343,338.983050847458,4,2,1,80,1,0
5707,398.671096345515,4,2,1,90,1,0
7275,359.928014397121,4,2,0,55,1,0
10064,-100,4,2,1,80,0,0
13038,358.208955223881,4,2,0,55,1,0
15913,338.983050847458,4,2,1,80,1,0
17277,398.671096345515,4,2,1,80,1,0
18455,480,4,2,1,90,1,0
18940,359.281437125748,4,2,0,40,1,0
20287,-100,4,2,0,55,0,0
21724,-100,4,2,0,70,0,0
23251,-100,4,2,1,80,0,1
45526,397.350993377483,4,2,1,80,1,0
46320,441.176470588235,4,2,1,80,1,0
48089,397.350993377483,4,2,1,80,1,0
51262,348.837209302326,4,2,1,80,1,0
54055,397.350993377483,4,2,1,80,1,0
57225,348.837209302326,4,2,1,80,1,0
60021,370.37037037037,4,2,1,80,1,1
65940,397.350993377483,4,2,1,80,1,0
69124,359.281437125748,4,2,1,80,1,0
73445,359.281437125748,4,2,1,80,1,0
74878,358.208955223881,4,2,0,55,1,0
77748,338.983050847458,4,2,1,80,1,0
79112,398.671096345515,4,2,1,80,1,0
80690,359.928014397121,4,2,0,55,1,0
83479,-100,4,2,1,80,0,0
86448,358.208955223881,4,2,0,55,1,0
89224,-100,4,2,1,80,0,0
90760,397.350993377483,4,2,1,80,1,0
91940,480,4,2,1,80,1,0
92427,359.281437125748,4,2,0,40,1,0
93774,-100,4,2,0,55,0,0
95211,-100,4,2,0,70,0,0
96648,-100,4,2,0,80,0,0
97726,-100,4,2,1,80,0,0
102479,382.165605095541,4,2,1,80,1,0
103243,425.531914893617,4,2,1,80,1,0
104094,382.165605095541,4,2,1,80,1,0
104483,382.165605095541,4,2,1,80,1,0
105629,359.281437125748,4,2,1,80,1,0
111287,-100,4,2,0,80,0,0
112724,-100,4,2,1,80,0,0
115688,425.531914893617,4,2,1,80,1,0
116539,359.281437125748,4,2,1,80,1,0
117257,361.44578313253,4,2,1,80,1,0
118702,480,4,2,1,80,1,0
120382,-100,4,2,1,50,0,0
120562,-100,4,2,1,80,0,0

[Colours]
Combo1 : 170,85,0
Combo2 : 0,117,117
Combo3 : 0,106,213
Combo4 : 170,0,0

[HitObjects]
136,64,1467,2,0,B|256:64,1,120,4|2
376,144,2184,2,0,B|256:144,1,120,0|2
136,224,2900,2,0,B|264:224,1,120,0|2
376,304,3617,2,0,B|256:304,1,120,0|2
256,152,4343,6,0,B|232:0|-24:8|-24:256|144:280,1,480,2|0
200,304,5906,2,0,B|280:328|384:328,1,180,0|0
464,216,6903,1,2
416,64,7275,6,0,B|392:128|320:144,1,120,4|2
200,88,7994,2,0,B|136:104|112:176,1,120,0|2
200,280,8714,2,0,B|328:280,3,120,0|2|0|2
432,192,10154,5,0
472,56,10514,1,4
336,8,10874,1,0
288,144,11234,1,4
192,32,11594,2,0,B|5:139|78:337,1,360,4|8
216,312,13038,6,0,B|216:176,1,120,4|2
296,72,13754,2,0,B|296:200,1,120,0|2
376,312,14470,2,0,B|376:176,1,120,0|2
456,72,15187,2,0,B|456:200,1,120,0|2
360,312,15913,6,0,B|208:344|80:280|71:112|144:24,1,480,2|0
206,67,17476,2,0,B|160:116|174:200|224:226,1,180,8|0
293,135,18455,1,2
200,296,18940,6,0,B|56:272|40:120,3,240
320,48,21814,2,0,B|394:61|411:124,3,120
400,264,23251,5,8
256,264,23610,1,8
112,264,23969,1,0
256,264,24329,1,4
160,152,24688,6,0,B|168:72|248:48,1,120,0|8
368,72,25407,2,0,B|360:152|280:176,1,120,0|8
240,40,26125,2,0,B|128:8|32:48|8:176|80:264,1,360,0|0
192,312,27562,5,8
232,176,27922,1,0
272,312,28281,1,0
312,176,28640,1,0
352,312,28999,2,0,B|488:312,2,120,8|0|8
392,176,30077,1,4
304,64,30437,6,0,B|272:112|200:128,1,120,0|8
296,240,31155,2,0,B|232:240|192:296,1,120,0|8
104,176,31874,2,0,B|128:72|224:16|328:40|400:88,1,360
432,224,33311,5,2
328,328,33670,1,2
352,184,34029,1,2
248,288,34389,1,2
272,144,34748,2,0,B|216:168|152:144,3,120,2|2|2|2
160,288,36185,6,0,B|288:328|384:232,1,240
376,88,37263,1,4
256,8,37622,2,0,B|112:24|88:152,1,240
160,288,38700,1,4
184,144,39059,6,0,B|320:144,1,120,0|8
264,280,39778,2,0,B|384:280,1,120,0|8
328,144,40496,2,0,B|448:144,3,120,0|8|0|8
336,56,41934,5,2
168,296,42652,1,4
400,128,43371,1,2
128,216,44089,1,4
256,192,44808,12,2,48089
144,72,48883,6,0,B|112:136|168:192,1,120,8|8
296,128,49678,2,0,B|384:128|456:200|424:304,1,240,0|8
104,320,51262,1,2
104,320,51610,6,0,B|16:248|32:104|136:64|232:96,2,360,0|0|2
232,320,54055,5,0
304,192,54452,1,0
368,320,54849,2,0,B|432:280|440:200,1,120,0|8
400,88,55644,2,0,B|264:128|144:48,1,240,8|8
368,320,57225,1,4
336,176,57573,6,0,B|304:72|160:40|80:136|96:232,2,360
288,304,60021,6,0,B|384:312|448:224,1,180
432,160,60761,2,0,B|416:112|432:64,2,90,0|8|0
360,176,61502,2,0,B|256:152|216:48,1,180
152,48,62243,2,0,B|104:64|72:120,2,90,0|8|0
176,120,62983,6,0,B|176:216|80:264,1,180
128,320,63724,2,0,B|168:344|224:328,2,90,0|8|0
168,256,64465,2,0,B|216:256|248:216,2,90,0|8|0
152,184,65206,2,0,B|200:160|200:96,2,90,0|8|0
256,192,65940,12,2,69124
144,24,74878,6,0,B|80:144,1,120,4|2
128,272,75594,2,0,B|192:152,1,120,0|2
320,128,76310,2,0,B|256:248,1,120,0|2
304,376,77027,2,0,B|368:256,1,120,0|2
208,264,77748,6,0,B|96:184|144:8|304:0|392:64|400:176,1,480,2|0
400,232,79311,2,0,B|392:280|352:296|352:344,1,120,0|8
424,344,79909,1,0
472,208,80308,1,2
400,64,80690,6,0,B|352:104|280:80,1,120,4|2
312,224,81409,2,0,B|256:176|200:224,1,120,0|2
224,80,82129,2,0,B|160:112|112:64,3,120,0|2|0|2
48,192,83569,5,0
112,320,83929,1,4
240,256,84289,1,0
176,128,84649,1,4
312,72,85009,2,0,B|448:56|496:176|464:288|360:304,1,360,4|8
256,224,86448,6,0,B|208:272|120:272,1,120,4|2
96,136,87164,2,0,B|136:88|208:88,1,120,0|2
256,224,87880,2,0,B|304:272|392:272,1,120,0|2
416,136,88597,2,0,B|376:88|304:88,1,120,0|2
168,104,89313,6,0,B|128:120|40:184|72:304|128:352|208:384|320:336|336:248,1,480,2|0
327,196,90958,2,0,B|327:132|367:132|367:68,1,120,0|8
368,12,91554,1,0
248,12,91940,1,2
88,128,92427,6,0,B|37:212|112:304|216:264,3,240
392,56,95301,2,0,B|360:120|280:128,3,120
168,192,96738,5,2
296,256,97097,1,2
168,320,97456,1,2
296,256,97816,1,2
392,144,98175,6,0,B|320:128|296:64,1,120,0|8
160,48,98894,2,0,B|144:112|80:128,1,120,0|8
120,264,99612,2,0,B|192:272|208:344,1,120,0|8
352,320,100331,1,0
416,192,100690,1,8
352,64,101049,5,2
104,192,101768,1,0
104,192,102127,1,0
128,56,102479,5,2
256,120,102861,1,2
384,56,103243,1,2
336,208,103668,5,2
176,208,104094,1,2
256,192,104483,12,4,107066
256,192,107425,12,4,109940
320,56,111377,6,0,B|344:120|424:136,3,120,2|2|2|2
400,272,112814,1,0
256,272,113173,1,0
328,144,113533,1,0
184,144,113892,1,0
184,288,114251,6,0,B|24:296|-32:80|128:-16|256:72,1,480,0|4
256,192,116113,12,2,118702
256,72,119662,5,4
256,320,120502,2,0,B|256:290,1,30,4|4
