osu file format v9

[General]
AudioFilename: Etude 10-4.mp3
AudioLeadIn: 1000
PreviewTime: 1109
Countdown: 0
SampleSet: Soft
StackLeniency: 0.7
Mode: 0
LetterboxInBreaks: 1

[Editor]
DistanceSpacing: 1.2
BeatDivisor: 4
GridSize: 8

[Metadata]
Title:Etude Op. 10-4
Artist:Frederic Chopin
Creator:lepidopodus
Version:Insane
Source:Taiko no Tatsujin
Tags:Yuji Masubuchi Yuuji classic classical opus

[Difficulty]
HPDrainRate:6
CircleSize:4
OverallDifficulty:7
ApproachRate:8
SliderMultiplier:1.8
SliderTickRate:1

[Events]
//Background and Video events
0,0,"1289311309_piano_441058.png"
//Break Periods
2,69324,73772
//Storyboard Layer 0 (Background)
//Storyboard Layer 1 (Fail)
//Storyboard Layer 2 (Pass)
//Storyboard Layer 3 (Foreground)
//Storyboard Sound Samples
//Background Colour Transformations
3,100,163,162,255

[TimingPoints]
1468,358.208955223881,4,2,0,55,1,0
4343,338.983050847458,4,2,1,80,1,0
5707,398.671096345515,4,2,1,90,1,0
7275,359.928014397121,4,2,0,55,1,0
10064,-100,4,2,1,80,0,0
13038,358.208955223881,4,2,0,55,1,0
15913,338.983050847458,4,2,1,80,1,0
17277,398.671096345515,4,2,1,80,1,0
18455,480,4,2,1,90,1,0
18940,359.281437125748,4,2,0,40,1,0
20287,-100,4,2,0,55,0,0
21724,-100,4,2,0,70,0,0
23251,-100,4,2,1,80,0,1
45526,397.350993377483,4,2,1,80,1,0
46320,441.176470588235,4,2,1,80,1,0
48089,397.350993377483,4,2,1,80,1,0
51262,348.837209302326,4,2,1,80,1,0
54055,397.350993377483,4,2,1,80,1,0
57225,348.837209302326,4,2,1,80,1,0
60021,370.37037037037,4,2,1,80,1,1
65940,397.350993377483,4,2,1,80,1,0
69124,359.281437125748,4,2,1,80,1,0
73445,359.281437125748,4,2,1,80,1,0
74878,358.208955223881,4,2,0,55,1,0
77748,338.983050847458,4,2,1,80,1,0
79112,398.671096345515,4,2,1,80,1,0
80690,359.928014397121,4,2,0,55,1,0
83479,-100,4,2,1,80,0,0
86448,358.208955223881,4,2,0,55,1,0
89224,-100,4,2,1,80,0,0
90760,397.350993377483,4,2,1,80,1,0
91940,480,4,2,1,80,1,0
92427,359.281437125748,4,2,0,40,1,0
93774,-100,4,2,0,55,0,0
95211,-100,4,2,0,70,0,0
96648,-100,4,2,0,80,0,0
97726,-100,4,2,1,80,0,0
102479,382.165605095541,4,2,1,80,1,0
103243,425.531914893617,4,2,1,80,1,0
104094,382.165605095541,4,2,1,80,1,0
104483,382.165605095541,4,2,1,80,1,0
105629,359.281437125748,4,2,1,80,1,0
111287,-100,4,2,0,80,0,0
112724,-100,4,2,1,80,0,0
115688,425.531914893617,4,2,1,80,1,0
116539,359.281437125748,4,2,1,80,1,0
117257,361.44578313253,4,2,1,80,1,0
118702,480,4,2,1,80,1,0
120382,-100,4,2,1,50,0,0
120562,-100,4,2,1,80,0,0

[Colours]
Combo1 : 170,85,0
Combo2 : 0,117,117
Combo3 : 0,106,213
Combo4 : 170,0,0

[HitObjects]
256,288,1467,1,4
152,296,1647,2,0,B|136:248|88:232,1,90,0|2
32,144,2005,2,0,B|80:136|96:80,1,90
184,24,2363,2,0,B|184:120,1,90,0|2
256,200,2721,2,0,B|256:96,1,90
328,24,3079,2,0,B|328:120,1,90,0|2
417,85,3438,2,0,B|432:136|488:144,1,90
424,232,3796,2,0,B|382:246|360:296,2,90,0|2|0
256,280,4343,5,0
224,296,4427,1,0
192,304,4512,1,8
160,296,4597,1,0
128,280,4681,1,0
108,248,4766,1,0
100,216,4851,1,8
108,184,4936,1,0
128,152,5020,1,0
160,136,5105,1,0
192,128,5190,1,8
224,136,5275,1,0
256,152,5359,2,0,L|312:152,2,45,0|0|8
344,48,5707,5,0
432,104,5906,1,0
368,192,6105,1,8
432,280,6305,1,0
328,312,6504,1,8
264,224,6703,1,0
264,224,6903,1,2
88,64,7275,5,4
192,64,7454,2,0,L|144:144,1,90,0|2
144,248,7814,2,0,L|192:328,1,90
256,240,8174,2,0,L|256:136,1,90,0|2
352,104,8534,2,0,B|392:128|440:104,1,90
504,192,8894,2,0,B|408:192,1,90,0|2
352,280,9254,2,0,B|392:256|440:280,1,90
368,192,9614,2,0,B|264:192,2,90,0|2|0
432,104,10154,5,0
432,104,10334,1,0
288,32,10514,1,4
80,280,10874,5,0
80,280,11054,1,0
224,352,11234,1,4
416,280,11594,5,0
328,344,11774,1,8
328,344,11864,1,8
272,248,12044,1,8
272,248,12134,1,8
184,312,12313,2,0,B|24:256|48:96,1,270,8|0
192,32,13038,5,4
256,120,13217,2,0,B|256:224,1,90,0|2
360,192,13575,2,0,B|456:192,1,90
392,280,13933,2,0,B|312:320,1,90,0|2
200,320,14291,2,0,B|120:280,1,90,0|0
64,192,14649,2,0,B|168:192,1,90,0|2
128,88,15008,2,0,B|176:88|200:40,1,90
312,41,15366,2,0,B|336:88|384:88,2,90,0|2|0
432,160,15913,5,0
408,184,15997,1,0
376,192,16082,1,8
344,184,16167,1,0
320,160,16251,1,0
288,144,16336,1,0
256,136,16421,1,8
224,144,16506,1,0
192,160,16590,1,0
168,184,16675,1,0
136,192,16760,1,8
104,184,16845,1,0
80,160,16929,2,0,B|32:160,2,45,0|0|8
184,256,17277,5,0
256,336,17476,2,0,B|304:304|296:240,2,90,8|8|0
152,352,18074,1,8
72,272,18273,1,0
72,272,18373,1,0
72,272,18455,1,2
256,48,18940,6,0,B|352:48,1,90,0|2
424,128,19299,1,2
424,128,19389,1,2
336,192,19568,1,2
336,192,19658,2,0,B|256:128|168:192,1,180,0|2
88,128,20197,1,0
88,240,20377,6,0,B|168:288,1,90,0|2
256,224,20736,1,2
256,224,20826,1,2
344,288,21005,1,2
344,288,21095,2,0,B|424:240|424:240|456:160,1,180,0|2
376,88,21634,1,0
256,168,21814,6,0,B|256:72,1,90,0|2
256,224,22173,2,2,B|256:280,1,45
176,336,22442,1,2
176,336,22532,2,0,B|256:376|256:376|336:336,1,180,0|2
176,24,23251,5,10
176,24,23341,1,8
176,24,23431,1,0
336,24,23610,1,10
336,24,23700,1,8
336,24,23790,1,0
256,152,23969,1,2
256,152,24329,1,4
456,248,24688,6,0,B|408:256|384:312,1,90,0|8
304,240,25047,1,0
304,240,25137,1,0
304,240,25227,1,8
256,336,25407,2,0,B|216:312|168:336,1,90,0|8
112,240,25766,1,0
112,240,25856,1,0
112,240,25945,1,8
160,144,26125,5,0
128,128,26215,1,0
112,96,26305,1,8
128,64,26395,1,0
160,48,26484,1,0
192,64,26574,1,0
208,96,26664,1,8
224,128,26754,1,0
256,144,26844,1,8
288,128,26934,1,0
304,96,27023,1,0
288,64,27113,1,0
256,48,27203,1,2
440,312,27562,6,0,B|440:208,1,90,8|0
368,144,27922,2,0,B|368:240,1,90,0|0
296,312,28281,2,0,B|296:208,1,90,8|0
224,144,28640,2,0,B|224:240,1,90,0|0
152,312,28999,1,8
64,248,29179,1,0
64,136,29359,1,8
152,72,29538,1,0
152,72,29718,1,8
360,312,30077,1,4
64,192,30437,6,0,B|88:232|136:240,1,90,0|8
168,136,30796,1,0
168,136,30886,1,0
168,136,30975,1,8
208,32,31155,2,0,B|256:48|280:96,1,90,0|8
256,192,31514,1,0
256,192,31604,1,0
256,192,31694,1,8
368,192,31874,5,0
400,200,31963,1,0
424,224,32053,1,8
432,256,32143,1,0
424,288,32233,1,0
400,312,32323,1,0
368,320,32413,1,8
336,312,32502,1,0
312,288,32592,1,8
304,256,32682,1,0
312,224,32772,1,0
336,200,32862,1,0
368,192,32951,1,2
72,56,33311,5,2
256,320,33670,1,2
440,56,34029,1,2
256,320,34389,1,0
72,56,34748,6,0,B|80:152|184:208,1,180,2|2
440,56,35466,2,0,B|432:152|328:208,1,180,2|2
128,192,36185,5,0
184,288,36365,2,0,B|184:336,2,45,0|0|8
280,240,36724,1,0
280,240,36814,1,0
280,240,36904,2,0,B|304:184|368:176,1,90,8|0
256,40,37263,1,4
448,104,37622,5,0
400,192,37802,2,0,B|400:240,2,45,0|0|8
304,152,38161,1,0
304,152,38251,1,0
304,152,38341,2,0,B|272:112|224:120,1,90,8|0
256,280,38700,1,4
80,152,39059,5,0
120,48,39239,2,0,B|152:88|208:88,1,90,0|8
296,40,39598,1,0
360,128,39778,2,0,B|408:112|416:56,2,90,0|0|8
448,192,40317,1,0
352,248,40496,2,0,B|264:272,1,90
240,168,40856,2,0,B|152:192,1,90,8|0
88,280,41215,2,0,B|120:312|184:296,2,90,0|0|8
24,192,41754,1,0
120,56,41934,6,0,B|304:56,1,180,0|2
384,192,42472,1,0
384,192,42652,2,0,B|176:192,1,180,0|2
120,328,43191,1,0
120,328,43371,2,0,B|328:328,1,180,0|2
384,192,43910,1,0
384,192,44089,2,0,B|200:192,1,180,0|2
256,192,44808,12,0,47643
400,80,48089,5,2
328,280,48486,1,0
248,80,48883,1,8
232,80,48983,1,0
216,80,49082,1,0
200,80,49181,1,0
184,80,49281,1,8
72,264,49678,6,0,B|112:168|216:160,1,180,0|8
192,264,50274,1,0
272,336,50473,2,0,B|416:312|472:168,1,270,8|0
320,64,51262,1,4
56,112,51610,6,2,B|101:95,3,45
120,148,51959,2,8,B|165:131,3,45
184,184,52308,2,0,B|229:167,3,45
248,220,52657,2,0,B|293:203,3,45
313,256,53006,2,0,B|358:239,3,45
377,293,53355,1,8
377,293,53442,1,8
377,293,53529,1,0
424,136,53703,1,2
144,80,54055,5,2
80,288,54452,1,0
296,248,54849,1,8
312,248,54949,1,0
328,248,55048,1,0
344,248,55147,1,0
360,248,55247,1,8
424,40,55644,5,0
320,24,55843,1,8
224,72,56041,2,0,B|152:72,2,60,8|8|0
272,128,56439,2,0,B|272:272|120:352,1,270,8|0
32,192,57225,1,4
256,192,57573,12,0,59666
120,96,60021,5,0
88,112,60113,1,0
72,144,60206,1,8
88,176,60298,1,0
120,192,60391,1,0
152,176,60483,1,0
168,144,60576,1,8
184,112,60669,1,0
216,96,60761,2,0,B|368:96,2,135,0|8|0
272,248,61502,5,0
288,280,61595,1,0
312,304,61687,1,8
344,312,61780,1,0
376,304,61872,1,0
400,280,61965,1,0
416,248,62058,1,8
416,216,62150,1,0
416,176,62243,2,0,B|408:96|488:56,2,135,0|8|0
280,88,62983,5,0
252,109,63076,1,0
223,130,63169,1,8
189,120,63261,1,0
153,102,63354,1,0
118,84,63446,1,0
82,68,63539,1,8
54,90,63632,1,0
29,116,63724,2,0,B|69:180|29:244,2,135,0|8|0
128,280,64465,5,0
144,280,64558,1,0
160,280,64650,1,8
176,280,64743,1,0
192,280,64835,1,0
400,280,65113,5,8
384,280,65206,1,0
368,280,65298,1,0
352,280,65391,1,8
336,280,65483,1,0
320,280,65576,1,0
256,88,65854,5,8
256,88,65940,1,4
256,192,66138,12,2,69124
256,280,74522,5,8
256,296,74612,1,8
256,312,74702,1,0
256,328,74792,1,0
256,344,74878,1,4
160,288,75057,6,0,B|128:240|80:232,1,90,0|2
40,136,75415,2,0,B|136:136,1,90
184,40,75773,2,0,B|192:88|248:112,1,90,0|2
328,40,76131,2,0,B|320:88|264:112,1,90
376,136,76489,2,0,B|480:136,1,90,0|2
416,232,76848,2,0,B|368:240|344:288,1,90
256,224,77206,2,0,B|256:120,2,90,0|2|0
200,64,77748,5,0
168,48,77832,1,0
136,40,77917,1,8
104,48,78002,1,0
72,64,78086,1,0
52,96,78171,1,0
44,128,78256,1,8
52,160,78341,1,0
72,192,78425,1,0
104,208,78510,1,0
136,216,78595,1,8
168,208,78680,1,0
200,192,78764,2,0,L|256:192,2,45,0|0|8
320,120,79112,5,0
424,160,79311,1,0
320,200,79510,1,8
424,240,79710,1,0
320,280,79909,1,8
424,320,80108,1,0
424,320,80308,1,2
424,80,80690,5,4
328,40,80869,2,0,B|232:40,1,90,0|2
184,136,81229,2,0,B|88:136,1,90
96,248,81589,2,0,B|200:248,1,90,0|2
240,344,81949,2,0,B|352:344,1,90
376,248,82309,2,0,B|480:248,1,90,0|2
464,136,82669,2,0,B|360:136,1,90
280,192,83029,2,0,B|176:192,2,90,0|2|0
376,248,83569,5,0
376,248,83749,1,0
416,88,83929,1,4
96,88,84289,5,0
96,88,84469,1,0
136,248,84649,1,4
336,336,85009,5,0
256,280,85189,1,0
256,280,85279,1,8
256,280,85369,2,0,B|240:232|192:224,1,90,8|0
256,136,85728,1,8
256,136,85818,1,8
256,136,85908,1,0
152,152,86088,2,0,B|104:120|112:64,1,90,8|0
256,32,86448,5,4
360,80,86627,2,0,B|456:80,1,90,0|2
440,192,86985,2,0,B|336:192,1,90
384,296,87343,2,0,B|336:304|312:344,1,90,0|2
200,344,87701,2,0,B|176:304|128:296,1,90
160,192,88059,2,0,B|56:192,1,90,0|2
56,88,88418,2,0,B|168:88,1,90
256,96,88776,2,0,B|256:208,1,90,0|2
304,280,89134,1,0
432,168,89313,5,0
408,144,89403,1,0
376,136,89492,1,8
344,144,89582,1,0
320,168,89671,1,0
288,184,89761,1,0
256,192,89850,1,8
224,184,89940,1,0
192,168,90030,1,0
168,144,90119,1,0
136,136,90209,1,8
104,144,90298,1,0
80,168,90388,2,0,B|32:168,2,45,0|0|8
200,320,90760,5,0
304,336,90958,2,0,B|312:288|360:264,1,90,8|8
312,176,91356,1,0
368,96,91554,2,0,B|464:96,1,90,8|0
458,96,91852,1,0
458,96,91940,1,2
104,192,92427,6,0,B|104:288,1,90,0|2
178,360,92786,1,2
178,360,92876,1,2
256,282,93055,1,2
256,282,93145,2,0,B|256:93,1,180,0|2
336,32,93684,1,0
416,104,93864,6,0,B|416:192,1,90,0|2
416,304,94223,1,2
416,304,94313,1,2
336,232,94492,1,2
336,232,94582,2,0,B|256:176|168:232,1,180,0|2
256,296,95121,1,0
256,296,95301,6,0,B|256:208,1,90,0|2
256,96,95660,2,2,B|256:144,1,45
176,56,95929,1,2
176,56,96019,2,0,B|216:8|296:8|336:56,1,180,0|2
96,80,96738,5,2
416,144,97097,1,2
96,208,97456,1,2
416,272,97816,1,2
96,336,98175,5,0
168,256,98355,2,0,B|264:256,2,90,8|0|8
80,192,98894,2,0,B|72:136|32:112,1,90,0|8
128,56,99253,2,0,B|136:104|176:128,1,90,0|8
256,48,99612,5,0
304,144,99792,2,0,B|320:96|392:80,1,90,8|0
368,86,100061,1,0
368,86,100151,1,8
408,184,100331,1,8
408,200,100421,1,0
408,216,100510,1,0
408,232,100600,1,0
408,248,100690,2,0,B|416:304|360:368|296:360,1,180,8|2
160,64,101768,5,0
352,64,102127,1,0
104,232,102479,5,2
408,232,102861,1,2
160,64,103243,1,2
256,336,103668,1,2
352,64,104094,1,2
256,192,104483,12,4,107066
256,192,107425,12,4,109940
144,48,111377,5,2
360,72,111736,1,2
144,96,112096,1,2
360,120,112455,1,2
144,144,112814,5,0
72,224,112994,2,0,B|120:248|120:296,1,90,0|8
216,344,113353,2,0,B|256:304|296:344,1,90
392,296,113712,2,0,B|392:248|448:216,2,90,0|8|0
352,192,114251,5,0
371,162,114341,1,0
369,126,114431,1,0
339,106,114521,1,0
304,108,114611,1,8
284,138,114700,1,8
286,174,114790,1,8
288,210,114880,1,8
268,240,114970,1,0
233,242,115060,1,0
203,222,115149,1,0
201,186,115239,1,0
220,156,115329,1,0
240,127,115419,1,0
238,91,115509,1,0
208,71,115599,1,0
172,73,115688,1,4
256,192,116113,12,2,118702
256,64,119662,5,4
256,320,120502,1,4
256,320,120622,1,4
