osu file format v9

[General]
AudioFilename: Etude 10-4.mp3
AudioLeadIn: 1000
PreviewTime: 1109
Countdown: 0
SampleSet: Soft
StackLeniency: 0.7
Mode: 0
LetterboxInBreaks: 1

[Editor]
DistanceSpacing: 1.2
BeatDivisor: 4
GridSize: 8

[Metadata]
Title:Etude Op. 10-4
Artist:Frederic Chopin
Creator:lepidopodus
Version:Hard
Source:Taiko no Tatsujin
Tags:Yuji Masubuchi Yuuji classic classical opus

[Difficulty]
HPDrainRate:5
CircleSize:4
OverallDifficulty:6
ApproachRate:7
SliderMultiplier:1.4
SliderTickRate:1

[Events]
//Background and Video events
0,0,"1289311309_piano_441058.png"
//Break Periods
2,69324,73622
//Storyboard Layer 0 (Background)
//Storyboard Layer 1 (Fail)
//Storyboard Layer 2 (Pass)
//Storyboard Layer 3 (Foreground)
//Storyboard Sound Samples
//Background Colour Transformations
3,100,163,162,255

[TimingPoints]
1468,358.208955223881,4,2,0,55,1,0
4343,338.983050847458,4,2,1,80,1,0
5707,398.671096345515,4,2,1,90,1,0
7275,359.928014397121,4,2,0,55,1,0
10064,-100,4,2,1,80,0,0
13038,358.208955223881,4,2,0,55,1,0
15913,338.983050847458,4,2,1,80,1,0
17277,398.671096345515,4,2,1,80,1,0
18455,480,4,2,1,90,1,0
18940,359.281437125748,4,2,0,40,1,0
20287,-100,4,2,0,55,0,0
21724,-100,4,2,0,70,0,0
23251,-100,4,2,1,80,0,1
45526,397.350993377483,4,2,1,80,1,0
46320,441.176470588235,4,2,1,80,1,0
48089,397.350993377483,4,2,1,80,1,0
51262,348.837209302326,4,2,1,80,1,0
54055,397.350993377483,4,2,1,80,1,0
57225,348.837209302326,4,2,1,80,1,0
60021,370.37037037037,4,2,1,80,1,1
65940,397.350993377483,4,2,1,80,1,0
69124,359.281437125748,4,2,1,80,1,0
73445,359.281437125748,4,2,1,80,1,0
74878,358.208955223881,4,2,0,55,1,0
77748,338.983050847458,4,2,1,80,1,0
79112,398.671096345515,4,2,1,80,1,0
80690,359.928014397121,4,2,0,55,1,0
83479,-100,4,2,1,80,0,0
86448,358.208955223881,4,2,0,55,1,0
89224,-100,4,2,1,80,0,0
90760,397.350993377483,4,2,1,80,1,0
91940,480,4,2,1,80,1,0
92427,359.281437125748,4,2,0,40,1,0
93774,-100,4,2,0,55,0,0
95211,-100,4,2,0,70,0,0
96648,-100,4,2,0,80,0,0
97726,-100,4,2,1,80,0,0
102479,382.165605095541,4,2,1,80,1,0
103243,425.531914893617,4,2,1,80,1,0
104094,382.165605095541,4,2,1,80,1,0
104483,382.165605095541,4,2,1,80,1,0
105629,359.281437125748,4,2,1,80,1,0
111287,-100,4,2,0,80,0,0
112724,-100,4,2,1,80,0,0
115688,425.531914893617,4,2,1,80,1,0
116539,359.281437125748,4,2,1,80,1,0
117257,361.44578313253,4,2,1,80,1,0
118702,480,4,2,1,80,1,0
120382,-100,4,2,1,50,0,0
120562,-100,4,2,1,80,0,0

[Colours]
Combo1 : 170,85,0
Combo2 : 0,117,117
Combo3 : 0,106,213
Combo4 : 170,0,0

[HitObjects]
256,320,1467,1,4
96,272,1826,2,0,B|128:192|64:144,1,140,2|0
192,32,2542,2,0,B|256:72|328:32,1,140,2|0
448,144,3259,2,0,B|384:192|400:272,2,140,2|0|2
192,56,4343,6,0,B|200:96|168:120,1,70,0|8
256,128,4681,2,0,B|249:168|211:179,1,70,0|8
288,216,5020,2,0,B|268:251|228:249,1,70,0|8
288,312,5359,2,0,B|257:338|220:323,1,70,0|8
160,280,5707,5,0
104,216,5906,1,0
72,136,6105,2,0,B|80:96|120:80,2,70,8|0|8
152,152,6703,1,0
224,112,6903,1,2
408,320,7275,5,4
464,160,7634,2,0,B|477:118|457:87|425:68|384:80,1,140,2|0
372,251,8354,2,0,B|330:264|299:244|280:212|292:171,1,140,2|0
140,251,9074,2,0,B|182:264|213:244|232:212|220:171,2,140,2|0|2
256,40,10154,5,0
432,224,10514,1,4
256,40,10874,1,0
80,224,11234,1,4
312,312,11594,6,0,B|408:256|432:136|328:16|192:64,1,420,8|0
104,296,13038,5,4
272,296,13396,2,0,B|416:296,1,140,2|0
328,144,14112,2,0,B|184:144,1,140,2|0
240,296,14829,2,0,B|88:296,2,140,2|0|2
64,96,15913,6,0,B|120:39,1,70,0|8
131,130,16251,2,0,B|193:67,1,70,0|8
199,164,16590,2,0,B|255:107,1,70,0|8
267,198,16929,2,0,B|317:147,1,70,0|8
384,176,17277,5,0
424,248,17476,1,8
464,320,17675,2,0,B|432:336|392:336,1,70,8|0
344,272,18074,2,0,B|312:296|312:336,2,70,8|0|2
256,64,18940,6,0,B|96:64,3,140
256,160,20377,2,0,B|416:160,3,140
256,256,21814,2,0,B|88:256,3,140
320,120,23251,6,8,B|360:120,2,35,8|8|0
192,120,23610,2,8,B|152:120,2,35,8|8|0
256,8,23969,1,0
256,256,24329,1,4
416,72,24688,5,0
376,144,24868,1,8
456,176,25047,2,0,B|448:216|400:224,1,70,0|8
336,264,25407,1,0
312,344,25586,1,8
240,296,25766,2,0,B|168:296,1,70,0|8
88,264,26125,2,0,B|16:168|56:48|168:-8|296:48,1,420
416,264,27562,5,8
256,312,27922,1,0
96,264,28281,1,0
256,312,28640,1,0
176,168,28999,1,8
256,312,29359,1,0
336,168,29718,1,0
256,24,30077,1,4
64,192,30437,5,0
136,232,30616,1,8
178,304,30796,2,0,B|218:288|218:248,1,70,0|8
271,186,31155,1,0
343,228,31335,1,8
392,160,31514,2,0,B|464:160,1,70,0|8
440,240,31874,2,0,B|320:312|192:256|160:144|216:40,1,420
448,128,33311,5,2
256,288,33670,1,2
64,128,34029,1,2
256,288,34389,1,2
256,40,34748,2,0,B|256:200,3,140,2|2|2|2
56,336,36185,6,0,B|136:336,1,70
88,264,36544,2,0,B|160:264,1,70,8|0
120,192,36904,2,0,B|192:192,1,70
304,136,37263,1,4
456,336,37622,6,0,B|376:336,1,70,0|0
424,264,37981,2,0,B|344:264,1,70,8|0
392,192,38341,2,0,B|312:192,1,70
208,136,38700,1,4
448,56,39059,5,0
368,40,39239,2,0,B|360:88|392:112,2,70,0|8|0
296,88,39778,1,0
224,40,39957,2,0,B|232:88|200:112,2,70,0|8|0
144,64,40496,2,0,B|120:96|128:136,1,70
200,168,40856,2,0,B|208:216|184:248,1,70,8|0
112,248,41215,2,0,B|88:280|104:328,3,70,0|0|8|0
224,344,41934,6,0,B|360:304,1,140,0|2
104,160,42652,2,0,B|144:296,1,140,0|2
288,40,43371,2,0,B|152:80,1,140,0|2
408,224,44089,2,0,B|368:88,1,140,0|2
256,192,44808,12,2,48089
216,64,48486,5,0
104,192,48883,2,0,B|176:232|160:320,1,140,8|0
328,336,49678,2,0,B|352:256|440:240,1,140,0|8
328,104,50473,2,0,B|248:32|144:32|80:120,1,280,8|2
248,304,51610,6,0,B|376:368|504:280|488:120|378:60,2,420,8|0|0
56,192,54055,5,2
136,40,54452,1,0
280,128,54849,2,0,B|208:176|224:264,1,140,8|0
360,336,55644,1,0
416,272,55843,1,8
408,192,56041,2,0,B|456:208,2,46.6666666666667,8|8|0
408,192,56439,2,0,B|400:88|296:32|200:72,1,280,8|4
256,192,57573,12,0,59666
104,64,60021,6,0,B|56:104|72:176,1,105,8|0
144,264,60576,1,0
144,264,60669,1,0
144,264,60761,2,0,B|192:224|176:160,2,105,0|8|0
256,328,61502,6,0,B|272:264|336:232,1,105,8|0
256,128,62058,1,0
256,128,62150,1,0
256,128,62243,2,0,B|240:192|176:224,2,105,0|8|0
360,56,62983,6,0,B|392:104|456:112,1,105,8|0
448,240,63539,1,0
448,240,63632,1,0
448,240,63724,2,0,B|392:248|360:296,2,105,0|8|0
320,224,64465,6,0,B|320:104,2,105,0|8|0
192,224,65206,2,0,B|192:104,2,105,0|8|0
256,128,65940,1,4
256,192,66138,12,2,69124
376,96,74522,6,0,B|328:40|304:152|256:96,1,140,8|4
96,152,75236,2,0,B|96:304,1,140,2|0
256,248,75952,2,0,B|256:80,1,140,2|0
416,152,76669,2,0,B|416:304,2,140,2|0|2
208,320,77748,6,0,B|216:280|184:256,1,70,0|8
272,248,78086,2,0,B|265:208|227:197,1,70,0|8
304,160,78425,2,0,B|284:125|244:127,1,70,0|8
304,64,78764,2,0,B|273:38|236:53,1,70,0|8
176,96,79112,5,0
104,56,79311,2,0,B|96:96|56:112,1,70,0|8
112,176,79710,1,0
48,232,79909,2,0,B|72:264|112:264,2,70,8|0|2
304,344,80690,5,4
432,232,81049,2,0,B|376:192|360:112,1,140,2|0
200,168,81769,2,0,B|192:96|128:48,1,140,2|0
72,208,82489,2,0,B|96:280|176:304,2,140,2|0|2
256,40,83569,5,0
432,216,83929,1,4
256,40,84289,1,0
80,216,84649,1,4
304,304,85009,6,0,B|200:336|88:280|72:120|192:48,1,420,0|8
448,88,86448,5,4
280,56,86806,2,0,B|208:96|136:96,1,140,2|0
256,224,87522,2,0,B|328:176|400:176,1,140,2|0
320,328,88239,2,0,B|256:360|184:328,2,140,2|0|2
432,104,89313,6,0,B|376:47,1,70,0|8
365,138,89671,2,0,B|303:75,1,70,0|8
297,172,90030,2,0,B|241:115,1,70,0|8
229,206,90388,2,0,B|179:155,1,70,0|8
128,96,90760,5,8
56,144,90958,1,0
80,224,91157,2,0,B|96:272|56:304,2,70,0|8|8
160,256,91753,2,0,B|168:296|224:320,1,70,0|2
280,96,92427,6,0,B|144:64,3,140
256,192,93864,2,0,B|400:224,3,140
232,288,95301,2,0,B|96:256,3,140
256,56,96738,5,2
416,192,97097,1,2
256,328,97456,1,2
96,192,97816,1,2
328,96,98175,5,0
408,64,98355,1,8
464,128,98534,2,0,B|424:144|416:192,1,70,0|8
464,248,98894,1,0
408,312,99073,1,8
328,280,99253,2,0,B|312:240|264:232,1,70,0|8
256,152,99612,6,0,B|208:144|192:112,1,70,0|8
200,32,99971,2,0,B|152:24|128:64,1,70,0|8
64,96,100331,2,0,B|80:136|136:136,2,70,0|0|8
160,328,101049,5,2
344,64,101768,1,0
344,64,102127,1,0
168,64,102479,5,2
256,320,102861,1,2
344,64,103243,1,2
112,224,103668,1,2
400,224,104094,1,2
256,192,104483,12,4,107066
256,192,107425,12,4,109940
128,264,111377,6,0,B|208:264|256:312,3,140,2|2|2|2
255,311,112814,5,0
376,192,113173,1,0
256,72,113533,1,0
136,192,113892,1,0
256,312,114251,6,0,B|216:296|208:256,1,70
288,240,114611,2,0,B|280:200|224:176,1,70,8|0
160,192,114970,2,0,B|128:136|144:72|216:40|272:64,1,210,0|0
328,80,115688,1,4
256,192,116113,12,2,118702
256,64,119662,5,4
256,320,120502,1,4
256,320,120622,1,4
