osu file format v5

[General]
AudioFilename: Frauenarzt und Manny Marc mit Alexander Marcus - Florida Lady.mp3
AudioLeadIn: 0
PreviewTime: -1
Countdown: 1
SampleSet: Soft
StackLeniency: 0.7
Mode: 0
LetterboxInBreaks: 1
EditorDistanceSpacing: 0.800000011920929

[Metadata]
Title:Florida Lady
Artist:Frauenarzt & Manny Marc mit Alexander Marcus
Creator:FrozenPower
Version:non-stop-action
Source:
Tags:

[Difficulty]
HPDrainRate:5
CircleSize:5
OverallDifficulty:5
SliderMultiplier:1.4
SliderTickRate:1

[Events]
//Background and Video events
0,0,"13653256-atzenmusik.jpg"
//Break Periods
//Storyboard Layer 0 (Background)
//Storyboard Layer 1 (Failing)
//Storyboard Layer 2 (Passing)
//Storyboard Layer 3 (Foreground)
//Storyboard Sound Samples
//Background Colour Transformations
3,100,0,0,0

[TimingPoints]
8338.4338952226,480,4,2,0,60,1,0
22902,-100,4,1,0,100,0,0
46498,-100,4,2,0,60,0,0
49138,-100,4,1,0,71,0,0
49258,-100,4,2,0,100,0,0
50098,-100,4,1,0,70,0,0
50218,-100,4,2,0,100,0,0
51058,-100,4,1,0,70,0,0
51178,-100,4,2,0,100,0,0
52018,-100,4,1,0,71,0,0
52138,-100,4,2,0,100,0,0
52978,-100,4,1,0,70,0,0
53098,-100,4,2,0,100,0,0
54898,-100,4,1,0,70,0,0
55018,-100,4,2,0,100,0,0
55858,-100,4,1,0,70,0,0
55978,-100,4,2,0,100,0,0
56818,-100,4,1,0,70,0,0
56938,-100,4,2,0,100,0,0
57778,-100,4,1,0,70,0,0
57898,-100,4,2,0,100,0,0
58738,-100,4,1,0,70,0,0
58858,-100,4,2,0,100,0,0
59698,-100,4,1,0,70,0,0
59818,-100,4,2,0,100,0,0
61378,-100,4,1,0,70,0,0
61738,-100,4,2,0,100,0,0
62578,-100,4,1,0,70,0,0
62698,-100,4,2,0,100,0,0
63538,-100,4,1,0,70,0,0
63658,-100,4,2,0,100,0,0
64498,-100,4,1,0,70,0,0
64618,-100,4,2,0,100,0,0
65458,-100,4,1,0,70,0,0
65578,-100,4,2,0,100,0,0
66418,-100,4,1,0,70,0,0
66538,-100,4,2,0,100,0,0
67378,-100,4,1,0,70,0,0
67498,-100,4,2,0,100,0,0
68338,-100,4,1,0,70,0,0
68458,-100,4,2,0,100,0,0
69298,-100,4,1,0,69,0,0
69418,-100,4,2,0,100,0,0
70258,-100,4,1,0,70,0,0
70378,-100,4,2,0,100,0,0
71218,-100,4,1,0,71,0,0
71338,-100,4,2,0,100,0,0
72178,-100,4,1,0,68,0,0
72298,-100,4,2,0,100,0,0
73138,-100,4,1,0,70,0,0
73258,-100,4,2,0,100,0,0
74098,-100,4,1,0,70,0,0
74218,-100,4,2,0,100,0,0
75058,-100,4,1,0,69,0,0
75178,-100,4,2,0,100,0,0
76618,-100,4,1,0,60,0,0
77098,-100,4,1,0,30,0,0
77578,-100,4,1,0,62,0,0
77875,-100,4,1,0,76,0,0
78355,-100,4,1,0,92,0,0
78715,-100,4,1,0,100,0,0

[Colours]
Combo1 : 255,226,28
Combo2 : 128,236,255
Combo3 : 213,52,231

[HitObjects]
264,184,8338,2,0,B|344:184,1,70
392,184,8818,2,0,B|392:96,3,70
336,112,9778,2,0,B|232:112,1,70
208,112,10258,5,0
208,112,10498,1,0
152,112,10738,2,0,B|64:112,3,70
88,168,11698,2,0,B|88:248,1,70
144,232,12178,5,0
144,232,12418,1,0
184,192,12658,1,0
184,192,12898,1,0
224,232,13138,2,0,B|304:232,3,70
352,232,14098,2,0,B|432:168,1,70
408,128,14578,6,0,B|344:80,1,70
296,104,15058,1,0
296,104,15298,1,0
304,160,15538,1,0
304,160,15778,1,0
248,168,16018,5,0
248,168,16258,1,0
232,224,16498,1,0
232,224,16738,1,0
176,224,16978,2,0,B|128:168,1,70
128,112,17458,1,0
128,112,17698,1,0
184,112,17938,1,0
184,112,18178,5,0
240,112,18418,2,0,B|352:168,1,70
352,168,18898,1,0
352,168,19138,1,0
312,208,19378,1,0
312,208,19618,1,0
312,264,19858,2,0,B|216:264,1,70
184,264,20338,2,0,B|88:192,1,70
128,168,20818,1,0
128,168,21058,1,0
144,112,21298,1,0
144,112,21538,2,0,B|248:40|408:104|416:168|296:240|280:216,1,350
264,184,22978,5,0
264,184,23098,1,0
400,192,23698,5,0
400,136,23938,1,0
368,88,24178,1,8
320,64,24418,1,0
272,88,24658,1,0
232,48,24898,1,0
208,96,25138,6,0,B|168:160,1,70,8|0
136,200,25618,1,0
184,224,25858,1,0
232,248,26098,1,8
232,248,26218,1,0
232,248,26338,1,0
288,256,26578,1,0
344,248,26818,1,0
344,248,26938,1,0
384,208,27178,5,0
384,208,27298,1,0
416,160,27538,2,0,B|424:88,1,70
368,80,28018,2,0,B|272:80,1,70,8|0
240,88,28498,5,0
184,104,28738,1,0
136,128,28978,1,8
176,168,29218,1,0
120,184,29458,1,0
120,184,29578,1,0
160,224,29818,1,0
160,224,29938,1,8
208,240,30178,5,0
208,240,30298,1,0
208,240,30418,1,0
264,248,30658,2,0,B|328:208,1,70,0|8
272,184,31138,1,0
320,160,31378,1,0
360,192,31618,1,0
408,160,31858,5,8
368,120,32098,1,0
312,120,32338,2,0,B|240:120,3,70,0|0|8|0
184,112,33298,5,0
128,128,33538,1,0
104,176,33778,5,8
160,176,34018,1,0
136,224,34258,1,0
192,224,34498,2,0,B|280:224,1,70,0|8
320,224,34978,5,0
360,184,35218,1,0
360,184,35338,1,0
360,184,35458,1,0
392,136,35698,1,8
376,80,35938,1,0
320,64,36178,1,0
272,96,36418,1,0
240,144,36658,5,8
208,96,36898,1,0
176,144,37138,1,0
144,96,37378,1,0
144,96,37498,1,0
144,96,37618,1,8
136,152,37858,6,0,B|136:232,1,70
176,256,38338,1,0
208,208,38578,1,8
232,256,38818,1,0
264,208,39058,1,0
288,256,39298,2,0,B|352:200,1,70,0|8
368,168,39778,5,0
344,112,40018,1,0
344,112,40138,1,0
344,112,40258,1,0
312,160,40498,1,8
280,112,40738,2,0,B|192:112,1,70
152,112,41218,2,0,B|152:224,1,70,0|8
216,192,41698,5,0
216,192,41818,1,0
216,192,41938,1,0
272,192,42178,2,0,B|352:192,1,70,0|8
400,192,42658,1,0
456,176,42898,1,0
416,136,43138,1,0
472,120,43378,5,8
432,80,43618,1,0
432,80,43738,1,0
376,88,43978,1,0
376,88,44098,1,0
328,120,44338,1,8
272,136,44578,1,0
272,136,44698,1,0
272,136,44818,1,0
216,144,45058,2,0,B|128:144,1,70,0|8
128,200,45538,5,0
128,256,45778,1,0
128,256,45898,1,0
128,256,46018,1,0
128,256,46138,1,0
128,256,46258,1,0
128,256,46378,1,0
128,256,46498,1,4
184,256,46738,2,0,B|272:248|344:192|224:120|200:120|192:184|200:232|208:288|264:304|288:296|312:280|352:256|400:216|408:168|400:144|376:128,1,490
336,104,48658,5,0
280,80,48898,1,0
224,80,49138,1,0
176,104,49378,1,0
160,160,49618,2,0,B|152:256,2,70,0|0|0
216,160,50338,5,0
272,144,50578,1,0
272,144,50698,1,0
272,144,50818,1,0
328,144,51058,1,0
384,152,51298,2,0,B|368:208|344:216,2,70
400,96,52018,5,0
352,64,52258,1,0
352,64,52378,1,0
296,88,52618,1,0
296,88,52738,1,0
240,80,52978,1,0
184,80,53218,5,0
160,96,53338,1,0
144,120,53458,1,0
136,144,53578,1,0
136,168,53698,1,0
144,192,53818,1,0
160,208,53938,1,4
216,208,54178,5,0
264,184,54418,2,0,B|336:152,3,70,0|0|0|0
376,128,55378,1,0
424,168,55618,2,0,B|424:264,1,70,0|0
384,280,56098,5,0
336,248,56338,1,0
288,280,56578,1,0
240,248,56818,1,0
240,248,56938,1,0
240,248,57058,1,0
192,280,57298,1,0
144,248,57538,1,0
184,216,57778,1,0
136,184,58018,5,0
136,184,58138,1,0
136,184,58258,1,0
176,144,58498,1,0
176,144,58618,1,0
176,144,58738,1,0
232,144,58978,2,0,B|304:144,1,70
304,200,59458,2,0,B|384:200,1,70,0|0
368,144,59938,5,4
424,144,60178,2,4,B|136:144,1,280
200,144,61378,5,0
200,144,61498,1,0
200,144,61618,1,0
232,96,61858,5,0
288,96,62098,1,0
344,96,62338,2,0,B|440:96,1,70
416,152,62818,1,0
416,152,62938,1,0
416,152,63058,1,0
384,200,63298,5,0
352,152,63538,2,0,B|272:152,1,70
224,152,64018,1,0
224,208,64258,2,0,B|352:208,2,70
168,208,64978,5,0
168,152,65218,1,0
168,152,65338,1,0
168,152,65458,1,0
216,120,65698,2,0,B|296:88,1,70
296,152,66178,1,0
352,152,66418,5,0
352,152,66538,1,0
352,152,66658,1,0
352,152,66778,1,0
352,152,66898,1,0
352,152,67018,1,0
352,152,67138,1,0
352,152,67258,1,0
352,152,67378,1,4
304,120,67618,5,0
344,88,67858,1,0
344,88,67978,1,0
392,112,68218,1,0
392,112,68338,1,0
440,88,68578,1,0
440,88,68698,1,0
440,88,68818,5,0
440,144,69058,1,0
440,144,69178,1,0
440,144,69298,1,0
440,200,69538,1,0
384,200,69778,2,0,B|312:200,1,70
264,200,70258,1,0
312,168,70498,1,0
264,136,70738,1,0
208,136,70978,5,0
208,136,71098,1,0
208,136,71218,1,0
152,136,71458,1,0
152,192,71698,2,0,B|152:288,1,70
208,264,72178,1,0
232,216,72418,5,0
232,216,72538,1,0
232,216,72658,1,0
264,264,72898,2,0,B|352:264,1,70
376,224,73378,1,0
376,224,73498,1,0
376,224,73618,1,0
328,192,73858,1,0
376,168,74098,1,0
328,136,74338,5,0
328,136,74458,1,0
376,112,74698,1,0
376,112,74818,1,0
328,88,75058,1,0
272,88,75298,1,0
272,88,75418,1,0
272,88,75538,2,0,B|272:376,1,280,4|4
216,368,76738,5,0
192,344,76858,1,0
176,320,76978,1,0
176,288,77098,1,0
192,264,77218,1,0
208,240,77338,1,0
232,232,77458,2,0,B|328:232,1,70,4|0
344,232,77938,5,0
400,232,78178,1,0
400,232,78298,1,0
400,232,78418,1,0
400,176,78658,2,0,B|400:80,1,70,0|8
344,104,79138,1,0
288,104,79378,2,0,B|216:104,2,70,0|0|8
288,160,80098,6,0,B|288:248,2,70
288,104,80818,1,8
256,56,81058,1,0
256,56,81178,1,0
256,56,81298,1,0
224,104,81538,1,0
168,104,81778,2,0,B|168:200,1,70,8|0
224,176,82258,5,0
248,128,82498,1,0
248,128,82618,1,0
280,176,82858,1,0
280,176,82978,1,0
336,176,83218,1,0
384,192,83458,5,0
400,216,83578,1,0
400,240,83698,1,8
384,264,83818,1,0
360,280,83938,1,0
336,288,84058,1,0
312,296,84178,1,0
256,296,84418,2,0,B|176:296,1,70,0|8
136,272,84898,1,0
184,240,85138,1,0
136,216,85378,1,0
136,216,85498,1,0
136,216,85618,1,8
184,184,85858,1,0
240,200,86098,1,0
296,200,86338,6,0,B|384:200,1,70,0|8
416,200,86818,5,0
368,168,87058,1,0
368,168,87178,1,0
368,168,87298,1,0
368,168,87418,1,0
368,168,87538,1,8
416,144,87778,1,0
368,112,88018,1,0
320,144,88258,1,0
320,144,88498,6,0,B|216:144,1,70,8|0
192,144,88978,1,0
192,144,89098,1,0
192,144,89218,1,0
152,184,89458,1,8
208,184,89698,1,0
176,232,89938,2,0,B|248:232,1,70
304,232,90418,5,8
360,232,90658,1,0
360,232,90778,1,0
360,232,90898,1,0
416,232,91138,2,0,B|416:152,1,70,0|8
360,160,91618,5,0
312,192,91858,1,0
312,192,91978,1,0
312,136,92218,1,8
312,136,92338,1,0
264,160,92578,5,0
264,160,92698,1,0
264,160,92818,1,0
208,160,93058,1,0
176,112,93298,1,8
152,160,93538,6,0,B|64:160,2,70
176,208,94258,1,8
232,208,94498,6,0,B|312:208,1,70
360,208,94978,1,0
336,160,95218,1,8
392,144,95458,5,0
344,112,95698,1,0
344,112,95818,1,0
344,112,95938,1,0
288,112,96178,1,8
248,152,96418,1,0
208,112,96658,1,0
168,152,96898,1,0
168,152,97018,1,0
168,152,97138,1,0
208,192,97378,1,0
208,192,97498,1,0
208,192,97618,1,8
264,192,97858,6,0,B|360:192,1,70,0|0
