osu file format v9

[General]
AudioFilename: hm2.mp3
AudioLeadIn: 0
PreviewTime: 27000
Countdown: 0
SampleSet: Soft
StackLeniency: 0.7
Mode: 0
LetterboxInBreaks: 0

[Editor]
Bookmarks: 93620
DistanceSpacing: 1.1
BeatDivisor: 2
GridSize: 4

[Metadata]
Title:Hell March 2
Artist:Frank Klepacki
Creator:zsr123
Version:Easy
Source:Command & Conquer: Red Alert 2
Tags:westwood shiki bakahuang tenshi-nyan ozzyozrock

[Difficulty]
HPDrainRate:3
CircleSize:3
OverallDifficulty:3
ApproachRate:2
SliderMultiplier:1.59999990463257
SliderTickRate:1

[Events]
//Background and Video events
0,0,"BG.jpg"
//Break Periods
2,84820,92360
2,99220,101660
//Storyboard Layer 0 (Background)
//Storyboard Layer 1 (Fail)
//Storyboard Layer 2 (Pass)
//Storyboard Layer 3 (Foreground)
//Storyboard Sound Samples
//Background Colour Transformations
3,100,163,162,255

[TimingPoints]
620,600,4,2,0,50,1,0
14120,-100,4,2,0,30,0,0
14720,-100,4,2,0,50,0,0
16520,-100,4,2,0,35,0,0
17120,-100,4,2,0,50,0,0
27020,-100,4,2,1,80,0,0
93920,-100,4,2,1,50,0,0
94220,-100,4,2,1,60,0,0
94820,-100,4,2,1,80,0,0
96320,-100,4,2,1,50,0,0
96620,-100,4,2,1,80,0,0
98720,-100,4,2,1,50,0,0
99020,-100,4,2,1,80,0,0
103820,-100,4,2,1,80,0,1
123020,-100,4,2,1,50,0,0

[Colours]
Combo1 : 216,201,156
Combo2 : 233,48,1
Combo3 : 9,193,124
Combo4 : 236,224,74

[HitObjects]
96,40,7820,2,0,B|72:120|96:208,1,159.999990463257
272,200,9020,2,0,B|296:280|272:360,1,159.999990463257
448,352,10220,2,0,B|472:272|452:184,1,159.999990463257
376,40,11420,2,0,B|328:112|376:192,1,159.999990463257
200,192,12620,5,0
376,192,13220,1,0
200,192,13820,2,0,B|128:184|120:200|40:192,1,159.999990463257,0|4
104,32,15020,1,0
264,112,15620,1,0
400,216,16220,2,0,B|472:272|496:352,1,159.999990463257,0|4
320,312,17420,6,0,B|240:328|152:312,1,159.999990463257
120,240,18320,1,0
184,176,18620,1,2
160,96,18920,2,0,B|208:40|272:40,1,79.9999952316285,0|4
352,176,19820,5,0
416,240,20120,1,0
368,312,20420,2,0,B|312:304|256:224,1,79.9999952316285,2|0
232,216,21020,2,0,B|192:128|224:40,1,159.999990463257,2|4
256,192,22220,12,0,25820
224,144,27020,5,0
112,288,27620,1,8
288,288,28220,1,0
400,144,28820,1,8
332,92,29120,1,2
252,56,29420,2,0,B|76:56,1,159.999990463257,2|8
64,228,30620,2,0,B|240:228,1,159.999990463257,0|8
284,292,31520,1,2
368,320,31820,5,2
448,160,32420,1,8
272,192,33020,1,0
352,32,33620,1,8
264,32,33920,1,2
176,32,34220,2,0,B|80:32|32:128,1,159.999990463257,2|8
192,192,35420,2,0,B|192:288|288:336,1,159.999990463257,0|8
184,360,36320,1,2
96,336,36620,5,4
96,160,37220,1,8
224,48,37820,1,0
368,160,38420,1,8
292,204,38720,1,2
232,268,39020,2,8,B|312:300|392:268,1,159.999990463257,2|8
448,112,40220,2,0,B|368:96|288:112,1,159.999990463257,0|8
204,92,41120,1,2
128,48,41420,5,2
32,192,42020,1,8
128,336,42620,1,0
224,192,43220,1,8
400,192,43820,2,8,B|416:112|400:32,1,159.999990463257,0|8
224,32,45020,2,0,B|208:112|224:192,1,159.999990463257,0|8
48,192,46220,5,4
84,272,46520,1,2
160,320,46820,1,8
336,320,47420,1,0
408,272,47720,1,0
452,192,48020,1,8
276,192,48620,2,0,B|196:176|116:192,1,159.999990463257,0|8
276,192,49820,2,0,B|292:112|276:16,1,159.999990463257,0|8
276,192,51020,6,0,B|356:208|436:192,1,159.999990463257,0|8
276,192,52220,2,0,B|260:272|276:352,1,159.999990463257,0|8
188,336,53120,1,2
128,272,53420,1,0
128,184,53720,1,2
128,96,54020,1,8
272,192,54620,1,0
360,192,54920,1,2
448,192,55220,1,8
272,192,55820,6,4,B|192:224|192:160|112:192,1,159.999990463257,4|8
136,276,56720,1,2
212,320,57020,1,2
248,148,57620,1,8
384,256,58220,2,8,B|304:304|224:256,1,159.999990463257,0|8
188,184,59120,1,2
96,160,59420,1,2
96,336,60020,1,8
272,336,60620,6,0,B|352:352|432:336,1,159.999990463257,0|8
472,256,61520,1,2
480,168,61820,1,2
304,172,62420,1,8
176,48,63020,2,0,B|96:32|16:48,1,159.999990463257,0|8
56,128,63920,1,2
124,184,64220,1,2
300,184,64820,1,8
448,80,65420,5,4
448,256,66020,2,0,B|448:352|336:352,1,159.999990463257,8|0
260,324,66920,1,2
176,352,67220,1,8
176,176,67820,2,0,B|192:96|176:16,1,159.999990463257,0|8
336,96,69020,1,0
264,44,69320,1,2
176,16,69620,2,0,B|160:96|176:192,1,159.999990463257,8|0
176,352,70820,5,8
352,352,71420,2,0,B|464:352|464:224,1,159.999990463257,0|8
464,80,72620,1,0
304,32,73220,2,0,B|224:16|144:32,1,159.999990463257,8|0
108,112,74120,1,0
32,160,74420,1,8
60,244,74720,1,2
32,336,75020,6,0,B|144:336|144:224,1,159.999990463257,2|8
128,64,76220,1,0
188,128,76520,1,2
224,208,76820,2,0,B|304:256|384:208,1,159.999990463257,8|0
464,64,78020,1,8
424,144,78320,1,2
384,224,78620,2,0,B|304:176|224:224,1,159.999990463257,2|8
64,240,79820,5,0
96,64,80420,2,0,B|112:144|256:208,1,159.999990463257,8|0
264,240,81320,1,2
352,272,81620,1,8
480,144,82220,1,0
396,168,82520,1,2
312,144,82820,1,10
336,228,83120,2,0,B|304:320|160:336,1,159.999990463257,2|2
160,260,84020,1,8
140,84,84620,5,4
144,160,93920,6,8,B|208:160,2,39.9999976158142,8|8|12
320,160,94820,1,8
496,160,95420,1,0
320,160,96020,1,8
224,160,96320,2,8,B|160:160,2,39.9999976158142
80,256,97220,5,8
240,320,97820,1,0
400,256,98420,1,8
336,192,98720,2,8,B|288:144,2,39.9999976158142,8|8|12
176,128,103220,5,2
256,128,103520,1,2
336,128,103820,1,4
336,304,104420,2,0,B|256:320|176:304,1,159.999990463257,8|0
160,216,105320,1,2
176,128,105620,2,0,B|256:112|336:124,1,159.999990463257,8|0
184,216,106820,5,8
352,240,107420,1,0
280,292,107720,1,2
192,304,108020,1,8
368,336,108620,2,0,B|448:288|432:192,1,159.999990463257,0|8
432,32,109820,1,0
352,68,110120,1,2
272,36,110420,1,8
96,36,111020,6,0,B|80:116|96:196,1,159.999990463257,0|8
272,192,112220,1,0
360,208,112520,1,2
448,192,112820,2,0,B|464:272|448:352,1,159.999990463257,8|4
364,324,113720,1,2
280,352,114020,1,8
256,176,114620,2,0,B|336:192|416:176,1,159.999990463257,0|8
400,88,115520,1,2
316,108,115820,5,0
332,20,116120,1,2
252,56,116420,2,0,B|156:56|92:136,1,159.999990463257,8|0
44,176,117320,1,2
36,264,117620,1,8
176,368,118220,2,0,B|256:352|336:368,1,159.999990463257,0|8
368,284,119120,1,2
452,256,119420,1,0
392,192,119720,5,2
304,192,120020,2,0,B|208:208|144:112,1,159.999990463257,8|0
236,88,120920,1,2
324,72,121220,1,8
416,192,121820,1,0
336,232,122120,1,2
256,192,122420,2,0,B|176:176|96:192,1,159.999990463257,8|4
