osu file format v5

[General]
AudioFilename: Red Alert - Face the Enemy 1.mp3
AudioLeadIn: 0
PreviewTime: -1
Countdown: 2
SampleSet: Normal
StackLeniency: 0.6
Mode: 0
LetterboxInBreaks: 1
EditorBookmarks: 13627,53627,106127,129460,146960,156960,196960

[Metadata]
Title:Face The Enemy 1
Artist:Frank Klepacki
Creator:MetalMario201
Version:Easy
Source:Red Alert
Tags:

[Difficulty]
HPDrainRate:2
CircleSize:5
OverallDifficulty:3
SliderMultiplier:0.5
SliderTickRate:1

[Events]
//Background and Video events
0,0,"tank1.jpg"
//Break Periods
2,40043,52394
2,94610,104877
//Storyboard Layer 0 (Background)
//Storyboard Layer 1 (Failing)
//Storyboard Layer 2 (Passing)
//Storyboard Layer 3 (Foreground)
//Storyboard Sound Samples
//Background Colour Transformations
3,100,163,162,255
3,100,163,162,255
3,100,163,162,255
3,100,163,162,255
3,100,163,162,255
3,100,163,162,255
3,100,163,162,255

[TimingPoints]
294,416.666666666667,4,1,0,100,1

[Colours]
Combo1 : 230,202,113
Combo2 : 178,210,125
Combo3 : 68,149,230
Combo4 : 174,93,68

[HitObjects]
224,88,13627,1,4
152,192,14460,1,0
224,296,15294,1,0
288,296,15710,1,0
288,88,16960,5,4
360,192,17793,1,0
288,296,18627,1,0
224,296,19043,1,0
136,112,20294,5,4
256,112,21127,1,0
376,112,21960,1,0
440,112,22377,1,0
376,272,23627,5,4
256,272,24460,1,0
136,272,25293,1,4
72,272,25710,1,0
72,176,26335,1,2
72,176,26544,1,2
128,144,26960,6,4,B|232:144,2,100
128,208,29044,1,0
224,208,29669,1,2
224,208,29877,1,2
288,208,30294,6,4,B|392:208,2,100
288,144,32378,1,0
384,144,33003,1,2
384,144,33211,1,2
416,88,33627,5,4
288,120,34460,1,2
288,120,34669,1,2
288,120,34877,1,2
224,136,35294,1,4
224,136,35710,1,4
128,160,36335,1,2
128,160,36544,1,2
96,216,36960,5,4
224,248,37793,1,2
224,248,38002,1,2
224,248,38210,1,2
288,264,38627,1,4
288,264,39043,1,4
384,288,39668,1,2
384,288,39877,1,2
80,112,53627,5,4
80,272,54669,1,0
80,272,54877,1,4
224,192,55919,1,0
224,192,56127,1,4
288,192,56544,5,4
432,112,57585,1,0
432,112,57794,1,4
432,272,58835,1,0
432,272,59044,1,4
368,288,59460,6,0,B|323:215,1,75
256,288,60710,2,0,B|211:215,1,75
120,224,61960,1,0
120,160,62377,6,0,B|165:87,1,75
232,160,63627,2,0,B|277:87,1,75
344,160,64877,1,0
331,224,65294,6,0,B|171:224,2,150
336,288,68210,1,4
176,288,69252,1,0
176,288,69460,1,4
176,128,70502,1,0
176,128,70710,1,4
240,128,71127,5,4
328,160,71752,2,2,B|284:234,1,75
384,200,73002,2,2,B|340:274,1,75
288,288,74044,6,0,B|232:288,6,50,4|0|0|4|0|0|4
256,224,76960,1,4
160,192,77585,6,0,B|80:192,1,75
117,96,78835,2,2,B|204:96,1,75
256,96,79877,1,4
352,96,80502,6,0,B|432:96,1,75
395,192,81752,2,2,B|316:192,1,75
256,192,82794,6,0,B|200:192,2,50,4|0|0
256,256,84044,2,0,B|312:256,4,50,2|0|0|4|4
192,256,86127,5,0
128,256,86544,1,0
128,192,86960,1,4
128,192,87377,1,0
128,192,87794,1,0
192,192,88210,1,4
256,192,88627,5,4
448,48,89877,1,4
448,272,91127,1,4
448,336,91544,5,4
64,336,92794,1,4
64,112,94044,1,4
64,48,94460,5,4
256,32,106127,5,4
224,160,106960,1,0
288,160,107377,1,2
288,352,108627,1,2
224,352,109044,5,4
224,224,109877,1,0
288,224,110294,1,2
288,32,111544,1,2
224,32,111960,5,4
136,128,112794,1,0
112,192,113210,1,2
224,352,114460,1,2
288,352,114877,5,4
376,256,115710,1,0
392,192,116126,1,2
192,192,117377,1,4
256,176,117794,6,0,B|256:328,2,150
320,208,120710,6,0,B|320:56,2,150
256,176,123627,6,0,B|256:328,2,150
192,208,126544,6,0,B|192:56,2,150
168,280,129460,6,0,B|204:239|204:239|210:233|216:237|216:237|258:279|312:301|439:229|414:102|323:43|261:49|209:93,1,500
