osu file format v14

[General]
AudioFilename: CC Act on Instinct.mp3
AudioLeadIn: 0
PreviewTime: 62790
Countdown: 0
SampleSet: Normal
StackLeniency: 0.7
Mode: 1
LetterboxInBreaks: 0
WidescreenStoryboard: 0

[Editor]
DistanceSpacing: 1
BeatDivisor: 4
GridSize: 4
TimelineZoom: 1.4

[Metadata]
Title:Act on Instinct
TitleUnicode:Act on Instinct
Artist:Frank Klepacki
ArtistUnicode:Frank Klepacki
Creator:Hanjamon
Version:Futsuu
Source:Command & Conquer
Tags:and psx playstation nintendo 64 Westwood Studios Electronic Arts Real-time strategy game DakeDekaane
BeatmapID:708815
BeatmapSetID:318301

[Difficulty]
HPDrainRate:6
CircleSize:5
OverallDifficulty:4
ApproachRate:5
SliderMultiplier:1.4
SliderTickRate:1

[Events]
//Background and Video events
0,0,"C&CBGH.jpg",0,-10
//Break Periods
//Storyboard Layer 0 (Background)
//Storyboard Layer 1 (Fail)
//Storyboard Layer 2 (Pass)
//Storyboard Layer 3 (Foreground)
//Storyboard Sound Samples

[TimingPoints]
4972,517.388567437288,4,1,0,70,1,0
62919,-100,4,1,0,70,0,1
79475,-100,4,1,0,70,0,0

[HitObjects]
396,220,4972,5,4,0:0:0:0:
272,136,6006,1,8,0:0:0:0:
244,148,6265,1,0,0:0:0:0:
244,148,6524,1,8,0:0:0:0:
244,148,7041,1,0,0:0:0:0:
244,148,8076,1,0,0:0:0:0:
244,148,8335,1,0,0:0:0:0:
244,148,8593,1,8,0:0:0:0:
244,148,9111,1,0,0:0:0:0:
312,240,10145,1,8,0:0:0:0:
312,240,10404,1,0,0:0:0:0:
312,240,10663,1,8,0:0:0:0:
312,240,11180,1,0,0:0:0:0:
380,240,12215,1,8,0:0:0:0:
332,240,12732,1,8,0:0:0:0:
404,244,12991,1,8,0:0:0:0:
376,244,13250,1,4,0:0:0:0:
288,176,13767,1,8,0:0:0:0:
288,176,14284,1,0,0:0:0:0:
288,176,14802,1,8,0:0:0:0:
288,176,15319,1,0,0:0:0:0:
340,192,15837,1,8,0:0:0:0:
288,176,16095,1,8,0:0:0:0:
340,192,16354,1,4,0:0:0:0:
340,192,17389,1,4,0:0:0:0:
204,168,17906,1,8,0:0:0:0:
204,168,18424,1,0,0:0:0:0:
204,168,18682,1,0,0:0:0:0:
204,168,18941,1,8,0:0:0:0:
204,168,19458,1,0,0:0:0:0:
204,168,19976,1,8,0:0:0:0:
204,168,20234,1,8,0:0:0:0:
204,168,20493,1,4,0:0:0:0:
284,244,21528,1,4,0:0:0:0:
320,172,22045,1,8,0:0:0:0:
320,172,22563,1,0,0:0:0:0:
304,200,23080,1,8,0:0:0:0:
304,200,23597,1,0,0:0:0:0:
304,200,24115,1,8,0:0:0:0:
304,200,24374,1,8,0:0:0:0:
304,200,24632,1,4,0:0:0:0:
304,200,25667,1,4,0:0:0:0:
304,200,26184,1,8,0:0:0:0:
304,200,26702,1,0,0:0:0:0:
304,200,26961,1,0,0:0:0:0:
304,200,27219,1,8,0:0:0:0:
304,200,27737,1,0,0:0:0:0:
328,216,28771,1,8,0:0:0:0:
328,216,29289,1,8,0:0:0:0:
328,216,29547,1,8,0:0:0:0:
328,216,29806,1,4,0:0:0:0:
236,176,30324,1,8,0:0:0:0:
236,176,31358,1,8,0:0:0:0:
380,212,31876,1,0,0:0:0:0:
340,200,32393,1,8,0:0:0:0:
340,200,32652,1,0,0:0:0:0:
340,200,32910,1,0,0:0:0:0:
340,200,33428,1,8,0:0:0:0:
340,200,33945,1,0,0:0:0:0:
340,200,34463,1,8,0:0:0:0:
340,200,34721,1,8,0:0:0:0:
340,200,35497,1,8,0:0:0:0:
340,200,36015,1,0,0:0:0:0:
316,136,36532,1,8,0:0:0:0:
360,180,36791,1,0,0:0:0:0:
408,224,37050,1,0,0:0:0:0:
308,124,37567,1,8,0:0:0:0:
412,228,38084,1,4,0:0:0:0:
356,172,38602,1,8,0:0:0:0:
400,216,39637,1,8,0:0:0:0:
400,216,40154,1,0,0:0:0:0:
400,216,40671,1,8,0:0:0:0:
400,216,40930,1,0,0:0:0:0:
400,216,41189,1,0,0:0:0:0:
400,216,41706,1,8,0:0:0:0:
400,216,42223,1,0,0:0:0:0:
400,216,42741,1,8,0:0:0:0:
336,188,43000,1,8,0:0:0:0:
400,216,43776,1,8,0:0:0:0:
400,216,44293,1,0,0:0:0:0:
276,216,45328,1,8,0:0:0:0:
276,216,45845,1,8,0:0:0:0:
276,216,46104,1,8,0:0:0:0:
276,216,46363,1,4,0:0:0:0:
288,176,46880,1,8,0:0:0:0:
288,176,47397,1,0,0:0:0:0:
288,176,47915,1,8,0:0:0:0:
288,176,48432,1,0,0:0:0:0:
340,192,48950,1,8,0:0:0:0:
340,192,49208,1,8,0:0:0:0:
340,192,49467,1,4,0:0:0:0:
340,192,50502,1,4,0:0:0:0:
204,168,51019,1,8,0:0:0:0:
204,168,51536,1,0,0:0:0:0:
204,168,51795,1,0,0:0:0:0:
204,168,52054,1,8,0:0:0:0:
204,168,52571,1,0,0:0:0:0:
204,168,53089,1,8,0:0:0:0:
204,168,53347,1,8,0:0:0:0:
204,168,53606,1,4,0:0:0:0:
284,244,54641,1,4,0:0:0:0:
320,172,55158,1,8,0:0:0:0:
320,172,55676,1,0,0:0:0:0:
304,200,56193,1,8,0:0:0:0:
304,200,56710,1,0,0:0:0:0:
304,200,57228,1,8,0:0:0:0:
304,200,57486,1,8,0:0:0:0:
304,200,57745,1,4,0:0:0:0:
304,200,58780,1,4,0:0:0:0:
304,200,59297,1,8,0:0:0:0:
304,200,59815,1,0,0:0:0:0:
304,200,60073,1,0,0:0:0:0:
304,200,60332,1,8,0:0:0:0:
304,200,60849,1,8,0:0:0:0:
328,216,61884,1,8,0:0:0:0:
328,216,62402,1,8,0:0:0:0:
328,216,62660,1,8,0:0:0:0:
328,216,62919,1,4,0:0:0:0:
208,172,63436,1,8,0:0:0:0:
272,140,63695,1,0,0:0:0:0:
272,140,64212,1,0,0:0:0:0:
176,160,64471,1,8,0:0:0:0:
176,160,64989,1,0,0:0:0:0:
176,160,65506,1,8,0:0:0:0:
176,160,66541,1,8,0:0:0:0:
176,160,67058,1,4,0:0:0:0:
176,160,67576,1,8,0:0:0:0:
176,160,67834,1,0,0:0:0:0:
176,160,68352,1,0,0:0:0:0:
176,160,68610,1,8,0:0:0:0:
176,160,69128,1,0,0:0:0:0:
176,160,69645,1,8,0:0:0:0:
176,160,70162,1,8,0:0:0:0:
176,160,71197,1,4,0:0:0:0:
176,160,71715,1,8,0:0:0:0:
176,160,71973,1,0,0:0:0:0:
176,160,72491,1,0,0:0:0:0:
176,160,72749,1,8,0:0:0:0:
176,160,73267,1,0,0:0:0:0:
176,160,73784,1,8,0:0:0:0:
176,160,74819,1,8,0:0:0:0:
176,160,75336,1,4,0:0:0:0:
176,160,75854,1,8,0:0:0:0:
176,160,76112,1,0,0:0:0:0:
176,160,76630,1,0,0:0:0:0:
176,160,76889,1,8,0:0:0:0:
176,160,77406,1,0,0:0:0:0:
176,160,77923,1,8,0:0:0:0:
176,160,78441,1,8,0:0:0:0:
176,160,78958,1,8,0:0:0:0:
176,160,79217,1,8,0:0:0:0:
176,160,79475,1,4,0:0:0:0:
