osu file format v12

[General]
AudioFilename: Fractal - Spection.mp3
AudioLeadIn: 0
PreviewTime: -1
Countdown: 1
SampleSet: Normal
StackLeniency: 0.7
Mode: 0
LetterboxInBreaks: 1
WidescreenStoryboard: 1

[Editor]
Bookmarks: 94907
DistanceSpacing: 1
BeatDivisor: 8
GridSize: 4
TimelineZoom: 1.4

[Metadata]
Title:Spection
TitleUnicode:Spection
Artist:Fractal
ArtistUnicode:Fractal
Creator:CoRTeXD
Version:yolo
Source:
Tags:
BeatmapID:427882
BeatmapSetID:177604

[Difficulty]
HPDrainRate:6
CircleSize:5
OverallDifficulty:7
ApproachRate:9
SliderMultiplier:1.6
SliderTickRate:1

[Events]
//Background and Video events
//Break Periods
2,8616,21937
//Storyboard Layer 0 (Background)
//Storyboard Layer 1 (Fail)
//Storyboard Layer 2 (Pass)
//Storyboard Layer 3 (Foreground)
//Storyboard Sound Samples
//Background Colour Transformations
3,100,163,162,255

[TimingPoints]
-56,353.024240997882,4,1,0,100,1,0
90318,-58.8235294117647,4,1,0,100,0,0
96672,-133.333333333333,4,1,0,100,0,0
98172,-66.6666666666667,4,1,0,100,0,0
104439,-133.333333333333,4,1,0,100,0,0
106027,-66.6666666666667,4,1,0,100,0,0
107263,-58.8235294117647,4,1,0,100,0,0
113606,-133.333333333333,4,1,0,100,0,0
114323,-100,4,1,0,100,0,0
115029,-66.6666666666667,4,1,0,100,0,0
115735,-50,4,1,0,100,0,0
117677,-52.6315789473684,4,1,0,100,0,0

[HitObjects]
256,192,5592,5,0,0:0:0:0:
256,192,5680,12,2,8416,0:0:0:0:
104,72,22537,5,0,0:0:0:0:
388,76,23243,2,0,B|340:116|340:116|336:176|272:168|224:136|244:220|244:220|164:256,1,320
324,208,24302,1,0,0:0:0:0:
452,176,24655,2,0,B|384:164|384:164|432:240|416:300|348:196|384:336|384:336|320:320,1,320
300,120,25714,1,0,0:0:0:0:
264,124,25803,1,0,0:0:0:0:
272,160,25891,1,0,0:0:0:0:
236,164,25979,1,0,0:0:0:0:
244,200,26067,1,0,0:0:0:0:
76,124,26420,2,0,L|116:200,1,80
232,312,26773,2,0,L|190:240,1,80
180,88,27126,1,0,0:0:0:0:
304,228,27479,2,0,L|444:144,2,160
120,264,28538,5,0,0:0:0:0:
220,280,28891,2,0,P|216:204|152:160,1,160
192,56,29598,2,0,L|232:128,1,80
320,180,29951,2,0,P|343:196|400:196,1,80
420,119,30304,2,0,B|415:99|403:79|371:67|327:83|327:83|283:67,1,160
112,100,31010,6,0,P|144:72|200:76,1,100
320,92,31363,2,0,L|296:132,1,40
176,184,31540,2,0,L|200:224,1,40
308,244,31716,1,0,0:0:0:0:
112,64,32069,2,0,L|72:220,1,160
208,56,32686,2,0,L|240:96,1,40
224,216,32951,1,0,0:0:0:0:
336,108,33128,1,0,0:0:0:0:
140,56,33834,6,0,B|272:64|164:164|296:76|388:52|284:228,1,320
156,200,34893,1,0,0:0:0:0:
280,148,35246,2,0,L|352:104,1,80
160,72,35599,1,0,0:0:0:0:
72,152,35952,2,0,L|132:320,1,160
208,216,36482,2,0,L|288:192,1,80
180,152,36835,2,0,L|256:120,1,80
316,48,37364,2,0,L|396:64,1,80
340,128,37717,2,0,P|356:248|272:332,1,240
92,288,38423,2,0,L|176:312,1,80
180,168,38776,1,0,0:0:0:0:
388,208,38953,2,0,L|324:56,1,160
416,44,39482,1,0,0:0:0:0:
156,44,39835,6,0,L|72:44,1,80
264,72,40188,2,0,L|236:240,1,160,0|0,0:0|0:0,0:0:0:0:
340,176,40718,1,0,0:0:0:0:
80,192,41071,2,0,L|72:276,1,80,0|0,0:0|0:0,0:0:0:0:
204,184,41424,1,0,0:0:0:0:
332,176,41600,2,0,L|364:348,1,160
272,264,42306,1,0,0:0:0:0:
192,284,42483,2,0,L|104:304,1,80
276,88,43012,2,0,L|252:172,1,80
368,256,43365,1,0,0:0:0:0:
252,188,43542,1,0,0:0:0:0:
164,88,43719,6,0,L|120:160,1,80
360,128,44072,2,0,L|408:200,1,80
204,288,44425,2,0,L|216:272,1,20
280,212,44601,2,0,L|268:232,1,20
280,320,44778,2,0,L|292:304,1,20
220,116,45131,2,0,B|264:116|264:116|268:168|336:200,1,160
376,88,45837,1,0,0:0:0:0:
108,120,46190,5,0,0:0:0:0:
276,136,46543,2,0,L|332:192,1,80
200,272,46896,1,0,0:0:0:0:
392,284,47249,1,0,0:0:0:0:
400,156,47602,1,0,0:0:0:0:
268,80,47778,1,0,0:0:0:0:
276,224,47955,2,0,L|232:296,1,80
132,272,48308,1,0,0:0:0:0:
120,232,48396,1,0,0:0:0:0:
116,196,48484,1,0,0:0:0:0:
120,156,48573,1,0,0:0:0:0:
128,120,48661,1,0,0:0:0:0:
224,160,49014,6,0,L|308:172,1,80
448,160,49367,2,0,L|368:152,1,80
240,224,49720,2,0,L|324:236,1,80
80,152,50073,2,0,L|136:316,1,160
124,32,50779,2,0,L|200:64,1,80
312,80,51132,2,0,L|244:128,1,80
356,196,51485,1,0,0:0:0:0:
236,200,51662,2,0,L|220:280,2,80
356,328,52191,1,0,0:0:0:0:
264,160,52368,1,0,0:0:0:0:
80,212,52544,1,0,0:0:0:0:
180,308,52721,2,0,L|260:316,1,80
392,200,53250,1,0,0:0:0:0:
248,168,53603,5,0,0:0:0:0:
328,64,53780,1,0,0:0:0:0:
308,48,53868,1,0,0:0:0:0:
284,40,53956,2,0,L|200:40,1,80,0|0,0:0|0:0,0:0:0:0:
112,104,54839,1,0,0:0:0:0:
48,148,55015,1,0,0:0:0:0:
272,88,55368,2,0,L|352:108,1,80
104,308,55721,1,0,0:0:0:0:
320,256,55898,1,0,0:0:0:0:
220,296,56074,1,0,0:0:0:0:
348,128,56427,2,0,L|400:64,2,80
240,40,56957,2,0,L|252:124,1,80
104,104,57486,2,0,L|164:164,1,80
148,288,58016,2,0,L|80:228,1,80
244,240,58546,2,0,L|296:304,2,80
240,128,59252,6,0,L|288:64,2,80
368,140,59781,2,0,L|404:60,1,80
448,232,60311,2,0,L|394:294,1,80
232,144,60840,2,0,L|284:76,1,80
236,292,61370,2,0,L|296:228,2,80
124,112,62076,6,0,L|72:52,2,80
348,128,62605,2,0,L|408:68,1,80
216,136,63135,2,0,L|272:68,1,80
112,200,63664,2,0,L|56:264,1,80
224,264,64194,2,0,L|256:344,2,80
256,124,64900,6,0,L|256:40,2,80
320,164,65429,2,0,L|376:104,1,80
116,108,65959,2,0,L|173:170,1,80
192,312,66489,2,0,L|248:244,1,80
344,272,67018,2,0,L|428:288,2,80
256,192,67724,5,0,0:0:0:0:
136,96,67901,2,0,L|176:24,1,80
232,104,68254,2,0,L|272:28,1,80
364,124,68783,2,0,L|424:184,1,80
368,244,69313,2,0,L|336:324,1,80
320,252,69666,2,0,L|252:316,1,80
280,228,70019,2,0,L|196:236,1,80
84,140,70548,6,0,L|40:68,1,80
176,84,70901,2,0,L|216:160,1,80
108,192,71254,2,0,L|72:112,1,80
204,136,71607,2,0,L|240:208,1,80
132,252,71960,2,0,L|96:176,1,80
240,192,72313,2,0,L|284:264,1,80
372,224,72666,2,0,L|332:152,1,80
264,112,73020,2,0,L|304:36,1,80
148,140,73373,5,0,0:0:0:0:
364,140,73549,1,0,0:0:0:0:
212,260,73726,1,0,0:0:0:0:
300,260,73902,1,0,0:0:0:0:
136,228,74079,2,0,L|212:188,1,80
256,108,74432,1,0,0:0:0:0:
272,196,74608,2,0,L|348:164,1,80
452,192,74961,1,0,0:0:0:0:
412,80,75138,1,0,0:0:0:0:
292,56,75314,2,0,L|208:56,1,80
120,168,75667,2,0,L|200:168,1,80
340,244,76197,6,0,L|316:320,1,80
240,188,76726,2,0,L|232:268,1,80
372,120,77256,2,0,L|296:168,1,80
244,88,77785,2,0,L|168:48,1,80
64,124,78315,2,0,L|72:44,1,80
200,192,78668,1,0,0:0:0:0:
360,40,79021,6,0,L|432:80,1,80
408,96,79374,2,0,L|432:176,1,80
416,168,79727,2,0,L|412:252,1,80
400,236,80080,2,0,L|348:296,1,80
176,168,80433,1,0,0:0:0:0:
304,168,80610,1,0,0:0:0:0:
240,240,80786,2,0,L|224:328,1,80
244,108,81139,2,0,L|256:28,1,80
104,304,81492,1,0,0:0:0:0:
96,284,81580,1,0,0:0:0:0:
92,260,81669,1,0,0:0:0:0:
92,236,81757,1,0,0:0:0:0:
96,212,81845,1,0,0:0:0:0:
168,40,82198,6,0,L|156:128,1,80
376,56,82551,2,0,L|368:140,1,80
264,136,82904,2,0,L|256:220,1,80
364,208,83257,2,0,L|356:296,1,80
144,224,83610,2,0,L|132:312,1,80
160,136,83963,1,0,0:0:0:0:
252,256,84140,1,0,0:0:0:0:
392,312,84316,1,0,0:0:0:0:
344,128,84669,6,0,L|336:108,1,20
292,136,84846,2,0,L|284:116,1,20
248,140,85022,2,0,L|240:120,1,20
196,152,85199,2,0,L|188:128,1,20
172,220,85375,2,0,L|180:240,1,20
228,204,85552,2,0,L|236:224,1,20
280,192,85728,2,0,L|288:212,1,20
328,180,85905,2,0,L|336:200,1,20
428,148,86081,1,0,0:0:0:0:
436,168,86170,1,0,0:0:0:0:
440,188,86258,1,0,0:0:0:0:
440,208,86346,1,0,0:0:0:0:
436,228,86434,1,0,0:0:0:0:
428,248,86523,1,0,0:0:0:0:
416,264,86611,1,0,0:0:0:0:
256,192,86787,2,0,L|244:208,13,20
280,164,87494,5,0,0:0:0:0:
168,136,88200,1,0,0:0:0:0:
292,76,88906,2,0,L|356:136,1,80
380,176,89259,1,0,0:0:0:0:
232,228,89612,1,0,0:0:0:0:
84,120,89965,2,0,L|104:120,4,20
304,60,90318,6,0,L|424:128,1,136.000002593994
232,232,90671,1,0,0:0:0:0:
64,156,91024,2,0,L|340:144,1,272.000005187988
376,188,91553,2,0,L|412:188,4,34.0000006484985
256,192,91906,1,0,0:0:0:0:
280,88,92083,2,0,L|416:88,1,136.000002593994
412,160,92436,5,0,0:0:0:0:
412,224,92554,1,0,0:0:0:0:
384,280,92671,1,0,0:0:0:0:
328,304,92789,1,0,0:0:0:0:
268,300,92907,1,0,0:0:0:0:
312,208,93142,5,0,0:0:0:0:
248,144,93319,1,0,0:0:0:0:
219,161,93407,1,0,0:0:0:0:
219,127,93495,1,0,0:0:0:0:
84,204,93848,2,0,L|168:320,2,136.000002593994
92,36,94377,2,0,B|112:36|112:36|120:64|144:76|152:80|212:80,1,136.000002593994
208,128,94907,2,0,B|228:128|228:128|236:156|260:168|268:172|324:172,1,136.000002593994
324,232,95437,2,0,B|344:232|344:232|352:260|376:272|384:276|440:276,1,136.000002593994
404,80,95966,2,0,L|284:152,1,136.000002593994
236,100,96319,1,0,0:0:0:0:
320,156,96672,2,0,P|356:172|372:196,1,60.0000022888184
300,240,97202,2,0,P|275:271|248:280,1,60.0000022888184
245,180,97731,2,0,P|231:153|232:124,1,60.0000022888184
124,236,98261,2,0,P|124:276|80:344,1,120.000004577637
128,96,98790,1,0,0:0:0:0:
364,100,98967,2,0,L|408:220,1,120.000004577637
260,184,99320,1,0,0:0:0:0:
344,280,99496,1,0,0:0:0:0:
120,120,99849,2,0,L|124:240,1,120.000004577637
172,40,100202,1,0,0:0:0:0:
232,120,100379,2,0,L|236:244,1,120.000004577637
344,64,100732,1,0,0:0:0:0:
404,156,100908,1,0,0:0:0:0:
412,180,100996,1,0,0:0:0:0:
416,204,101084,1,0,0:0:0:0:
416,228,101173,1,0,0:0:0:0:
412,252,101261,1,0,0:0:0:0:
400,272,101350,1,0,0:0:0:0:
380,288,101438,1,0,0:0:0:0:
216,216,101614,2,0,L|348:216,1,120.000004577637
276,216,101968,1,0,0:0:0:0:
160,100,102321,2,0,L|132:160,1,60.0000022888184
176,156,102497,2,0,L|160:220,1,60.0000022888184
220,200,102674,2,0,L|212:260,1,60.0000022888184
272,232,102850,2,0,L|276:296,1,60.0000022888184
332,248,103037,2,0,L|352:312,1,60.0000022888184
424,172,103380,6,0,L|381:60,1,120.000004577637
400,112,103733,1,0,0:0:0:0:
280,68,104086,1,0,0:0:0:0:
140,76,104439,2,0,P|100:100|100:116,1,60.0000022888184
132,104,104792,1,0,0:0:0:0:
212,160,105145,2,0,L|268:192,1,60.0000022888184
288,204,105498,1,0,0:0:0:0:
360,200,105674,2,0,P|356:224|336:256,1,60.0000022888184
416,156,106204,2,0,P|432:236|304:336,1,240.000009155274
272,308,106733,1,0,0:0:0:0:
176,204,107263,2,0,B|124:200|92:212|76:296,1,136.000002593994
160,272,107616,1,0,0:0:0:0:
80,132,107969,1,0,0:0:0:0:
244,92,108322,2,0,B|240:156|220:180|152:216,1,136.000002593994
364,48,108851,2,0,P|284:56|240:96,1,136.000002593994
332,136,109381,1,0,0:0:0:0:
244,168,110087,1,0,0:0:0:0:
108,148,110264,1,0,0:0:0:0:
188,52,110617,2,0,P|172:172|160:192,1,136.000002593994
184,316,111146,2,0,P|160:216|165:182,1,136.000002593994
260,288,111676,1,0,0:0:0:0:
217,27,112205,1,0,0:0:0:0:
245,31,112293,1,0,0:0:0:0:
269,37,112382,1,0,0:0:0:0:
295,47,112470,1,0,0:0:0:0:
315,61,112558,1,0,0:0:0:0:
337,82,112646,1,0,0:0:0:0:
244,116,112911,1,0,0:0:0:0:
440,148,113264,1,0,0:0:0:0:
456,320,113617,2,0,P|424:296|392:292,1,60.0000022888184
332,304,113970,1,0,0:0:0:0:
344,232,114323,2,0,P|308:196|272:204,1,80
208,216,114676,1,0,0:0:0:0:
216,132,115029,2,0,P|168:96|92:116,1,120.000004577637
68,176,115382,1,0,0:0:0:0:
200,264,115735,2,0,L|248:340,1,80
236,208,115912,2,0,L|312:252,1,80
248,144,116088,6,0,L|328:144,1,80
232,80,116265,2,0,L|308:36,1,80
392,48,116441,2,0,P|412:96|348:352,1,320
408,288,116918,2,0,L|336:336,1,80
384,232,117144,2,0,L|304:244,1,80
376,172,117370,2,0,L|288:160,1,80
388,112,117603,2,0,L|300:80,1,80
260,108,117854,6,0,L|276:276,1,151.999995941162
240,40,118207,2,0,L|160:188,1,151.999995941162
148,208,118560,1,0,0:0:0:0:
