osu file format v9

[General]
AudioFilename: Cattleya.mp3
AudioLeadIn: 0
PreviewTime: 108584
Countdown: 0
SampleSet: Normal
StackLeniency: 0.7
Mode: 1
LetterboxInBreaks: 0

[Editor]
Bookmarks: 153007,167776,182545,197315
DistanceSpacing: 0.8
BeatDivisor: 2
GridSize: 32

[Metadata]
Title:Cattleya
Artist:Foxtail-Grass Studio
Creator:LKs
Version:Taiko
Source:Touhou
Tags:C81 Saigyouji Yuyuko Scorpiour Sherrie__fay Kiiwa

[Difficulty]
HPDrainRate:5
CircleSize:5
OverallDifficulty:5
ApproachRate:5
SliderMultiplier:1.4
SliderTickRate:1

[Events]
//Background and Video events
0,0,"BG.jpg"
//Break Periods
//Storyboard Layer 0 (Background)
//Storyboard Layer 1 (Fail)
//Storyboard Layer 2 (Pass)
//Storyboard Layer 3 (Foreground)
//Storyboard Sound Samples
//Background Colour Transformations
3,100,163,162,255

[TimingPoints]
61836,631.578947368421,4,1,0,64,1,0
63920,470.588235294118,4,1,0,64,1,0
63920,-72.992700729927,4,1,0,64,0,0
64392,461.538461538462,4,1,0,48,1,0
108699,-90.9090909090909,4,1,0,58,0,1
137315,-90.9090909090909,4,1,0,49,0,1
138238,-90.9090909090909,4,1,0,52,0,0
197315,-90.9090909090909,4,1,0,59,0,1
226849,461.538461538462,4,1,0,51,1,0
241783,571.428571428571,4,1,0,48,1,0
243515,555.555555555556,4,1,0,42,1,0
244071,576.923076923077,4,1,0,42,1,0
251000,645.161290322581,4,1,0,32,1,0
253590,666.666666666667,4,1,0,32,1,0
256240,750,4,1,0,42,1,0
257723,750,4,1,0,42,1,0
259220,833.333333333333,4,1,0,35,1,0
260073,857.142857142857,4,1,0,35,1,0
260930,923.076923076923,4,1,0,35,1,0
262314,923.076923076923,4,1,0,35,1,0

[Colours]
Combo1 : 0,6,253
Combo2 : 255,0,6
Combo3 : 57,63,255
Combo4 : 253,0,6

[HitObjects]
255,191,61836,1,0
256,191,61993,1,0
256,191,62151,1,0
256,192,63920,1,0
256,192,64155,1,0
256,192,64392,1,4
256,192,64738,1,0
256,192,64853,1,0
256,192,65084,1,0
256,192,65776,1,0
256,192,66238,1,4
256,192,66584,1,0
256,192,66699,1,0
256,192,66930,1,0
256,192,67622,1,0
255,192,68084,1,4
256,191,68315,5,2
256,192,68545,1,2
256,192,68776,5,0
255,192,69007,1,4
256,191,69238,5,2
256,192,69468,1,2
256,191,69699,5,0
256,192,69930,1,4
254,191,70161,1,0
255,192,70392,5,2
256,193,70622,1,2
255,192,71084,5,0
255,192,71315,1,0
256,192,71776,1,4
256,192,72122,1,0
256,192,72237,1,0
256,192,72468,1,0
256,192,73160,1,0
256,192,73622,1,4
256,192,73968,1,0
256,192,74083,1,0
256,192,74314,1,0
255,192,75007,1,0
255,192,75468,1,4
256,191,75699,5,2
256,192,75929,1,2
256,192,76160,5,0
255,192,76391,1,4
256,191,76622,5,2
256,192,76852,1,2
256,191,77083,5,0
256,192,77314,1,4
255,192,78007,1,0
256,192,78122,1,0
256,192,78238,1,0
256,192,78468,1,0
256,192,78699,1,0
255,192,78930,1,0
254,191,79161,1,4
254,191,79392,5,2
254,191,79507,5,0
255,191,79622,1,0
255,191,79853,1,0
256,191,80315,1,0
256,191,80545,5,2
257,191,80776,5,4
257,191,81007,1,4
254,191,81238,5,2
254,191,81353,5,0
255,191,81468,1,0
255,191,81699,1,0
256,192,82161,1,0
256,191,82392,5,2
257,192,82853,5,4
257,192,83199,5,2
257,192,83315,5,0
257,192,83545,1,0
257,192,83776,1,4
257,192,84007,1,0
257,192,84238,5,2
256,193,84468,5,0
320,192,84699,2,0,B|320:320|320:320|82:323|82:323|64:192,1,490
254,191,86545,1,4
254,191,86776,1,0
254,191,86891,1,0
255,191,87006,5,2
255,191,87237,5,0
256,191,87699,1,0
256,191,87929,5,2
257,191,88160,5,4
257,191,88391,1,4
254,191,88622,1,0
254,191,88737,1,0
255,191,88853,5,2
255,191,89084,5,0
256,192,89545,1,0
256,191,89776,5,2
257,192,90237,5,4
257,192,90583,1,0
257,192,90699,5,2
257,192,90930,5,0
257,192,91160,1,4
257,192,91391,1,0
257,192,91622,5,2
256,193,91852,5,0
320,192,92084,2,0,B|320:320|320:320|82:323|82:323|64:192,1,490
254,191,93930,1,4
254,191,94161,1,0
255,191,94392,1,0
256,191,94622,5,2
256,191,94738,1,2
256,191,94853,1,2
256,191,95084,5,0
257,191,95315,1,0
257,191,95545,1,4
257,191,95776,1,4
256,191,96007,1,0
256,191,96238,1,0
255,191,96468,5,2
255,191,96584,1,2
255,191,96699,1,2
254,191,96930,5,0
254,192,97392,1,0
254,192,97622,1,0
254,192,97738,1,0
254,192,97853,1,0
255,192,97968,1,0
255,192,98084,5,2
256,192,98199,1,2
256,192,98315,1,2
256,192,98430,1,2
254,192,98545,5,0
254,192,98661,1,0
254,192,98776,1,0
255,192,98891,1,0
255,192,99007,5,2
256,192,99122,1,2
256,192,99238,1,2
256,192,99353,1,2
256,192,99468,5,0
257,192,99815,1,0
257,192,99930,1,0
257,191,100161,5,2
256,191,100392,1,2
255,191,100622,5,0
255,192,100853,5,2
255,192,100968,1,2
255,192,101084,5,0
255,192,101199,1,0
255,192,101315,1,0
255,193,101545,5,2
256,192,101776,5,0
257,192,102007,5,2
257,192,102122,1,2
257,192,102238,1,2
257,192,102468,5,0
257,191,102699,1,0
254,191,103161,1,0
255,191,103392,1,0
256,191,103622,5,2
256,191,103853,5,0
256,191,103968,1,0
257,191,104084,1,0
257,191,104315,1,0
257,191,104545,5,2
257,192,104776,5,0
257,192,105007,1,4
257,192,105468,5,6
256,192,105930,5,4
255,192,106392,5,6
254,192,106853,5,4
256,192,107084,12,0,108238
254,192,108699,21,4
255,192,108930,1,0
256,192,109161,5,2
256,192,109392,5,0
256,192,109507,5,2
256,192,109622,5,0
257,192,109853,1,0
257,192,110084,5,2
254,192,110315,5,0
255,192,110545,1,0
256,192,110776,1,0
256,192,111007,5,2
257,192,111238,5,0
257,192,111353,1,0
257,192,111468,1,0
256,192,111699,1,0
256,192,111930,5,2
254,192,112392,5,0
254,191,112507,1,0
254,191,112622,1,0
254,191,112738,1,0
255,191,112853,5,2
255,191,112968,1,2
255,191,113083,1,2
255,191,113199,1,2
254,192,113315,5,0
254,191,113430,1,0
254,191,113545,1,0
254,191,113661,1,0
255,191,113776,5,2
255,191,113891,1,2
255,191,114006,1,2
255,191,114122,1,2
255,191,114238,5,0
256,191,114353,1,0
256,191,114468,5,2
256,191,114584,5,0
256,191,114699,5,2
257,192,114930,1,2
257,192,115045,5,0
257,192,115161,1,0
257,192,115276,1,0
257,192,115392,5,2
256,193,115622,1,2
255,193,116084,5,4
254,192,116545,5,2
254,191,116776,5,0
254,191,116892,5,2
254,191,117007,5,0
255,192,117238,1,0
255,191,117468,5,2
256,191,117699,5,0
256,191,117930,1,0
257,191,118161,1,0
258,192,118392,5,2
257,192,118622,5,0
257,192,118738,5,2
256,193,118968,1,2
256,193,119084,5,0
255,192,119315,5,2
255,193,119545,5,0
254,192,119776,1,0
254,192,119892,1,0
254,192,120007,5,2
254,192,120122,5,0
254,191,120238,5,2
254,192,120469,5,0
254,192,120584,1,0
254,192,120699,5,2
254,191,120815,1,2
254,192,120930,5,0
254,192,121046,1,0
254,192,121161,5,2
255,191,121392,5,0
255,191,121507,1,0
255,191,121622,1,0
256,191,122084,5,6
257,191,122430,1,2
257,192,122545,5,0
257,192,122661,5,2
256,193,122892,1,2
256,193,123007,5,0
255,193,123122,1,0
255,193,123238,5,2
254,193,123353,1,2
254,192,123468,5,0
254,192,123699,1,0
254,191,123930,5,2
254,191,124161,1,2
255,191,124276,5,0
255,191,124392,1,0
256,191,124622,1,0
256,191,124853,5,2
257,191,125084,5,0
257,192,125315,1,0
257,192,125545,1,0
257,193,125776,5,2
256,192,125892,1,2
256,192,126007,5,0
256,193,126122,5,2
255,193,126238,5,0
254,193,126699,5,2
254,192,126930,5,0
254,191,127161,1,0
254,191,127276,1,0
255,191,127392,1,0
255,191,127507,1,0
256,191,127622,5,2
256,191,127737,1,2
256,191,127853,1,2
257,191,127968,1,2
254,191,128084,5,0
254,191,128199,1,0
255,191,128315,1,0
255,191,128430,1,0
256,191,128545,5,2
256,191,128660,1,2
256,191,128776,1,2
257,191,128891,1,2
255,191,129007,5,0
256,191,129122,1,0
256,191,129237,5,2
256,191,129353,5,0
256,191,129468,5,2
257,192,129699,1,2
257,192,129814,5,0
257,192,129930,1,0
257,192,130045,1,0
257,192,130161,5,2
256,192,130392,1,2
255,193,130622,5,0
255,193,130738,1,0
255,193,130853,1,0
254,192,131084,1,0
254,192,131315,5,2
255,191,131545,5,0
255,191,131661,5,2
255,191,131776,5,0
255,193,132007,1,0
256,192,132238,5,2
257,192,132468,5,0
257,192,132699,1,0
257,191,132930,1,0
256,191,133161,5,2
256,191,133392,1,2
256,191,133507,5,0
256,191,133622,1,0
255,191,133853,1,0
255,191,134084,5,2
254,191,134199,5,0
254,191,134315,1,0
254,192,134430,5,2
255,192,134545,5,0
256,192,134776,1,0
256,192,135007,5,2
255,192,135238,1,2
256,192,135468,5,0
256,192,135815,5,2
256,192,135930,5,0
255,192,136162,5,2
256,192,136391,5,4
256,192,136622,12,0,137776
256,193,138238,21,4
256,192,138584,1,0
256,191,138699,5,2
256,191,138930,5,0
255,191,139161,1,0
256,191,139392,1,0
255,191,139623,5,2
255,191,139853,5,0
256,192,140084,1,0
256,191,140430,1,0
256,191,140545,5,2
256,191,140776,5,0
256,191,140892,5,2
256,191,141007,5,0
256,192,141238,1,0
255,191,141468,5,2
256,191,141930,5,0
255,191,142276,5,2
255,191,142392,1,2
256,191,142622,5,0
255,191,142853,1,0
256,191,143199,1,0
256,191,143315,5,2
255,191,143545,5,0
256,192,144007,5,2
255,192,144238,5,0
255,191,144468,1,0
256,191,144699,1,0
257,191,144815,1,0
257,191,144930,1,0
257,191,145161,5,2
257,192,145392,5,0
257,192,145622,1,4
256,192,145968,5,2
256,191,146083,5,0
256,191,146315,1,0
255,191,146545,1,0
256,191,146776,1,0
255,191,147007,5,2
256,192,147468,5,4
256,191,147814,1,0
256,191,147929,5,2
256,191,148161,1,2
256,191,148276,5,0
256,191,148391,1,0
256,192,148622,1,0
255,191,148852,5,2
256,191,149314,5,4
255,191,149661,1,0
255,191,149776,5,2
256,191,150007,5,0
255,191,150237,1,0
256,191,150583,1,0
256,191,150699,5,2
255,191,150929,5,0
256,192,151391,5,2
255,192,151622,1,2
255,191,151852,5,0
256,191,152084,5,2
257,191,152199,1,2
257,191,152315,1,2
257,191,152545,5,0
257,192,152776,1,0
257,192,153006,1,4
256,193,153238,5,2
256,193,153353,1,2
256,193,153468,1,2
256,193,153699,5,0
256,193,153814,1,0
256,193,153929,1,0
256,193,154161,5,2
256,193,154276,1,2
256,193,154391,1,2
255,193,154622,5,0
254,192,154853,1,0
254,191,155084,5,2
254,191,155199,1,2
254,191,155315,1,2
255,191,155545,5,0
255,191,155661,1,0
255,191,155776,1,0
255,191,156007,5,2
256,191,156238,1,2
256,191,156468,5,0
257,191,156699,1,0
258,192,156930,1,0
257,192,157161,5,2
256,192,157392,5,0
257,192,157507,5,2
257,191,157622,5,0
258,192,157853,1,0
257,192,158084,5,2
256,192,158315,5,0
255,193,158545,1,0
254,192,158776,1,0
254,192,158892,1,0
255,192,159007,5,2
255,191,159238,1,2
254,191,159353,5,0
254,191,159468,1,0
255,192,159699,1,0
256,191,159930,5,2
256,192,160161,5,0
257,191,160392,1,0
257,192,160622,1,0
257,192,160738,1,0
257,192,160853,1,0
257,192,161084,5,2
257,192,161200,1,2
257,192,161315,1,2
257,193,161545,5,0
256,192,161776,1,0
255,193,162007,5,2
255,193,162238,5,0
254,192,162584,1,0
254,192,162699,5,2
255,191,162930,1,2
255,191,163045,5,0
256,191,163161,1,0
256,192,163392,1,0
257,191,163622,5,2
257,191,163853,1,2
255,190,164084,5,0
256,191,164315,5,2
254,191,164430,5,0
255,192,164545,1,0
254,192,164776,1,0
255,192,164892,5,2
255,192,165007,5,0
256,193,165238,1,0
256,192,165468,1,0
257,192,165699,5,2
256,191,165930,5,0
257,191,166161,1,0
256,190,166276,1,0
256,190,166392,1,0
255,191,166622,5,2
255,191,166738,5,0
255,192,166853,1,0
254,192,166968,1,0
254,192,167084,5,2
254,192,167315,5,0
256,193,167776,1,4
257,193,168122,5,2
256,193,168238,5,0
257,192,168468,1,0
257,192,168584,1,0
257,192,168699,1,0
256,192,168930,1,0
255,193,169161,5,2
254,192,169392,5,0
254,192,169622,5,0
257,193,169968,5,2
256,193,170084,5,0
257,192,170314,5,0
257,192,170430,1,0
257,192,170545,1,0
256,192,170776,1,0
255,193,171007,5,2
254,192,171238,5,0
254,192,171468,1,0
255,191,171699,1,0
255,191,171815,5,2
255,191,171930,5,0
256,191,172161,5,2
256,191,172276,5,0
256,191,172392,1,0
256,191,172507,1,0
256,192,172622,1,0
256,192,172853,5,2
257,191,173084,5,0
258,192,173315,5,2
257,192,173545,1,2
258,192,173776,5,0
257,192,174006,1,0
257,193,174122,1,0
257,193,174238,1,0
256,193,174468,1,0
255,192,174699,5,2
256,192,174930,5,0
256,192,175161,1,0
257,191,175392,5,2
257,191,175507,1,2
257,191,175622,5,0
256,191,175853,1,0
256,191,175968,1,0
256,191,176084,1,0
255,191,176315,1,0
254,191,176545,5,2
254,193,177007,5,0
254,192,177238,1,0
255,193,177353,1,0
255,193,177468,5,2
256,193,177699,5,0
256,193,177815,1,0
256,193,177930,1,0
257,193,178392,5,2
257,192,178622,5,0
257,192,178853,1,4
256,192,179199,5,2
256,192,179315,5,0
255,192,179545,5,2
255,192,179661,1,2
255,192,179776,1,2
254,192,180007,5,0
255,191,180238,5,2
255,191,180468,5,0
256,191,180699,1,0
257,191,180930,5,2
256,192,181161,5,0
257,192,181392,5,2
257,192,181507,5,0
257,192,181622,1,0
256,193,181853,1,0
256,193,182084,5,6
254,193,182545,5,4
255,192,182776,1,0
255,192,182892,5,2
255,191,183007,5,0
255,191,183238,1,0
256,191,183699,5,2
256,191,183930,1,2
257,191,184161,5,0
258,191,184392,1,0
255,192,184622,1,0
255,192,184738,5,2
255,191,184853,5,0
255,191,185084,1,0
256,191,185315,1,0
255,193,185776,1,0
256,193,186007,5,2
256,193,186238,5,0
257,193,186353,1,0
257,192,186468,1,0
257,192,186584,5,2
257,192,186699,5,0
257,191,186930,5,2
256,192,187161,5,0
255,192,187392,1,0
254,192,187622,5,2
254,191,187853,5,0
255,191,188084,1,0
255,191,188199,5,2
255,191,188315,5,0
256,191,188545,1,0
255,192,188892,5,2
255,192,189007,5,0
256,192,189122,5,2
256,192,189238,5,0
257,192,189468,1,0
257,191,189699,5,2
257,192,189930,5,0
257,193,190161,5,2
257,193,190276,1,2
257,193,190392,1,2
256,193,190622,5,0
255,193,190738,1,0
255,193,190853,1,0
254,192,191084,1,0
254,191,191315,5,2
256,192,191776,5,0
255,191,191892,1,0
256,191,192007,5,2
256,191,192122,5,0
257,191,192238,5,2
257,191,192468,5,0
257,192,192584,1,0
256,192,192699,1,0
255,191,192930,1,0
256,191,193161,5,2
257,191,193392,5,0
257,192,193622,1,4
257,192,194083,5,6
256,192,194545,5,4
255,192,195007,5,6
254,192,195468,5,4
256,192,195699,12,0,196853
254,192,197315,21,4
255,192,197546,1,0
256,192,197777,5,2
256,192,198008,5,0
256,192,198123,5,2
256,192,198238,5,0
257,192,198469,1,0
257,192,198700,5,2
254,192,198931,5,0
255,192,199161,1,4
256,192,199392,1,0
256,192,199623,5,2
257,192,199854,5,0
257,192,199969,1,0
257,192,200084,1,0
256,192,200315,1,0
256,192,200546,5,2
256,192,200776,5,0
254,192,201007,1,0
254,191,201123,1,0
254,191,201238,1,0
254,191,201354,1,0
255,191,201469,5,2
255,191,201584,1,2
255,191,201699,1,2
255,191,201815,1,2
254,192,201931,5,0
254,191,202046,1,0
254,191,202161,1,0
254,191,202277,1,0
255,191,202392,5,2
255,191,202507,1,2
255,191,202622,1,2
255,191,202738,1,2
255,191,202854,5,0
256,191,202969,1,0
256,191,203084,5,2
256,191,203200,5,0
256,191,203315,5,2
257,192,203546,1,2
257,192,203661,5,0
257,192,203777,1,0
257,192,203892,1,0
257,192,204008,5,2
256,193,204238,1,2
255,193,204700,5,4
254,193,204930,1,0
254,192,205161,5,2
254,191,205392,5,0
254,191,205508,5,2
254,191,205623,5,0
255,192,205854,1,0
255,191,206084,5,2
256,191,206315,5,0
256,191,206546,1,4
257,191,206777,1,0
258,192,207008,5,2
257,192,207238,5,0
257,192,207354,5,2
257,193,207468,5,0
256,193,207584,5,2
256,193,207700,5,0
255,192,207931,5,2
255,193,208161,5,0
254,192,208392,1,0
254,192,208508,1,0
254,192,208623,5,2
254,192,208738,5,0
254,191,208854,5,2
254,192,209085,5,0
254,192,209200,1,0
254,192,209315,5,2
254,191,209431,1,2
254,192,209546,5,0
254,192,209662,1,0
254,192,209777,5,2
255,191,210008,5,0
255,191,210123,1,0
255,191,210238,1,0
255,191,210353,5,2
255,191,210468,5,0
256,191,210584,1,0
256,191,210699,5,2
257,191,211046,1,2
257,192,211161,5,0
257,192,211277,5,2
256,193,211508,1,2
256,193,211623,5,0
255,193,211738,1,0
255,193,211854,5,2
254,193,211969,1,2
254,192,212084,5,0
254,192,212315,1,0
254,191,212546,5,2
254,191,212777,1,2
255,191,212892,5,0
255,191,213008,1,0
256,191,213238,1,0
256,191,213469,5,2
257,191,213700,5,0
257,192,213931,1,4
257,192,214161,1,0
257,193,214392,5,2
256,192,214508,1,2
256,192,214623,5,0
256,193,214738,5,2
255,193,214854,5,0
257,191,215084,1,0
254,193,215315,5,2
254,192,215546,5,0
254,191,215777,1,0
254,191,215892,1,0
255,191,216008,1,0
255,191,216123,1,0
256,191,216238,5,2
256,191,216353,1,2
256,191,216469,1,2
257,191,216584,1,2
254,191,216700,5,0
254,191,216815,1,0
255,191,216931,1,0
255,191,217046,1,0
256,191,217161,5,2
256,191,217276,1,2
256,191,217392,1,2
257,191,217507,1,2
255,191,217623,5,0
256,191,217738,1,0
256,191,217853,5,2
256,191,217969,5,0
256,191,218084,5,2
257,192,218315,1,2
257,192,218430,5,0
257,192,218546,1,0
257,192,218661,1,0
257,192,218777,5,2
256,192,219008,1,2
256,192,219122,1,2
255,193,219238,5,0
255,193,219354,1,0
255,193,219469,1,0
254,192,219700,1,0
254,192,219931,5,2
255,191,220161,5,0
255,191,220277,5,2
255,191,220392,5,0
255,192,220622,1,0
256,192,220854,5,2
257,192,221084,5,0
257,192,221315,1,4
257,191,221546,1,0
256,191,221777,5,2
256,191,222008,1,2
256,191,222123,5,0
256,191,222238,1,0
255,191,222469,1,0
254,191,222584,1,0
255,191,222700,5,2
254,191,222815,5,0
254,191,222931,1,0
254,192,223046,5,2
255,192,223161,5,0
256,192,223392,1,0
256,192,223623,5,2
255,192,223853,5,0
256,192,224084,1,0
255,192,224315,1,0
256,192,224431,1,0
256,192,224546,5,2
255,192,224776,5,0
256,192,225007,1,4
256,192,225238,12,0,226392
257,194,226849,21,4
