osu file format v9

[General]
AudioFilename: Cattleya.mp3
AudioLeadIn: 0
PreviewTime: 108584
Countdown: 0
SampleSet: Soft
StackLeniency: 0.7
Mode: 0
LetterboxInBreaks: 0

[Editor]
Bookmarks: 153007,167776,182545,197315
DistanceSpacing: 0.8
BeatDivisor: 2
GridSize: 512

[Metadata]
Title:Cattleya
Artist:Foxtail-Grass Studio
Creator:LKs
Version:Insane
Source:Touhou
Tags:C81 Saigyouji Yuyuko Scorpiour Sherrie__fay Kiiwa

[Difficulty]
HPDrainRate:6
CircleSize:4
OverallDifficulty:7
ApproachRate:8
SliderMultiplier:1.6
SliderTickRate:1

[Events]
//Background and Video events
0,0,"BG.jpg"
//Break Periods
2,138438,151565
//Storyboard Layer 0 (Background)
Sprite,Background,Centre,"SB\BG effect1.jpg",320,240 F,0,0,61836,0,1 M,0,61836,,320,240 F,0,61836,79161,1 F,0,79161,93930,1
Sprite,Background,Centre,"SB\BG effect2.jpg",320,240 F,0,79161,93930,0,1 F,0,93930,108699,1 F,0,108699,138238,1
Sprite,Background,Centre,"SB\BG effect3.jpg",320,240 F,0,108699,138238,0,1 F,0,138238,167776,1,0.9999661
Sprite,Background,Centre,"SB\BG effect4.jpg",320,240 F,0,153007,167776,0,1 F,0,167776,197315,1,0.9997969
Sprite,Background,Centre,"SB\BG effect5.jpg",320,240 F,0,182545,197315,0,1 F,0,197315,226849,1
Sprite,Background,Centre,"SB\BG effect6.jpg",320,240 F,0,197315,226849,0,1 F,0,226849,241849,1
Sprite,Background,Centre,"SB\BG effect1.jpg",320,240 F,0,226849,241840,0,1 F,0,241840,263237,1,0
Sprite,Background,Centre,"SB\BG effect7.jpg",320,240 F,0,212084,213930,0,1 F,0,213930,219468,1 F,0,219468,226849,1,0
Sprite,Background,Centre,"SB\BG effect7.png",320,240 S,0,212084,212199,1,1.134396 F,0,212084,212315,0,0.52384 M,0,212199,,311,157 S,0,212199,213930,1.134396,1.28672 F,0,212315,213930,0.52384,0
Sprite,Background,Centre,"SB\sakura1.png",320,240 M,1,572,6257,239,-23,103,501 R,1,572,6257,0,-12.63616 F,1,3730,6257,1,0
Sprite,Background,Centre,"SB\sakura1.png",320,240 S,0,2467,,0.82592 M,1,2467,8151,390,-22,-52,340 R,1,2467,8152,0,-12.63616 F,1,5625,8152,1,0 M,0,8151,8152,-52,340,103,501
Sprite,Background,Centre,"SB\sakura2.png",320,240 S,0,7520,,1 M,0,7520,11783,387,-12,675,359 R,1,7520,11783,-5.65248,0 F,0,10046,11783,1,0
Sprite,Background,Centre,"SB\BG effect4.jpg",320,240 M,0,167776,,320,240 S,0,167776,167892,1,1.10889 F,0,167776,169622,1,0 S,0,167892,169622,1.10889,1.13297
Sprite,Background,Centre,"SB\BG effect4.jpg",320,240 S,0,182545,182776,1,1.12033 F,0,182545,184392,1,0 S,0,182776,184392,1.12033,1.14336
Sprite,Background,Centre,"SB\BG effect2.jpg",320,240 M,0,108699,,320,240 S,0,108699,108815,1,1.1058 F,0,108699,110545,1,0 S,0,108815,110545,1.1058,1.13312
Sprite,Background,Centre,"SB\BG effect5.jpg",320,240 S,0,197315,197430,1,1.12288 F,0,197315,199161,1,0 S,0,197430,199161,1.12288,1.18432
Sprite,Background,Centre,"SB\kira.png",320,240 M,0,167199,,353,267 F,0,167199,167314,0,1 S,0,167199,167430,0.3446399,0.6108801 R,0,167199,167430,0,-0.4095999 F,0,167314,167430,1,0
Sprite,Background,Centre,"SB\kira.png",320,240 F,0,167084,167199,0,1 S,0,167084,167315,0.1,0.3548799 R,0,167084,167315,0,-1.04448 F,0,167199,167315,1,0
Sprite,Background,Centre,"SB\kira.png",320,240 M,0,182315,,220,309 F,0,182315,182430,1 S,0,182315,182546,0.3446399,1 R,0,182315,182546,0,0.45056 F,0,182430,182546,1,0
Sprite,Background,Centre,"SB\kira.png",320,240 M,0,182084,,493,164 F,0,182084,182199,1 S,0,182084,182315,0.3446399,1 R,0,182084,182315,0,0.45056 F,0,182199,182315,1,0
Sprite,Background,Centre,"SB\kira.png",320,240 M,0,181622,,164,183 F,0,181622,181737,1 S,0,181622,181853,0.3446399,1 R,0,181622,181853,0,0.45056 F,0,181737,181853,1,0
Sprite,Background,Centre,"BG.jpg",320,240
//Storyboard Layer 1 (Fail)
//Storyboard Layer 2 (Pass)
//Storyboard Layer 3 (Foreground)
Sprite,Foreground,Centre,"SB\dot.png",320,240 F,0,19417,21322,1 M,0,19417,21722,470,518,470,24 S,0,19417,21722,0.65 F,0,21322,21722,1,0
Sprite,Foreground,Centre,"SB\dot.png",320,240 F,0,20059,21867,1 M,0,20059,22267,133,511,133,138 S,0,20059,22267,0.39 F,0,21867,22267,1,0
Sprite,Foreground,Centre,"SB\dot.png",320,240 F,0,19519,21586,1 M,0,19519,21986,155,503,155,80 S,0,19519,21986,0.47 F,0,21586,21986,1,0
Sprite,Foreground,Centre,"SB\dot.png",320,240 F,0,19944,21368,1 M,0,19944,21768,522,500,522,146 S,0,19944,21768,0.62 F,0,21368,21768,1,0
Sprite,Foreground,Centre,"SB\dot.png",320,240 F,0,19354,21494,1 M,0,19354,21894,75,510,75,162 S,0,19354,21894,0.92 F,0,21494,21894,1,0
Sprite,Foreground,Centre,"SB\dot.png",320,240 F,0,19935,21703,1 M,0,19935,22103,323,505,323,108 S,0,19935,22103,0.93 F,0,21703,22103,1,0
Sprite,Foreground,Centre,"SB\dot.png",320,240 F,0,19151,21677,1 M,0,19151,22077,507,512,507,218 S,0,19151,22077,0.85 F,0,21677,22077,1,0
Sprite,Foreground,Centre,"SB\dot.png",320,240 F,0,18973,21660,1 M,0,18973,22060,49,517,49,119 S,0,18973,22060,0.4 F,0,21660,22060,1,0
Sprite,Foreground,Centre,"SB\dot.png",320,240 F,0,19766,22147,1 M,0,19766,22547,87,514,87,117 S,0,19766,22547,0.66 F,0,22147,22547,1,0
Sprite,Foreground,Centre,"SB\dot.png",320,240 F,0,19298,21029,1 M,0,19298,21429,45,509,45,191 S,0,19298,21429,0.77 F,0,21029,21429,1,0
Sprite,Foreground,Centre,"SB\dot.png",320,240 F,0,19284,21653,1 M,0,19284,22053,219,508,219,217 S,0,19284,22053,0.87 F,0,21653,22053,1,0
Sprite,Foreground,Centre,"SB\dot.png",320,240 F,0,19118,22254,1 M,0,19118,22654,511,517,511,110 S,0,19118,22654,0.71 F,0,22254,22654,1,0
Sprite,Foreground,Centre,"SB\dot.png",320,240 F,0,19329,21866,1 M,0,19329,22266,85,500,85,204 S,0,19329,22266,0.67 F,0,21866,22266,1,0
Sprite,Foreground,Centre,"SB\dot.png",320,240 F,0,20116,21884,1 M,0,20116,22284,595,517,595,134 S,0,20116,22284,0.68 F,0,21884,22284,1,0
Sprite,Foreground,Centre,"SB\dot.png",320,240 F,0,20117,21786,1 M,0,20117,22186,153,500,153,33 S,0,20117,22186,0.26 F,0,21786,22186,1,0
Sprite,Foreground,Centre,"SB\dot.png",320,240 F,0,20710,22986,1 M,0,20710,23386,15,515,15,176 S,0,20710,23386,0.91 F,0,22986,23386,1,0
Sprite,Foreground,Centre,"SB\dot.png",320,240 F,0,20206,22898,1 M,0,20206,23298,297,504,297,167 S,0,20206,23298,0.65 F,0,22898,23298,1,0
Sprite,Foreground,Centre,"SB\dot.png",320,240 F,0,21247,23274,1 M,0,21247,23674,41,507,41,4 S,0,21247,23674,0.23 F,0,23274,23674,1,0
Sprite,Foreground,Centre,"SB\dot.png",320,240 F,0,20279,23323,1 M,0,20279,23723,575,510,575,23 S,0,20279,23723,0.69 F,0,23323,23723,1,0
Sprite,Foreground,Centre,"SB\dot.png",320,240 F,0,21211,22762,1 M,0,21211,23162,8,511,8,210 S,0,21211,23162,0.29 F,0,22762,23162,1,0
Sprite,Foreground,Centre,"SB\dot.png",320,240 F,0,20648,22608,1 M,0,20648,23008,526,505,526,92 S,0,20648,23008,0.74 F,0,22608,23008,1,0
Sprite,Foreground,Centre,"SB\dot.png",320,240 F,0,20596,22721,1 M,0,20596,23121,214,502,214,106 S,0,20596,23121,0.73 F,0,22721,23121,1,0
Sprite,Foreground,Centre,"SB\dot.png",320,240 F,0,20445,22850,1 M,0,20445,23250,93,513,93,49 S,0,20445,23250,0.84 F,0,22850,23250,1,0
Sprite,Foreground,Centre,"SB\dot.png",320,240 F,0,21390,22599,1 M,0,21390,22999,-5,519,-5,198 S,0,21390,22999,0.44 F,0,22599,22999,1,0
Sprite,Foreground,Centre,"SB\dot.png",320,240 F,0,20773,23299,1 M,0,20773,23699,619,510,619,205 S,0,20773,23699,0.32 F,0,23299,23699,1,0
Sprite,Foreground,Centre,"SB\dot.png",320,240 F,0,21139,22885,1 M,0,21139,23285,377,509,377,101 S,0,21139,23285,0.46 F,0,22885,23285,1,0
Sprite,Foreground,Centre,"SB\dot.png",320,240 F,0,20258,22459,1 M,0,20258,22859,483,507,483,97 S,0,20258,22859,0.2 F,0,22459,22859,1,0
Sprite,Foreground,Centre,"SB\dot.png",320,240 F,0,21218,23206,1 M,0,21218,23606,491,503,491,116 S,0,21218,23606,0.32 F,0,23206,23606,1,0
Sprite,Foreground,Centre,"SB\dot.png",320,240 F,0,20919,22454,1 M,0,20919,22854,322,504,322,83 S,0,20919,22854,0.89 F,0,22454,22854,1,0
Sprite,Foreground,Centre,"SB\dot.png",320,240 F,0,20781,22422,1 M,0,20781,22822,364,517,364,141 S,0,20781,22822,0.29 F,0,22422,22822,1,0
Sprite,Foreground,Centre,"SB\dot.png",320,240 F,0,22337,24679,1 M,0,22337,25079,529,513,529,122 S,0,22337,25079,0.46 F,0,24679,25079,1,0
Sprite,Foreground,Centre,"SB\dot.png",320,240 F,0,21917,23580,1 M,0,21917,23980,647,500,647,35 S,0,21917,23980,0.21 F,0,23580,23980,1,0
Sprite,Foreground,Centre,"SB\dot.png",320,240 F,0,22045,24309,1 M,0,22045,24709,263,514,263,193 S,0,22045,24709,0.93 F,0,24309,24709,1,0
Sprite,Foreground,Centre,"SB\dot.png",320,240 F,0,22550,23821,1 M,0,22550,24221,223,504,223,111 S,0,22550,24221,0.72 F,0,23821,24221,1,0
Sprite,Foreground,Centre,"SB\dot.png",320,240 F,0,21993,24146,1 M,0,21993,24546,286,519,286,200 S,0,21993,24546,0.28 F,0,24146,24546,1,0
Sprite,Foreground,Centre,"SB\dot.png",320,240 F,0,22327,24409,1 M,0,22327,24809,46,508,46,128 S,0,22327,24809,0.7 F,0,24409,24809,1,0
Sprite,Foreground,Centre,"SB\dot.png",320,240 F,0,21418,23976,1 M,0,21418,24376,77,508,77,124 S,0,21418,24376,0.95 F,0,23976,24376,1,0
Sprite,Foreground,Centre,"SB\dot.png",320,240 F,0,21653,24563,1 M,0,21653,24963,563,517,563,184 S,0,21653,24963,0.74 F,0,24563,24963,1,0
Sprite,Foreground,Centre,"SB\dot.png",320,240 F,0,22226,23864,1 M,0,22226,24264,540,507,540,182 S,0,22226,24264,0.25 F,0,23864,24264,1,0
Sprite,Foreground,Centre,"SB\dot.png",320,240 F,0,22193,23929,1 M,0,22193,24329,263,519,263,71 S,0,22193,24329,0.62 F,0,23929,24329,1,0
Sprite,Foreground,Centre,"SB\dot.png",320,240 F,0,21631,24229,1 M,0,21631,24629,516,506,516,117 S,0,21631,24629,0.27 F,0,24229,24629,1,0
Sprite,Foreground,Centre,"SB\dot.png",320,240 F,0,22644,24697,1 M,0,22644,25097,506,503,506,109 S,0,22644,25097,0.63 F,0,24697,25097,1,0
Sprite,Foreground,Centre,"SB\dot.png",320,240 F,0,21447,23717,1 M,0,21447,24117,350,502,350,21 S,0,21447,24117,0.42 F,0,23717,24117,1,0
Sprite,Foreground,Centre,"SB\dot.png",320,240 F,0,22031,23804,1 M,0,22031,24204,470,519,470,196 S,0,22031,24204,0.21 F,0,23804,24204,1,0
Sprite,Foreground,Centre,"SB\dot.png",320,240 F,0,22047,24199,1 M,0,22047,24599,500,505,500,209 S,0,22047,24599,0.85 F,0,24199,24599,1,0
Sprite,Foreground,Centre,"SB\dot.png",320,240 F,0,23522,25395,1 M,0,23522,25795,395,502,395,144 S,0,23522,25795,0.95 F,0,25395,25795,1,0
Sprite,Foreground,Centre,"SB\dot.png",320,240 F,0,23667,25268,1 M,0,23667,25668,210,506,210,55 S,0,23667,25668,0.58 F,0,25268,25668,1,0
Sprite,Foreground,Centre,"SB\dot.png",320,240 F,0,23174,25137,1 M,0,23174,25537,331,514,331,9 S,0,23174,25537,0.93 F,0,25137,25537,1,0
Sprite,Foreground,Centre,"SB\dot.png",320,240 F,0,22771,24807,1 M,0,22771,25207,293,500,293,52 S,0,22771,25207,0.63 F,0,24807,25207,1,0
Sprite,Foreground,Centre,"SB\dot.png",320,240 F,0,23291,25783,1 M,0,23291,26183,230,505,230,53 S,0,23291,26183,0.73 F,0,25783,26183,1,0
Sprite,Foreground,Centre,"SB\dot.png",320,240 F,0,23902,25164,1 M,0,23902,25564,593,503,593,8 S,0,23902,25564,0.7 F,0,25164,25564,1,0
Sprite,Foreground,Centre,"SB\dot.png",320,240 F,0,23818,25825,1 M,0,23818,26225,584,511,584,18 S,0,23818,26225,0.54 F,0,25825,26225,1,0
Sprite,Foreground,Centre,"SB\dot.png",320,240 F,0,22777,25862,1 M,0,22777,26262,310,510,310,128 S,0,22777,26262,0.7 F,0,25862,26262,1,0
Sprite,Foreground,Centre,"SB\dot.png",320,240 F,0,23418,25579,1 M,0,23418,25979,540,510,540,83 S,0,23418,25979,0.94 F,0,25579,25979,1,0
Sprite,Foreground,Centre,"SB\dot.png",320,240 F,0,23585,26040,1 M,0,23585,26440,624,506,624,154 S,0,23585,26440,0.66 F,0,26040,26440,1,0
Sprite,Foreground,Centre,"SB\dot.png",320,240 F,0,23224,25505,1 M,0,23224,25905,488,519,488,66 S,0,23224,25905,0.6 F,0,25505,25905,1,0
Sprite,Foreground,Centre,"SB\dot.png",320,240 F,0,23903,25059,1 M,0,23903,25459,187,517,187,103 S,0,23903,25459,0.53 F,0,25059,25459,1,0
Sprite,Foreground,Centre,"SB\dot.png",320,240 F,0,23924,25436,1 M,0,23924,25836,426,511,426,205 S,0,23924,25836,0.51 F,0,25436,25836,1,0
Sprite,Foreground,Centre,"SB\dot.png",320,240 F,0,23826,25255,1 M,0,23826,25655,303,514,303,211 S,0,23826,25655,0.58 F,0,25255,25655,1,0
Sprite,Foreground,Centre,"SB\dot.png",320,240 F,0,22735,25424,1 M,0,22735,25824,296,502,296,87 S,0,22735,25824,0.67 F,0,25424,25824,1,0
Sprite,Foreground,Centre,"SB\dot.png",320,240 F,0,24516,26430,1 M,0,24516,26830,231,501,231,3 S,0,24516,26830,0.8 F,0,26430,26830,1,0
Sprite,Foreground,Centre,"SB\dot.png",320,240 F,0,24693,26605,1 M,0,24693,27005,631,520,631,18 S,0,24693,27005,0.9 F,0,26605,27005,1,0
Sprite,Foreground,Centre,"SB\dot.png",320,240 F,0,24211,26433,1 M,0,24211,26833,356,520,356,44 S,0,24211,26833,0.82 F,0,26433,26833,1,0
Sprite,Foreground,Centre,"SB\dot.png",320,240 F,0,24388,27252,1 M,0,24388,27652,340,506,340,178 S,0,24388,27652,0.51 F,0,27252,27652,1,0
Sprite,Foreground,Centre,"SB\dot.png",320,240 F,0,24091,26883,1 M,0,24091,27283,14,513,14,219 S,0,24091,27283,0.68 F,0,26883,27283,1,0
Sprite,Foreground,Centre,"SB\dot.png",320,240 F,0,24714,26269,1 M,0,24714,26669,596,500,596,90 S,0,24714,26669,0.78 F,0,26269,26669,1,0
Sprite,Foreground,Centre,"SB\dot.png",320,240 F,0,24226,27053,1 M,0,24226,27453,403,519,403,226 S,0,24226,27453,0.71 F,0,27053,27453,1,0
Sprite,Foreground,Centre,"SB\dot.png",320,240 F,0,24453,26505,1 M,0,24453,26905,620,507,620,83 S,0,24453,26905,0.43 F,0,26505,26905,1,0
Sprite,Foreground,Centre,"SB\dot.png",320,240 F,0,24636,26095,1 M,0,24636,26495,549,509,549,188 S,0,24636,26495,0.73 F,0,26095,26495,1,0
Sprite,Foreground,Centre,"SB\dot.png",320,240 F,0,24894,27276,1 M,0,24894,27676,157,517,157,222 S,0,24894,27676,0.43 F,0,27276,27676,1,0
Sprite,Foreground,Centre,"SB\dot.png",320,240 F,0,24876,26797,1 M,0,24876,27197,587,510,587,159 S,0,24876,27197,0.89 F,0,26797,27197,1,0
Sprite,Foreground,Centre,"SB\dot.png",320,240 F,0,25182,26449,1 M,0,25182,26849,579,517,579,192 S,0,25182,26849,0.46 F,0,26449,26849,1,0
Sprite,Foreground,Centre,"SB\dot.png",320,240 F,0,24337,26209,1 M,0,24337,26609,487,508,487,184 S,0,24337,26609,0.44 F,0,26209,26609,1,0
Sprite,Foreground,Centre,"SB\dot.png",320,240 F,0,24100,26242,1 M,0,24100,26642,62,506,62,106 S,0,24100,26642,0.55 F,0,26242,26642,1,0
Sprite,Foreground,Centre,"SB\dot.png",320,240 F,0,24021,26474,1 M,0,24021,26874,344,519,344,229 S,0,24021,26874,0.3 F,0,26474,26874,1,0
Sprite,Foreground,Centre,"SB\dot.png",320,240 F,0,26249,28186,1 M,0,26249,28586,297,511,297,114 S,0,26249,28586,0.49 F,0,28186,28586,1,0
Sprite,Foreground,Centre,"SB\dot.png",320,240 F,0,25713,28535,1 M,0,25713,28935,270,501,270,208 S,0,25713,28935,0.66 F,0,28535,28935,1,0
Sprite,Foreground,Centre,"SB\dot.png",320,240 F,0,25455,28301,1 M,0,25455,28701,86,502,86,221 S,0,25455,28701,0.61 F,0,28301,28701,1,0
Sprite,Foreground,Centre,"SB\dot.png",320,240 F,0,26190,28481,1 M,0,26190,28881,465,510,465,79 S,0,26190,28881,0.57 F,0,28481,28881,1,0
Sprite,Foreground,Centre,"SB\dot.png",320,240 F,0,25808,28586,1 M,0,25808,28986,80,505,80,105 S,0,25808,28986,0.3 F,0,28586,28986,1,0
Sprite,Foreground,Centre,"SB\dot.png",320,240 F,0,26458,28056,1 M,0,26458,28456,196,506,196,121 S,0,26458,28456,0.25 F,0,28056,28456,1,0
Sprite,Foreground,Centre,"SB\dot.png",320,240 F,0,25523,28542,1 M,0,25523,28942,42,510,42,148 S,0,25523,28942,0.78 F,0,28542,28942,1,0
Sprite,Foreground,Centre,"SB\dot.png",320,240 F,0,26003,27812,1 M,0,26003,28212,622,515,622,127 S,0,26003,28212,0.67 F,0,27812,28212,1,0
Sprite,Foreground,Centre,"SB\dot.png",320,240 F,0,25300,27481,1 M,0,25300,27881,90,512,90,97 S,0,25300,27881,0.42 F,0,27481,27881,1,0
Sprite,Foreground,Centre,"SB\dot.png",320,240 F,0,25802,28019,1 M,0,25802,28419,491,520,491,192 S,0,25802,28419,0.87 F,0,28019,28419,1,0
Sprite,Foreground,Centre,"SB\dot.png",320,240 F,0,26200,27370,1 M,0,26200,27770,428,515,428,115 S,0,26200,27770,0.39 F,0,27370,27770,1,0
Sprite,Foreground,Centre,"SB\dot.png",320,240 F,0,26376,27859,1 M,0,26376,28259,85,513,85,133 S,0,26376,28259,0.27 F,0,27859,28259,1,0
Sprite,Foreground,Centre,"SB\dot.png",320,240 F,0,25912,28202,1 M,0,25912,28602,575,515,575,124 S,0,25912,28602,0.76 F,0,28202,28602,1,0
Sprite,Foreground,Centre,"SB\dot.png",320,240 F,0,25359,28563,1 M,0,25359,28963,544,512,544,206 S,0,25359,28963,0.7 F,0,28563,28963,1,0
Sprite,Foreground,Centre,"SB\dot.png",320,240 F,0,25964,28589,1 M,0,25964,28989,111,517,111,10 S,0,25964,28989,0.97 F,0,28589,28989,1,0
Sprite,Foreground,Centre,"SB\dot.png",320,240 F,0,26541,29231,1 M,0,26541,29631,606,514,606,92 S,0,26541,29631,0.29 F,0,29231,29631,1,0
Sprite,Foreground,Centre,"SB\dot.png",320,240 F,0,27510,29468,1 M,0,27510,29868,538,519,538,112 S,0,27510,29868,0.58 F,0,29468,29868,1,0
Sprite,Foreground,Centre,"SB\dot.png",320,240 F,0,26749,29235,1 M,0,26749,29635,380,515,380,151 S,0,26749,29635,0.52 F,0,29235,29635,1,0
Sprite,Foreground,Centre,"SB\dot.png",320,240 F,0,26883,28957,1 M,0,26883,29357,549,514,549,219 S,0,26883,29357,0.78 F,0,28957,29357,1,0
Sprite,Foreground,Centre,"SB\dot.png",320,240 F,0,27489,28995,1 M,0,27489,29395,114,518,114,96 S,0,27489,29395,0.47 F,0,28995,29395,1,0
Sprite,Foreground,Centre,"SB\dot.png",320,240 F,0,27348,29325,1 M,0,27348,29725,581,520,581,38 S,0,27348,29725,0.59 F,0,29325,29725,1,0
Sprite,Foreground,Centre,"SB\dot.png",320,240 F,0,27663,29781,1 M,0,27663,30181,-8,510,-8,221 S,0,27663,30181,0.43 F,0,29781,30181,1,0
Sprite,Foreground,Centre,"SB\dot.png",320,240 F,0,27499,29537,1 M,0,27499,29937,84,510,84,228 S,0,27499,29937,0.25 F,0,29537,29937,1,0
Sprite,Foreground,Centre,"SB\dot.png",320,240 F,0,26585,29614,1 M,0,26585,30014,636,516,636,227 S,0,26585,30014,0.58 F,0,29614,30014,1,0
Sprite,Foreground,Centre,"SB\dot.png",320,240 F,0,27553,28783,1 M,0,27553,29183,478,502,478,155 S,0,27553,29183,0.78 F,0,28783,29183,1,0
Sprite,Foreground,Centre,"SB\dot.png",320,240 F,0,27560,29173,1 M,0,27560,29573,403,519,403,230 S,0,27560,29573,0.84 F,0,29173,29573,1,0
Sprite,Foreground,Centre,"SB\dot.png",320,240 F,0,26934,29308,1 M,0,26934,29708,409,519,409,6 S,0,26934,29708,0.58 F,0,29308,29708,1,0
Sprite,Foreground,Centre,"SB\dot.png",320,240 F,0,27470,28911,1 M,0,27470,29311,640,513,640,177 S,0,27470,29311,0.21 F,0,28911,29311,1,0
Sprite,Foreground,Centre,"SB\dot.png",320,240 F,0,26721,29137,1 M,0,26721,29537,474,500,474,71 S,0,26721,29537,0.88 F,0,29137,29537,1,0
Sprite,Foreground,Centre,"SB\dot.png",320,240 F,0,27491,28709,1 M,0,27491,29109,135,505,135,125 S,0,27491,29109,0.45 F,0,28709,29109,1,0
Sprite,Foreground,Centre,"SB\dot.png",320,240 F,0,28941,30330,1 M,0,28941,30730,470,500,470,107 S,0,28941,30730,0.4 F,0,30330,30730,1,0
Sprite,Foreground,Centre,"SB\dot.png",320,240 F,0,28002,30839,1 M,0,28002,31239,546,506,546,34 S,0,28002,31239,0.24 F,0,30839,31239,1,0
Sprite,Foreground,Centre,"SB\dot.png",320,240 F,0,28912,31060,1 M,0,28912,31460,219,503,219,15 S,0,28912,31460,0.25 F,0,31060,31460,1,0
Sprite,Foreground,Centre,"SB\dot.png",320,240 F,0,28485,30181,1 M,0,28485,30581,611,506,611,171 S,0,28485,30581,0.96 F,0,30181,30581,1,0
Sprite,Foreground,Centre,"SB\dot.png",320,240 F,0,28171,30333,1 M,0,28171,30733,625,520,625,163 S,0,28171,30733,0.32 F,0,30333,30733,1,0
Sprite,Foreground,Centre,"SB\dot.png",320,240 F,0,28228,30753,1 M,0,28228,31153,252,502,252,34 S,0,28228,31153,0.64 F,0,30753,31153,1,0
Sprite,Foreground,Centre,"SB\dot.png",320,240 F,0,28425,30994,1 M,0,28425,31394,565,509,565,218 S,0,28425,31394,0.53 F,0,30994,31394,1,0
Sprite,Foreground,Centre,"SB\dot.png",320,240 F,0,27888,30240,1 M,0,27888,30640,-9,518,-9,220 S,0,27888,30640,0.35 F,0,30240,30640,1,0
Sprite,Foreground,Centre,"SB\dot.png",320,240 F,0,28920,30302,1 M,0,28920,30702,639,500,639,209 S,0,28920,30702,0.53 F,0,30302,30702,1,0
Sprite,Foreground,Centre,"SB\dot.png",320,240 F,0,28857,30985,1 M,0,28857,31385,17,508,17,105 S,0,28857,31385,0.97 F,0,30985,31385,1,0
Sprite,Foreground,Centre,"SB\dot.png",320,240 F,0,28210,31061,1 M,0,28210,31461,432,501,432,44 S,0,28210,31461,0.97 F,0,31061,31461,1,0
Sprite,Foreground,Centre,"SB\dot.png",320,240 F,0,28411,30206,1 M,0,28411,30606,88,519,88,15 S,0,28411,30606,0.44 F,0,30206,30606,1,0
Sprite,Foreground,Centre,"SB\dot.png",320,240 F,0,28175,30948,1 M,0,28175,31348,68,504,68,147 S,0,28175,31348,0.58 F,0,30948,31348,1,0
Sprite,Foreground,Centre,"SB\dot.png",320,240 F,0,28133,30758,1 M,0,28133,31158,132,513,132,73 S,0,28133,31158,0.78 F,0,30758,31158,1,0
Sprite,Foreground,Centre,"SB\dot.png",320,240 F,0,28288,30934,1 M,0,28288,31334,295,502,295,132 S,0,28288,31334,0.47 F,0,30934,31334,1,0
Sprite,Foreground,Centre,"SB\dot.png",320,240 F,0,29219,32316,1 M,0,29219,32716,571,513,571,147 S,0,29219,32716,0.27 F,0,32316,32716,1,0
Sprite,Foreground,Centre,"SB\dot.png",320,240 F,0,30129,31197,1 M,0,30129,31597,327,508,327,221 S,0,30129,31597,0.25 F,0,31197,31597,1,0
Sprite,Foreground,Centre,"SB\dot.png",320,240 F,0,30072,32140,1 M,0,30072,32540,208,500,208,165 S,0,30072,32540,0.52 F,0,32140,32540,1,0
Sprite,Foreground,Centre,"SB\dot.png",320,240 F,0,30024,31202,1 M,0,30024,31602,36,500,36,147 S,0,30024,31602,0.32 F,0,31202,31602,1,0
Sprite,Foreground,Centre,"SB\dot.png",320,240 F,0,30034,31945,1 M,0,30034,32345,630,511,630,213 S,0,30034,32345,0.71 F,0,31945,32345,1,0
Sprite,Foreground,Centre,"SB\dot.png",320,240 F,0,29034,31192,1 M,0,29034,31592,304,515,304,154 S,0,29034,31592,0.64 F,0,31192,31592,1,0
Sprite,Foreground,Centre,"SB\dot.png",320,240 F,0,30090,31432,1 M,0,30090,31832,362,501,362,53 S,0,30090,31832,0.31 F,0,31432,31832,1,0
Sprite,Foreground,Centre,"SB\dot.png",320,240 F,0,29275,32356,1 M,0,29275,32756,351,505,351,92 S,0,29275,32756,0.5 F,0,32356,32756,1,0
Sprite,Foreground,Centre,"SB\dot.png",320,240 F,0,29066,31316,1 M,0,29066,31716,165,512,165,156 S,0,29066,31716,0.64 F,0,31316,31716,1,0
Sprite,Foreground,Centre,"SB\dot.png",320,240 F,0,29603,31903,1 M,0,29603,32303,263,515,263,195 S,0,29603,32303,0.65 F,0,31903,32303,1,0
Sprite,Foreground,Centre,"SB\dot.png",320,240 F,0,29485,31160,1 M,0,29485,31560,402,507,402,24 S,0,29485,31560,0.41 F,0,31160,31560,1,0
Sprite,Foreground,Centre,"SB\dot.png",320,240 F,0,29148,31131,1 M,0,29148,31531,395,516,395,198 S,0,29148,31531,0.93 F,0,31131,31531,1,0
Sprite,Foreground,Centre,"SB\dot.png",320,240 F,0,30254,32168,1 M,0,30254,32568,82,516,82,39 S,0,30254,32568,0.25 F,0,32168,32568,1,0
Sprite,Foreground,Centre,"SB\dot.png",320,240 F,0,29396,31374,1 M,0,29396,31774,159,500,159,152 S,0,29396,31774,0.42 F,0,31374,31774,1,0
Sprite,Foreground,Centre,"SB\dot.png",320,240 F,0,29008,32016,1 M,0,29008,32416,318,509,318,118 S,0,29008,32416,0.33 F,0,32016,32416,1,0
Sprite,Foreground,Centre,"SB\dot.png",320,240 F,0,30420,33448,1 M,0,30420,33848,388,514,388,153 S,0,30420,33848,0.68 F,0,33448,33848,1,0
Sprite,Foreground,Centre,"SB\dot.png",320,240 F,0,30844,33503,1 M,0,30844,33903,600,520,600,53 S,0,30844,33903,0.4 F,0,33503,33903,1,0
Sprite,Foreground,Centre,"SB\dot.png",320,240 F,0,31153,33199,1 M,0,31153,33599,643,506,643,12 S,0,31153,33599,0.56 F,0,33199,33599,1,0
Sprite,Foreground,Centre,"SB\dot.png",320,240 F,0,31485,33272,1 M,0,31485,33672,35,519,35,90 S,0,31485,33672,0.35 F,0,33272,33672,1,0
Sprite,Foreground,Centre,"SB\dot.png",320,240 F,0,30825,32523,1 M,0,30825,32923,512,516,512,33 S,0,30825,32923,0.67 F,0,32523,32923,1,0
Sprite,Foreground,Centre,"SB\dot.png",320,240 F,0,31430,32598,1 M,0,31430,32998,100,514,100,204 S,0,31430,32998,0.28 F,0,32598,32998,1,0
Sprite,Foreground,Centre,"SB\dot.png",320,240 F,0,30938,32560,1 M,0,30938,32960,366,507,366,154 S,0,30938,32960,0.86 F,0,32560,32960,1,0
Sprite,Foreground,Centre,"SB\dot.png",320,240 F,0,30530,33242,1 M,0,30530,33642,408,518,408,142 S,0,30530,33642,0.51 F,0,33242,33642,1,0
Sprite,Foreground,Centre,"SB\dot.png",320,240 F,0,31101,32802,1 M,0,31101,33202,149,502,149,19 S,0,31101,33202,0.77 F,0,32802,33202,1,0
Sprite,Foreground,Centre,"SB\dot.png",320,240 F,0,30944,32828,1 M,0,30944,33228,112,504,112,140 S,0,30944,33228,0.71 F,0,32828,33228,1,0
Sprite,Foreground,Centre,"SB\dot.png",320,240 F,0,31313,33307,1 M,0,31313,33707,351,514,351,60 S,0,31313,33707,0.94 F,0,33307,33707,1,0
Sprite,Foreground,Centre,"SB\dot.png",320,240 F,0,30481,33007,1 M,0,30481,33407,277,506,277,150 S,0,30481,33407,0.32 F,0,33007,33407,1,0
Sprite,Foreground,Centre,"SB\dot.png",320,240 F,0,30395,32618,1 M,0,30395,33018,117,515,117,200 S,0,30395,33018,0.54 F,0,32618,33018,1,0
Sprite,Foreground,Centre,"SB\dot.png",320,240 F,0,30678,33466,1 M,0,30678,33866,357,505,357,111 S,0,30678,33866,0.65 F,0,33466,33866,1,0
Sprite,Foreground,Centre,"SB\dot.png",320,240 F,0,30715,32881,1 M,0,30715,33281,64,512,64,30 S,0,30715,33281,0.28 F,0,32881,33281,1,0
Sprite,Foreground,Centre,"SB\dot.png",320,240 F,0,32021,34481,1 M,0,32021,34881,46,520,46,44 S,0,32021,34881,0.41 F,0,34481,34881,1,0
Sprite,Foreground,Centre,"SB\dot.png",320,240 F,0,32372,34439,1 M,0,32372,34839,203,513,203,29 S,0,32372,34839,0.98 F,0,34439,34839,1,0
Sprite,Foreground,Centre,"SB\dot.png",320,240 F,0,31559,33996,1 M,0,31559,34396,141,517,141,156 S,0,31559,34396,0.41 F,0,33996,34396,1,0
Sprite,Foreground,Centre,"SB\dot.png",320,240 F,0,32494,34683,1 M,0,32494,35083,438,508,438,150 S,0,32494,35083,0.97 F,0,34683,35083,1,0
Sprite,Foreground,Centre,"SB\dot.png",320,240 F,0,31779,34158,1 M,0,31779,34558,623,514,623,154 S,0,31779,34558,0.72 F,0,34158,34558,1,0
Sprite,Foreground,Centre,"SB\dot.png",320,240 F,0,32496,34657,1 M,0,32496,35057,319,504,319,112 S,0,32496,35057,0.34 F,0,34657,35057,1,0
Sprite,Foreground,Centre,"SB\dot.png",320,240 F,0,31592,34451,1 M,0,31592,34851,149,518,149,111 S,0,31592,34851,0.35 F,0,34451,34851,1,0
Sprite,Foreground,Centre,"SB\dot.png",320,240 F,0,32030,33733,1 M,0,32030,34133,609,504,609,34 S,0,32030,34133,0.61 F,0,33733,34133,1,0
Sprite,Foreground,Centre,"SB\dot.png",320,240 F,0,31899,34419,1 M,0,31899,34819,542,510,542,192 S,0,31899,34819,0.58 F,0,34419,34819,1,0
Sprite,Foreground,Centre,"SB\dot.png",320,240 F,0,31807,34300,1 M,0,31807,34700,281,516,281,119 S,0,31807,34700,0.81 F,0,34300,34700,1,0
Sprite,Foreground,Centre,"SB\dot.png",320,240 F,0,32769,33905,1 M,0,32769,34305,62,505,62,219 S,0,32769,34305,0.3 F,0,33905,34305,1,0
Sprite,Foreground,Centre,"SB\dot.png",320,240 F,0,32530,34866,1 M,0,32530,35266,613,510,613,125 S,0,32530,35266,0.85 F,0,34866,35266,1,0
Sprite,Foreground,Centre,"SB\dot.png",320,240 F,0,32004,34089,1 M,0,32004,34489,644,509,644,1 S,0,32004,34489,0.26 F,0,34089,34489,1,0
Sprite,Foreground,Centre,"SB\dot.png",320,240 F,0,32019,34095,1 M,0,32019,34495,297,507,297,90 S,0,32019,34495,0.75 F,0,34095,34495,1,0
Sprite,Foreground,Centre,"SB\dot.png",320,240 F,0,31648,33671,1 M,0,31648,34071,306,501,306,56 S,0,31648,34071,0.39 F,0,33671,34071,1,0
Sprite,Foreground,Centre,"SB\dot.png",320,240 F,0,34036,35000,1 M,0,34036,35400,351,503,351,216 S,0,34036,35400,0.85 F,0,35000,35400,1,0
Sprite,Foreground,Centre,"SB\dot.png",320,240 F,0,33567,36070,1 M,0,33567,36470,525,504,525,48 S,0,33567,36470,0.37 F,0,36070,36470,1,0
Sprite,Foreground,Centre,"SB\dot.png",320,240 F,0,34025,35902,1 M,0,34025,36302,272,501,272,30 S,0,34025,36302,0.24 F,0,35902,36302,1,0
Sprite,Foreground,Centre,"SB\dot.png",320,240 F,0,33875,34968,1 M,0,33875,35368,586,509,586,136 S,0,33875,35368,0.28 F,0,34968,35368,1,0
Sprite,Foreground,Centre,"SB\dot.png",320,240 F,0,32980,35467,1 M,0,32980,35867,499,518,499,26 S,0,32980,35867,0.43 F,0,35467,35867,1,0
Sprite,Foreground,Centre,"SB\dot.png",320,240 F,0,33315,35250,1 M,0,33315,35650,106,512,106,217 S,0,33315,35650,0.59 F,0,35250,35650,1,0
Sprite,Foreground,Centre,"SB\dot.png",320,240 F,0,33569,35932,1 M,0,33569,36332,559,520,559,137 S,0,33569,36332,0.76 F,0,35932,36332,1,0
Sprite,Foreground,Centre,"SB\dot.png",320,240 F,0,33330,35720,1 M,0,33330,36120,621,512,621,144 S,0,33330,36120,0.45 F,0,35720,36120,1,0
Sprite,Foreground,Centre,"SB\dot.png",320,240 F,0,33752,36117,1 M,0,33752,36517,340,503,340,193 S,0,33752,36517,0.98 F,0,36117,36517,1,0
Sprite,Foreground,Centre,"SB\dot.png",320,240 F,0,34034,36045,1 M,0,34034,36445,382,514,382,70 S,0,34034,36445,0.77 F,0,36045,36445,1,0
Sprite,Foreground,Centre,"SB\dot.png",320,240 F,0,33382,35979,1 M,0,33382,36379,553,514,553,52 S,0,33382,36379,0.58 F,0,35979,36379,1,0
Sprite,Foreground,Centre,"SB\dot.png",320,240 F,0,33514,34938,1 M,0,33514,35338,393,520,393,53 S,0,33514,35338,0.7 F,0,34938,35338,1,0
Sprite,Foreground,Centre,"SB\dot.png",320,240 F,0,33572,35586,1 M,0,33572,35986,494,500,494,127 S,0,33572,35986,0.98 F,0,35586,35986,1,0
Sprite,Foreground,Centre,"SB\dot.png",320,240 F,0,32992,36050,1 M,0,32992,36450,77,520,77,48 S,0,32992,36450,0.69 F,0,36050,36450,1,0
Sprite,Foreground,Centre,"SB\dot.png",320,240 F,0,33914,35523,1 M,0,33914,35923,429,513,429,92 S,0,33914,35923,0.78 F,0,35523,35923,1,0
Sprite,Foreground,Centre,"SB\dot.png",320,240 F,0,34196,36189,1 M,0,34196,36589,40,504,40,59 S,0,34196,36589,0.85 F,0,36189,36589,1,0
Sprite,Foreground,Centre,"SB\dot.png",320,240 F,0,35053,37199,1 M,0,35053,37599,464,506,464,80 S,0,35053,37599,0.79 F,0,37199,37599,1,0
Sprite,Foreground,Centre,"SB\dot.png",320,240 F,0,34478,36265,1 M,0,34478,36665,134,516,134,174 S,0,34478,36665,0.84 F,0,36265,36665,1,0
Sprite,Foreground,Centre,"SB\dot.png",320,240 F,0,34925,36478,1 M,0,34925,36878,228,513,228,57 S,0,34925,36878,0.37 F,0,36478,36878,1,0
Sprite,Foreground,Centre,"SB\dot.png",320,240 F,0,35253,36690,1 M,0,35253,37090,499,517,499,219 S,0,35253,37090,0.88 F,0,36690,37090,1,0
Sprite,Foreground,Centre,"SB\dot.png",320,240 F,0,35032,36577,1 M,0,35032,36977,381,502,381,70 S,0,35032,36977,0.98 F,0,36577,36977,1,0
Sprite,Foreground,Centre,"SB\dot.png",320,240 F,0,34396,37124,1 M,0,34396,37524,216,502,216,27 S,0,34396,37524,0.51 F,0,37124,37524,1,0
Sprite,Foreground,Centre,"SB\dot.png",320,240 F,0,34067,36553,1 M,0,34067,36953,411,507,411,157 S,0,34067,36953,0.33 F,0,36553,36953,1,0
Sprite,Foreground,Centre,"SB\dot.png",320,240 F,0,34232,37401,1 M,0,34232,37801,235,518,235,136 S,0,34232,37801,0.9 F,0,37401,37801,1,0
Sprite,Foreground,Centre,"SB\dot.png",320,240 F,0,34180,37183,1 M,0,34180,37583,19,518,19,55 S,0,34180,37583,0.73 F,0,37183,37583,1,0
Sprite,Foreground,Centre,"SB\dot.png",320,240 F,0,34141,37114,1 M,0,34141,37514,556,515,556,61 S,0,34141,37514,0.74 F,0,37114,37514,1,0
Sprite,Foreground,Centre,"SB\dot.png",320,240 F,0,35033,37182,1 M,0,35033,37582,224,502,224,135 S,0,35033,37582,0.27 F,0,37182,37582,1,0
Sprite,Foreground,Centre,"SB\dot.png",320,240 F,0,34080,37063,1 M,0,34080,37463,185,519,185,177 S,0,34080,37463,0.63 F,0,37063,37463,1,0
Sprite,Foreground,Centre,"SB\dot.png",320,240 F,0,35175,36520,1 M,0,35175,36920,194,519,194,60 S,0,35175,36920,0.82 F,0,36520,36920,1,0
Sprite,Foreground,Centre,"SB\dot.png",320,240 F,0,34699,37026,1 M,0,34699,37426,116,502,116,179 S,0,34699,37426,0.31 F,0,37026,37426,1,0
Sprite,Foreground,Centre,"SB\dot.png",320,240 F,0,35825,38378,1 M,0,35825,38778,224,504,224,192 S,0,35825,38778,0.36 F,0,38378,38778,1,0
Sprite,Foreground,Centre,"SB\dot.png",320,240 F,0,35882,38211,1 M,0,35882,38611,579,507,579,69 S,0,35882,38611,0.2 F,0,38211,38611,1,0
Sprite,Foreground,Centre,"SB\dot.png",320,240 F,0,35713,37792,1 M,0,35713,38192,123,518,123,141 S,0,35713,38192,0.75 F,0,37792,38192,1,0
Sprite,Foreground,Centre,"SB\dot.png",320,240 F,0,35471,38445,1 M,0,35471,38845,182,518,182,149 S,0,35471,38845,0.67 F,0,38445,38845,1,0
Sprite,Foreground,Centre,"SB\dot.png",320,240 F,0,35651,38576,1 M,0,35651,38976,230,510,230,94 S,0,35651,38976,0.64 F,0,38576,38976,1,0
Sprite,Foreground,Centre,"SB\dot.png",320,240 F,0,36189,38555,1 M,0,36189,38955,532,518,532,212 S,0,36189,38955,0.66 F,0,38555,38955,1,0
Sprite,Foreground,Centre,"SB\dot.png",320,240 F,0,35906,38142,1 M,0,35906,38542,306,510,306,182 S,0,35906,38542,0.74 F,0,38142,38542,1,0
Sprite,Foreground,Centre,"SB\dot.png",320,240 F,0,35994,37685,1 M,0,35994,38085,243,519,243,89 S,0,35994,38085,0.39 F,0,37685,38085,1,0
Sprite,Foreground,Centre,"SB\dot.png",320,240 F,0,35647,38087,1 M,0,35647,38487,442,509,442,152 S,0,35647,38487,0.44 F,0,38087,38487,1,0
Sprite,Foreground,Centre,"SB\dot.png",320,240 F,0,35764,37873,1 M,0,35764,38273,560,506,560,183 S,0,35764,38273,0.57 F,0,37873,38273,1,0
Sprite,Foreground,Centre,"SB\dot.png",320,240 F,0,35737,38426,1 M,0,35737,38826,75,511,75,83 S,0,35737,38826,0.6 F,0,38426,38826,1,0
Sprite,Foreground,Centre,"SB\dot.png",320,240 F,0,35598,37921,1 M,0,35598,38321,511,515,511,125 S,0,35598,38321,0.99 F,0,37921,38321,1,0
Sprite,Foreground,Centre,"SB\dot.png",320,240 F,0,36272,37498,1 M,0,36272,37898,127,518,127,33 S,0,36272,37898,0.86 F,0,37498,37898,1,0
Sprite,Foreground,Centre,"SB\dot.png",320,240 F,0,35698,38328,1 M,0,35698,38728,107,520,107,181 S,0,35698,38728,0.43 F,0,38328,38728,1,0
Sprite,Foreground,Centre,"SB\dot.png",320,240 F,0,36348,38130,1 M,0,36348,38530,422,503,422,8 S,0,36348,38530,0.29 F,0,38130,38530,1,0
Sprite,Foreground,Centre,"SB\dot.png",320,240 F,0,36980,39272,1 M,0,36980,39672,564,503,564,191 S,0,36980,39672,0.37 F,0,39272,39672,1,0
Sprite,Foreground,Centre,"SB\dot.png",320,240 F,0,37390,39626,1 M,0,37390,40026,508,515,508,215 S,0,37390,40026,0.6 F,0,39626,40026,1,0
Sprite,Foreground,Centre,"SB\dot.png",320,240 F,0,37310,39798,1 M,0,37310,40198,16,517,16,137 S,0,37310,40198,0.3 F,0,39798,40198,1,0
Sprite,Foreground,Centre,"SB\dot.png",320,240 F,0,37296,39521,1 M,0,37296,39921,67,505,67,45 S,0,37296,39921,0.91 F,0,39521,39921,1,0
Sprite,Foreground,Centre,"SB\dot.png",320,240 F,0,36659,38759,1 M,0,36659,39159,42,512,42,224 S,0,36659,39159,0.82 F,0,38759,39159,1,0
Sprite,Foreground,Centre,"SB\dot.png",320,240 F,0,36970,39015,1 M,0,36970,39415,612,512,612,27 S,0,36970,39415,0.42 F,0,39015,39415,1,0
Sprite,Foreground,Centre,"SB\dot.png",320,240 F,0,36747,39641,1 M,0,36747,40041,349,500,349,187 S,0,36747,40041,0.21 F,0,39641,40041,1,0
Sprite,Foreground,Centre,"SB\dot.png",320,240 F,0,37677,39799,1 M,0,37677,40199,433,504,433,211 S,0,37677,40199,0.84 F,0,39799,40199,1,0
Sprite,Foreground,Centre,"SB\dot.png",320,240 F,0,37820,39914,1 M,0,37820,40314,601,512,601,144 S,0,37820,40314,0.77 F,0,39914,40314,1,0
Sprite,Foreground,Centre,"SB\dot.png",320,240 F,0,37173,39548,1 M,0,37173,39948,506,520,506,173 S,0,37173,39948,0.91 F,0,39548,39948,1,0
Sprite,Foreground,Centre,"SB\dot.png",320,240 F,0,36800,39609,1 M,0,36800,40009,579,511,579,213 S,0,36800,40009,0.78 F,0,39609,40009,1,0
Sprite,Foreground,Centre,"SB\dot.png",320,240 F,0,37703,38902,1 M,0,37703,39302,27,508,27,89 S,0,37703,39302,0.45 F,0,38902,39302,1,0
Sprite,Foreground,Centre,"SB\dot.png",320,240 F,0,37626,39881,1 M,0,37626,40281,514,510,514,141 S,0,37626,40281,0.69 F,0,39881,40281,1,0
Sprite,Foreground,Centre,"SB\dot.png",320,240 F,0,37432,39952,1 M,0,37432,40352,86,506,86,142 S,0,37432,40352,0.67 F,0,39952,40352,1,0
Sprite,Foreground,Centre,"SB\dot.png",320,240 F,0,37673,39782,1 M,0,37673,40182,339,513,339,69 S,0,37673,40182,0.51 F,0,39782,40182,1,0
Sprite,Foreground,Centre,"SB\dot.png",320,240 F,0,37869,40618,1 M,0,37869,41018,346,501,346,58 S,0,37869,41018,1 F,0,40618,41018,1,0
Sprite,Foreground,Centre,"SB\dot.png",320,240 F,0,37960,40190,1 M,0,37960,40590,377,514,377,112 S,0,37960,40590,0.45 F,0,40190,40590,1,0
Sprite,Foreground,Centre,"SB\dot.png",320,240 F,0,39074,40238,1 M,0,39074,40638,562,510,562,40 S,0,39074,40638,0.3 F,0,40238,40638,1,0
Sprite,Foreground,Centre,"SB\dot.png",320,240 F,0,37900,41200,1 M,0,37900,41600,43,505,43,14 S,0,37900,41600,1 F,0,41200,41600,1,0
Sprite,Foreground,Centre,"SB\dot.png",320,240 F,0,38904,40728,1 M,0,38904,41128,453,519,453,7 S,0,38904,41128,0.97 F,0,40728,41128,1,0
Sprite,Foreground,Centre,"SB\dot.png",320,240 F,0,38809,40359,1 M,0,38809,40759,499,507,499,216 S,0,38809,40759,0.32 F,0,40359,40759,1,0
Sprite,Foreground,Centre,"SB\dot.png",320,240 F,0,38454,40192,1 M,0,38454,40592,432,520,432,2 S,0,38454,40592,0.27 F,0,40192,40592,1,0
Sprite,Foreground,Centre,"SB\dot.png",320,240 F,0,39031,40043,1 M,0,39031,40443,521,513,521,134 S,0,39031,40443,0.71 F,0,40043,40443,1,0
Sprite,Foreground,Centre,"SB\dot.png",320,240 F,0,37927,40734,1 M,0,37927,41134,15,509,15,56 S,0,37927,41134,0.42 F,0,40734,41134,1,0
Sprite,Foreground,Centre,"SB\dot.png",320,240 F,0,38469,40714,1 M,0,38469,41114,267,508,267,185 S,0,38469,41114,0.69 F,0,40714,41114,1,0
Sprite,Foreground,Centre,"SB\dot.png",320,240 F,0,38269,40315,1 M,0,38269,40715,137,516,137,175 S,0,38269,40715,0.28 F,0,40315,40715,1,0
Sprite,Foreground,Centre,"SB\dot.png",320,240 F,0,38842,40118,1 M,0,38842,40518,23,518,23,125 S,0,38842,40518,0.98 F,0,40118,40518,1,0
Sprite,Foreground,Centre,"SB\dot.png",320,240 F,0,38809,40888,1 M,0,38809,41288,551,513,551,157 S,0,38809,41288,0.49 F,0,40888,41288,1,0
Sprite,Foreground,Centre,"SB\dot.png",320,240 F,0,38309,40450,1 M,0,38309,40850,516,507,516,92 S,0,38309,40850,0.65 F,0,40450,40850,1,0
Sprite,Foreground,Centre,"SB\dot.png",320,240 F,0,37881,40084,1 M,0,37881,40484,226,512,226,103 S,0,37881,40484,0.61 F,0,40084,40484,1,0
Sprite,Foreground,Centre,"SB\sakura1.png",320,240 F,0,108842,110843,1 M,0,108842,111243,173,-46,152,226 S,0,108842,111243,0.3 R,0,108842,111243,0.71,-0.31 F,0,110843,111243,1,0
Sprite,Foreground,Centre,"SB\sakura1.png",320,240 F,0,109145,110717,1 M,0,109145,111117,419,-29,376,225 S,0,109145,111117,0.22 R,0,109145,111117,2.98,-2.24 F,0,110717,111117,1,0
Sprite,Foreground,Centre,"SB\sakura1.png",320,240 F,0,110330,111936,1 M,0,110330,112336,529,-45,554,247 S,0,110330,112336,0.36 R,0,110330,112336,2.28,-1.84 F,0,111936,112336,1,0
Sprite,Foreground,Centre,"SB\sakura1.png",320,240 F,0,110322,111837,1 M,0,110322,112237,602,-38,648,220 S,0,110322,112237,0.14 R,0,110322,112237,0.33,-2.28 F,0,111837,112237,1,0
Sprite,Foreground,Centre,"SB\sakura1.png",320,240 F,0,111409,113218,1 M,0,111409,113618,583,-41,617,217 S,0,111409,113618,0.28 R,0,111409,113618,0.62,-3 F,0,113218,113618,1,0
Sprite,Foreground,Centre,"SB\sakura1.png",320,240 F,0,111256,113541,1 M,0,111256,113941,151,-40,184,264 S,0,111256,113941,0.46 R,0,111256,113941,2.39,-0.87 F,0,113541,113941,1,0
Sprite,Foreground,Centre,"SB\sakura1.png",320,240 F,0,112536,114751,1 M,0,112536,115151,72,-41,25,229 S,0,112536,115151,0.39 R,0,112536,115151,2.5,-2.16 F,0,114751,115151,1,0
Sprite,Foreground,Centre,"SB\sakura1.png",320,240 F,0,113331,114695,1 M,0,113331,115095,595,-44,652,242 S,0,113331,115095,0.47 R,0,113331,115095,1.01,-1.08 F,0,114695,115095,1,0
Sprite,Foreground,Centre,"SB\sakura1.png",320,240 F,0,113856,115770,1 M,0,113856,116170,199,-44,191,276 S,0,113856,116170,0.15 R,0,113856,116170,1.47,-1.59 F,0,115770,116170,1,0
Sprite,Foreground,Centre,"SB\sakura1.png",320,240 F,0,114308,115490,1 M,0,114308,115890,493,-30,441,283 S,0,114308,115890,0.5 R,0,114308,115890,0.51,-1.9 F,0,115490,115890,1,0
Sprite,Foreground,Centre,"SB\sakura1.png",320,240 F,0,115147,117036,1 M,0,115147,117436,179,-30,127,254 S,0,115147,117436,0.19 R,0,115147,117436,1.51,-2.12 F,0,117036,117436,1,0
Sprite,Foreground,Centre,"SB\sakura1.png",320,240 F,0,115014,117308,1 M,0,115014,117708,144,-22,147,281 S,0,115014,117708,0.41 R,0,115014,117708,1.97,-0.33 F,0,117308,117708,1,0
Sprite,Foreground,Centre,"SB\sakura1.png",320,240 F,0,116672,118573,1 M,0,116672,118973,642,-24,638,205 S,0,116672,118973,0.35 R,0,116672,118973,1.12,-0.78 F,0,118573,118973,1,0
Sprite,Foreground,Centre,"SB\sakura1.png",320,240 F,0,116328,118459,1 M,0,116328,118859,467,-46,492,249 S,0,116328,118859,0.11 R,0,116328,118859,1.06,-1.85 F,0,118459,118859,1,0
Sprite,Foreground,Centre,"SB\sakura1.png",320,240 F,0,117921,119101,1 M,0,117921,119501,110,-49,118,255 S,0,117921,119501,0.44 R,0,117921,119501,0.65,-0.22 F,0,119101,119501,1,0
Sprite,Foreground,Centre,"SB\sakura1.png",320,240 F,0,118048,119661,1 M,0,118048,120061,133,-44,182,204 S,0,118048,120061,0.13 R,0,118048,120061,0.71,-1.3 F,0,119661,120061,1,0
Sprite,Foreground,Centre,"SB\sakura1.png",320,240 F,0,119546,120458,1 M,0,119546,120858,598,-49,615,204 S,0,119546,120858,0.17 R,0,119546,120858,0.36,-2.6 F,0,120458,120858,1,0
Sprite,Foreground,Centre,"SB\sakura1.png",320,240 F,0,119526,120940,1 M,0,119526,121340,190,-33,153,252 S,0,119526,121340,0.39 R,0,119526,121340,0.99,-0.29 F,0,120940,121340,1,0
Sprite,Foreground,Centre,"SB\sakura1.png",320,240 F,0,120495,122313,1 M,0,120495,122713,16,-45,60,274 S,0,120495,122713,0.11 R,0,120495,122713,3.01,-1.29 F,0,122313,122713,1,0
Sprite,Foreground,Centre,"SB\sakura1.png",320,240 F,0,120235,121536,1 M,0,120235,121936,606,-23,654,249 S,0,120235,121936,0.12 R,0,120235,121936,1.63,-1.21 F,0,121536,121936,1,0
Sprite,Foreground,Centre,"SB\sakura1.png",320,240 F,0,122183,123680,1 M,0,122183,124080,127,-28,175,283 S,0,122183,124080,0.12 R,0,122183,124080,0.67,-1.43 F,0,123680,124080,1,0
Sprite,Foreground,Centre,"SB\sakura1.png",320,240 F,0,122244,123687,1 M,0,122244,124087,274,-21,235,274 S,0,122244,124087,0.1 R,0,122244,124087,2.48,-0.27 F,0,123687,124087,1,0
Sprite,Foreground,Centre,"SB\sakura1.png",320,240 F,0,123344,124465,1 M,0,123344,124865,635,-24,580,230 S,0,123344,124865,0.25 R,0,123344,124865,1.78,-1.45 F,0,124465,124865,1,0
Sprite,Foreground,Centre,"SB\sakura1.png",320,240 F,0,123155,124149,1 M,0,123155,124549,604,-33,618,224 S,0,123155,124549,0.43 R,0,123155,124549,1.36,-1.17 F,0,124149,124549,1,0
Sprite,Foreground,Centre,"SB\sakura1.png",320,240 F,0,124637,125515,1 M,0,124637,125915,612,-26,588,294 S,0,124637,125915,0.13 R,0,124637,125915,1.75,-0.06 F,0,125515,125915,1,0
Sprite,Foreground,Centre,"SB\sakura1.png",320,240 F,0,124038,126028,1 M,0,124038,126428,526,-26,558,261 S,0,124038,126428,0.38 R,0,124038,126428,1.67,-0.89 F,0,126028,126428,1,0
Sprite,Foreground,Centre,"SB\sakura1.png",320,240 F,0,125301,126610,1 M,0,125301,127010,266,-31,242,289 S,0,125301,127010,0.3 R,0,125301,127010,2.84,-2.05 F,0,126610,127010,1,0
Sprite,Foreground,Centre,"SB\sakura1.png",320,240 F,0,125467,127167,1 M,0,125467,127567,379,-34,386,279 S,0,125467,127567,0.14 R,0,125467,127567,1.21,-2.39 F,0,127167,127567,1,0
Sprite,Foreground,Centre,"SB\sakura1.png",320,240 F,0,127080,127947,1 M,0,127080,128347,412,-20,409,211 S,0,127080,128347,0.14 R,0,127080,128347,0.58,-1.76 F,0,127947,128347,1,0
Sprite,Foreground,Centre,"SB\sakura1.png",320,240 F,0,126530,128406,1 M,0,126530,128806,35,-23,95,248 S,0,126530,128806,0.43 R,0,126530,128806,0.56,-1.48 F,0,128406,128806,1,0
Sprite,Foreground,Centre,"SB\sakura1.png",320,240 F,0,128540,129939,1 M,0,128540,130339,644,-25,592,212 S,0,128540,130339,0.14 R,0,128540,130339,2.6,-3.03 F,0,129939,130339,1,0
Sprite,Foreground,Centre,"SB\sakura1.png",320,240 F,0,127984,129192,1 M,0,127984,129592,52,-44,10,263 S,0,127984,129592,0.4 R,0,127984,129592,3.12,-3.02 F,0,129192,129592,1,0
Sprite,Foreground,Centre,"SB\sakura1.png",320,240 F,0,129561,130779,1 M,0,129561,131179,148,-26,117,235 S,0,129561,131179,0.38 R,0,129561,131179,2.5,-1.06 F,0,130779,131179,1,0
Sprite,Foreground,Centre,"SB\sakura1.png",320,240 F,0,129809,130585,1 M,0,129809,130985,217,-37,255,248 S,0,129809,130985,0.38 R,0,129809,130985,1.54,-1.97 F,0,130585,130985,1,0
Sprite,Foreground,Centre,"SB\sakura1.png",320,240 F,0,130633,131990,1 M,0,130633,132390,483,-34,500,242 S,0,130633,132390,0.3 R,0,130633,132390,1.72,-1.33 F,0,131990,132390,1,0
Sprite,Foreground,Centre,"SB\sakura1.png",320,240 F,0,131701,133351,1 M,0,131701,133751,176,-31,139,251 S,0,131701,133751,0.27 R,0,131701,133751,2.98,-2.68 F,0,133351,133751,1,0
Sprite,Foreground,Centre,"SB\sakura1.png",320,240 F,0,131775,133270,1 M,0,131775,133670,524,-50,488,248 S,0,131775,133670,0.1 R,0,131775,133670,2.84,-1.01 F,0,133270,133670,1,0
Sprite,Foreground,Centre,"SB\sakura1.png",320,240 F,0,133583,134235,1 M,0,133583,134635,371,-26,320,208 S,0,133583,134635,0.44 R,0,133583,134635,2.07,-2.94 F,0,134235,134635,1,0
Sprite,Foreground,Centre,"SB\sakura1.png",320,240 F,0,132775,134682,1 M,0,132775,135082,319,-22,346,265 S,0,132775,135082,0.35 R,0,132775,135082,2.85,-2.63 F,0,134682,135082,1,0
Sprite,Foreground,Centre,"SB\sakura1.png",320,240 F,0,134280,135959,1 M,0,134280,136359,533,-43,534,275 S,0,134280,136359,0.37 R,0,134280,136359,1.06,-0.43 F,0,135959,136359,1,0
Sprite,Foreground,Centre,"SB\sakura1.png",320,240 F,0,134652,135633,1 M,0,134652,136033,496,-37,462,222 S,0,134652,136033,0.17 R,0,134652,136033,2.78,-1.27 F,0,135633,136033,1,0
Sprite,Foreground,Centre,"SB\sakura1.png",320,240 F,0,135843,137289,1 M,0,135843,137689,410,-50,451,245 S,0,135843,137689,0.33 R,0,135843,137689,2.59,-0.78 F,0,137289,137689,1,0
Sprite,Foreground,Centre,"SB\sakura1.png",320,240 F,0,135900,137211,1 M,0,135900,137611,612,-38,579,290 S,0,135900,137611,0.13 R,0,135900,137611,1.19,-0.76 F,0,137211,137611,1,0
Sprite,Foreground,Centre,"SB\sakura1.png",320,240 F,0,137171,138518,1 M,0,137171,138918,627,-21,629,207 S,0,137171,138918,0.34 R,0,137171,138918,0.32,-3.01 F,0,138518,138918,1,0
Sprite,Foreground,Centre,"SB\sakura1.png",320,240 F,0,136771,138809,1 M,0,136771,139209,125,-26,138,258 S,0,136771,139209,0.33 R,0,136771,139209,1.85,-1.43 F,0,138809,139209,1,0
Sprite,Foreground,Centre,"SB\sakura1.png",320,240 F,0,138386,140078,1 M,0,138386,140478,103,-31,59,290 S,0,138386,140478,0.25 R,0,138386,140478,1.49,-1.92 F,0,140078,140478,1,0
Sprite,Foreground,Centre,"SB\sakura1.png",320,240 F,0,138384,140033,1 M,0,138384,140433,593,-22,560,264 S,0,138384,140433,0.48 R,0,138384,140433,1.13,-2.77 F,0,140033,140433,1,0
Sprite,Foreground,Centre,"SB\sakura1.png",320,240 F,0,139676,140670,1 M,0,139676,141070,108,-25,100,223 S,0,139676,141070,0.12 R,0,139676,141070,1.22,-1.14 F,0,140670,141070,1,0
Sprite,Foreground,Centre,"SB\sakura1.png",320,240 F,0,139378,140843,1 M,0,139378,141243,648,-44,597,227 S,0,139378,141243,0.42 R,0,139378,141243,1.47,-2.39 F,0,140843,141243,1,0
Sprite,Foreground,Centre,"SB\sakura1.png",320,240 F,0,140875,141761,1 M,0,140875,142161,21,-22,64,228 S,0,140875,142161,0.23 R,0,140875,142161,2.97,-0.26 F,0,141761,142161,1,0
Sprite,Foreground,Centre,"SB\sakura1.png",320,240 F,0,140308,141910,1 M,0,140308,142310,76,-20,86,235 S,0,140308,142310,0.48 R,0,140308,142310,1.8,-1.2 F,0,141910,142310,1,0
Sprite,Foreground,Centre,"SB\sakura1.png",320,240 F,0,141568,143629,1 M,0,141568,144029,3,-21,39,237 S,0,141568,144029,0.49 R,0,141568,144029,1.35,-2.96 F,0,143629,144029,1,0
Sprite,Foreground,Centre,"SB\sakura1.png",320,240 F,0,143541,144761,1 M,0,143541,145161,116,-23,63,272 S,0,143541,145161,0.15 R,0,143541,145161,1.09,-0.93 F,0,144761,145161,1,0
Sprite,Foreground,Centre,"SB\sakura1.png",320,240 F,0,143406,145085,1 M,0,143406,145485,272,-24,240,219 S,0,143406,145485,0.37 R,0,143406,145485,2.88,-0.77 F,0,145085,145485,1,0
Sprite,Foreground,Centre,"SB\sakura1.png",320,240 F,0,144248,145656,1 M,0,144248,146056,110,-45,138,217 S,0,144248,146056,0.3 R,0,144248,146056,1.29,-1.51 F,0,145656,146056,1,0
Sprite,Foreground,Centre,"SB\sakura1.png",320,240 F,0,144916,145696,1 M,0,144916,146096,109,-27,58,258 S,0,144916,146096,0.2 R,0,144916,146096,0.45,-1.5 F,0,145696,146096,1,0
Sprite,Foreground,Centre,"SB\sakura1.png",320,240 F,0,145513,147508,1 M,0,145513,147908,322,-27,273,295 S,0,145513,147908,0.12 R,0,145513,147908,0.57,-0.42 F,0,147508,147908,1,0
Sprite,Foreground,Centre,"SB\sakura1.png",320,240 F,0,146219,147664,1 M,0,146219,148064,353,-33,356,275 S,0,146219,148064,0.1 R,0,146219,148064,1.29,-1.66 F,0,147664,148064,1,0
Sprite,Foreground,Centre,"SB\sakura1.png",320,240 F,0,147069,148882,1 M,0,147069,149282,280,-34,252,259 S,0,147069,149282,0.15 R,0,147069,149282,0.26,-1.33 F,0,148882,149282,1,0
Sprite,Foreground,Centre,"SB\sakura1.png",320,240 F,0,147028,148498,1 M,0,147028,148898,149,-33,160,267 S,0,147028,148898,0.3 R,0,147028,148898,0.74,-2.4 F,0,148498,148898,1,0
Sprite,Foreground,Centre,"SB\sakura1.png",320,240 F,0,148100,149887,1 M,0,148100,150287,310,-22,285,249 S,0,148100,150287,0.37 R,0,148100,150287,2.02,-0.08 F,0,149887,150287,1,0
Sprite,Foreground,Centre,"SB\sakura1.png",320,240 F,0,148750,149747,1 M,0,148750,150147,573,-29,530,225 S,0,148750,150147,0.29 R,0,148750,150147,0.96,-0.15 F,0,149747,150147,1,0
Sprite,Foreground,Centre,"SB\sakura1.png",320,240 F,0,149514,151422,1 M,0,149514,151822,505,-41,497,243 S,0,149514,151822,0.23 R,0,149514,151822,2.83,-2.03 F,0,151422,151822,1,0
Sprite,Foreground,Centre,"SB\sakura1.png",320,240 F,0,150639,152049,1 M,0,150639,152449,279,-50,319,205 S,0,150639,152449,0.15 R,0,150639,152449,0.72,-2.2 F,0,152049,152449,1,0
Sprite,Foreground,Centre,"SB\sakura1.png",320,240 F,0,150902,152508,1 M,0,150902,152908,341,-45,344,211 S,0,150902,152908,0.3 R,0,150902,152908,0.64,-0.31 F,0,152508,152908,1,0
Sprite,Foreground,Centre,"SB\sakura1.png",320,240 F,0,152438,153400,1 M,0,152438,153800,254,-38,223,237 S,0,152438,153800,0.38 R,0,152438,153800,1.94,-1.94 F,0,153400,153800,1,0
Sprite,Foreground,Centre,"SB\sakura1.png",320,240 F,0,153185,154842,1 M,0,153185,155242,501,-28,540,259 S,0,153185,155242,0.19 R,0,153185,155242,1.61,-0.11 F,0,154842,155242,1,0
Sprite,Foreground,Centre,"SB\sakura1.png",320,240 F,0,153331,154961,1 M,0,153331,155361,141,-24,162,296 S,0,153331,155361,0.34 R,0,153331,155361,2.92,-0.54 F,0,154961,155361,1,0
Sprite,Foreground,Centre,"SB\sakura1.png",320,240 F,0,154337,156221,1 M,0,154337,156621,600,-50,651,275 S,0,154337,156621,0.31 R,0,154337,156621,2.59,-2.65 F,0,156221,156621,1,0
Sprite,Foreground,Centre,"SB\sakura1.png",320,240 F,0,154568,155797,1 M,0,154568,156197,360,-21,381,295 S,0,154568,156197,0.33 R,0,154568,156197,3,-2.05 F,0,155797,156197,1,0
Sprite,Foreground,Centre,"SB\sakura1.png",320,240 F,0,155910,157439,1 M,0,155910,157839,147,-31,203,227 S,0,155910,157839,0.48 R,0,155910,157839,1.86,-1.2 F,0,157439,157839,1,0
Sprite,Foreground,Centre,"SB\sakura1.png",320,240 F,0,155544,157669,1 M,0,155544,158069,448,-40,451,289 S,0,155544,158069,0.28 R,0,155544,158069,0.89,-2.62 F,0,157669,158069,1,0
Sprite,Foreground,Centre,"SB\sakura1.png",320,240 F,0,157378,158548,1 M,0,157378,158948,588,-25,629,268 S,0,157378,158948,0.42 R,0,157378,158948,0.41,-2.98 F,0,158548,158948,1,0
Sprite,Foreground,Centre,"SB\sakura1.png",320,240 F,0,157405,158674,1 M,0,157405,159074,514,-32,550,220 S,0,157405,159074,0.36 R,0,157405,159074,1.88,-3.03 F,0,158674,159074,1,0
Sprite,Foreground,Centre,"SB\sakura1.png",320,240 F,0,158110,159773,1 M,0,158110,160173,227,-43,262,239 S,0,158110,160173,0.39 R,0,158110,160173,1.52,-2.51 F,0,159773,160173,1,0
Sprite,Foreground,Centre,"SB\sakura1.png",320,240 F,0,158364,159840,1 M,0,158364,160240,65,-36,101,200 S,0,158364,160240,0.1 R,0,158364,160240,0.62,-2.55 F,0,159840,160240,1,0
Sprite,Foreground,Centre,"SB\sakura1.png",320,240 F,0,159635,161042,1 M,0,159635,161442,376,-37,316,253 S,0,159635,161442,0.39 R,0,159635,161442,0.01,-1.33 F,0,161042,161442,1,0
Sprite,Foreground,Centre,"SB\sakura1.png",320,240 F,0,159626,160766,1 M,0,159626,161166,244,-27,194,211 S,0,159626,161166,0.35 R,0,159626,161166,1.3,-1.09 F,0,160766,161166,1,0
Sprite,Foreground,Centre,"SB\sakura1.png",320,240 F,0,161046,162776,1 M,0,161046,163176,520,-36,510,287 S,0,161046,163176,0.42 R,0,161046,163176,2.91,-0.61 F,0,162776,163176,1,0
Sprite,Foreground,Centre,"SB\sakura1.png",320,240 F,0,161114,162132,1 M,0,161114,162532,433,-47,397,259 S,0,161114,162532,0.33 R,0,161114,162532,0.25,-2.61 F,0,162132,162532,1,0
Sprite,Foreground,Centre,"SB\sakura1.png",320,240 F,0,161904,163563,1 M,0,161904,163963,460,-30,446,280 S,0,161904,163963,0.48 R,0,161904,163963,0.2,-2.83 F,0,163563,163963,1,0
Sprite,Foreground,Centre,"SB\sakura1.png",320,240 F,0,162577,163297,1 M,0,162577,163697,199,-46,246,231 S,0,162577,163697,0.2 R,0,162577,163697,1.35,-1.79 F,0,163297,163697,1,0
Sprite,Foreground,Centre,"SB\sakura1.png",320,240 F,0,163389,164730,1 M,0,163389,165130,76,-26,90,221 S,0,163389,165130,0.48 R,0,163389,165130,2.41,-0.44 F,0,164730,165130,1,0
Sprite,Foreground,Centre,"SB\sakura1.png",320,240 F,0,163126,165285,1 M,0,163126,165685,395,-26,383,275 S,0,163126,165685,0.22 R,0,163126,165685,0.56,-1.34 F,0,165285,165685,1,0
Sprite,Foreground,Centre,"SB\sakura1.png",320,240 F,0,165060,166118,1 M,0,165060,166518,321,-28,276,204 S,0,165060,166518,0.32 R,0,165060,166518,0.37,-2.85 F,0,166118,166518,1,0
Sprite,Foreground,Centre,"SB\sakura1.png",320,240 F,0,164459,166478,1 M,0,164459,166878,578,-34,533,232 S,0,164459,166878,0.42 R,0,164459,166878,1.09,-2.67 F,0,166478,166878,1,0
Sprite,Foreground,Centre,"SB\sakura1.png",320,240 F,0,165916,167650,1 M,0,165916,168050,43,-37,71,288 S,0,165916,168050,0.1 R,0,165916,168050,0.09,-1.48 F,0,167650,168050,1,0
Sprite,Foreground,Centre,"SB\sakura1.png",320,240 F,0,166402,167068,1 M,0,166402,167468,164,-41,118,243 S,0,166402,167468,0.37 R,0,166402,167468,0.87,-2.24 F,0,167068,167468,1,0
Sprite,Foreground,Centre,"SB\sakura1.png",320,240 F,0,167422,169114,1 M,0,167422,169514,365,-21,375,268 S,0,167422,169514,0.45 R,0,167422,169514,2.99,-1.76 F,0,169114,169514,1,0
Sprite,Foreground,Centre,"SB\sakura1.png",320,240 F,0,167095,168603,1 M,0,167095,169003,285,-48,326,276 S,0,167095,169003,0.49 R,0,167095,169003,0.32,-2.5 F,0,168603,169003,1,0
Sprite,Foreground,Centre,"SB\sakura1.png",320,240 F,0,168575,170045,1 M,0,168575,170445,63,-32,123,215 S,0,168575,170445,0.15 R,0,168575,170445,0.11,-0.64 F,0,170045,170445,1,0
Sprite,Foreground,Centre,"SB\sakura1.png",320,240 F,0,168568,170033,1 M,0,168568,170433,612,-44,607,247 S,0,168568,170433,0.2 R,0,168568,170433,2.85,-2.62 F,0,170033,170433,1,0
Sprite,Foreground,Centre,"SB\sakura1.png",320,240 F,0,169844,171237,1 M,0,169844,171637,475,-45,468,200 S,0,169844,171637,0.26 R,0,169844,171637,2.83,-0.52 F,0,171237,171637,1,0
Sprite,Foreground,Centre,"SB\sakura1.png",320,240 F,0,169596,171168,1 M,0,169596,171568,423,-24,403,212 S,0,169596,171568,0.28 R,0,169596,171568,1.16,-2.05 F,0,171168,171568,1,0
Sprite,Foreground,Centre,"SB\sakura1.png",320,240 F,0,170592,172287,1 M,0,170592,172687,447,-24,451,242 S,0,170592,172687,0.19 R,0,170592,172687,0.65,-2.64 F,0,172287,172687,1,0
Sprite,Foreground,Centre,"SB\sakura1.png",320,240 F,0,171069,172490,1 M,0,171069,172890,269,-32,224,296 S,0,171069,172890,0.36 R,0,171069,172890,1.61,-2.44 F,0,172490,172890,1,0
Sprite,Foreground,Centre,"SB\sakura1.png",320,240 F,0,172413,173774,1 M,0,172413,174174,128,-29,100,299 S,0,172413,174174,0.37 R,0,172413,174174,0.73,-1.03 F,0,173774,174174,1,0
Sprite,Foreground,Centre,"SB\sakura1.png",320,240 F,0,171853,174186,1 M,0,171853,174586,582,-34,592,281 S,0,171853,174586,0.15 R,0,171853,174586,1.59,-2.49 F,0,174186,174586,1,0
Sprite,Foreground,Centre,"SB\sakura1.png",320,240 F,0,173555,174616,1 M,0,173555,175016,433,-47,383,278 S,0,173555,175016,0.21 R,0,173555,175016,1.06,-2.89 F,0,174616,175016,1,0
Sprite,Foreground,Centre,"SB\sakura1.png",320,240 F,0,173262,174600,1 M,0,173262,175000,169,-35,229,250 S,0,173262,175000,0.13 R,0,173262,175000,0.24,-0.86 F,0,174600,175000,1,0
Sprite,Foreground,Centre,"SB\sakura1.png",320,240 F,0,174831,175963,1 M,0,174831,176363,634,-48,582,212 S,0,174831,176363,0.14 R,0,174831,176363,1.85,-2.64 F,0,175963,176363,1,0
Sprite,Foreground,Centre,"SB\sakura1.png",320,240 F,0,174880,176010,1 M,0,174880,176410,460,-35,433,298 S,0,174880,176410,0.42 R,0,174880,176410,2.83,-3.14 F,0,176010,176410,1,0
Sprite,Foreground,Centre,"SB\sakura1.png",320,240 F,0,176246,177394,1 M,0,176246,177794,99,-38,95,281 S,0,176246,177794,0.16 R,0,176246,177794,0.49,-2.34 F,0,177394,177794,1,0
Sprite,Foreground,Centre,"SB\sakura1.png",320,240 F,0,176060,177778,1 M,0,176060,178178,66,-32,64,212 S,0,176060,178178,0.1 R,0,176060,178178,3.11,-2.19 F,0,177778,178178,1,0
Sprite,Foreground,Centre,"SB\sakura1.png",320,240 F,0,177321,178615,1 M,0,177321,179015,34,-33,2,238 S,0,177321,179015,0.4 R,0,177321,179015,0.97,-1.65 F,0,178615,179015,1,0
Sprite,Foreground,Centre,"SB\sakura1.png",320,240 F,0,177417,178516,1 M,0,177417,178916,143,-45,149,280 S,0,177417,178916,0.44 R,0,177417,178916,0.11,-2.07 F,0,178516,178916,1,0
Sprite,Foreground,Centre,"SB\sakura1.png",320,240 F,0,178911,179884,1 M,0,178911,180284,292,-45,249,292 S,0,178911,180284,0.16 R,0,178911,180284,2.5,-3.07 F,0,179884,180284,1,0
Sprite,Foreground,Centre,"SB\sakura1.png",320,240 F,0,179042,180211,1 M,0,179042,180611,195,-36,242,277 S,0,179042,180611,0.38 R,0,179042,180611,2.45,-0.13 F,0,180211,180611,1,0
Sprite,Foreground,Centre,"SB\sakura1.png",320,240 F,0,179754,181520,1 M,0,179754,181920,255,-20,247,240 S,0,179754,181920,0.49 R,0,179754,181920,0.9,-0.29 F,0,181520,181920,1,0
Sprite,Foreground,Centre,"SB\sakura1.png",320,240 F,0,180174,180974,1 M,0,180174,181374,220,-23,229,252 S,0,180174,181374,0.39 R,0,180174,181374,0.73,-2.35 F,0,180974,181374,1,0
Sprite,Foreground,Centre,"SB\sakura1.png",320,240 F,0,180704,182447,1 M,0,180704,182847,62,-32,75,243 S,0,180704,182847,0.24 R,0,180704,182847,3.08,-0.48 F,0,182447,182847,1,0
Sprite,Foreground,Centre,"SB\sakura1.png",320,240 F,0,181435,182681,1 M,0,181435,183081,398,-36,353,215 S,0,181435,183081,0.35 R,0,181435,183081,3.02,-1.27 F,0,182681,183081,1,0
Sprite,Foreground,Centre,"SB\sakura1.png",320,240 F,0,182125,183889,1 M,0,182125,184289,339,-33,339,242 S,0,182125,184289,0.38 R,0,182125,184289,2.82,-0.88 F,0,183889,184289,1,0
Sprite,Foreground,Centre,"SB\sakura1.png",320,240 F,0,181999,183955,1 M,0,181999,184355,469,-36,463,206 S,0,181999,184355,0.45 R,0,181999,184355,1.59,-2.91 F,0,183955,184355,1,0
Sprite,Foreground,Centre,"SB\sakura1.png",320,240 F,0,183535,184805,1 M,0,183535,185205,62,-31,59,226 S,0,183535,185205,0.34 R,0,183535,185205,0.02,-2.54 F,0,184805,185205,1,0
Sprite,Foreground,Centre,"SB\sakura1.png",320,240 F,0,183575,185561,1 M,0,183575,185961,416,-50,476,285 S,0,183575,185961,0.46 R,0,183575,185961,0.63,-0.92 F,0,185561,185961,1,0
Sprite,Foreground,Centre,"SB\sakura1.png",320,240 F,0,185134,186838,1 M,0,185134,187238,305,-22,254,277 S,0,185134,187238,0.47 R,0,185134,187238,0.19,-2.25 F,0,186838,187238,1,0
Sprite,Foreground,Centre,"SB\sakura1.png",320,240 F,0,184561,186451,1 M,0,184561,186851,16,-25,-21,243 S,0,184561,186851,0.12 R,0,184561,186851,1.41,-0.18 F,0,186451,186851,1,0
Sprite,Foreground,Centre,"SB\sakura1.png",320,240 F,0,186626,187863,1 M,0,186626,188263,17,-32,26,284 S,0,186626,188263,0.33 R,0,186626,188263,2.51,-2.58 F,0,187863,188263,1,0
Sprite,Foreground,Centre,"SB\sakura1.png",320,240 F,0,186270,187705,1 M,0,186270,188105,78,-41,28,234 S,0,186270,188105,0.29 R,0,186270,188105,0.8,-0.29 F,0,187705,188105,1,0
Sprite,Foreground,Centre,"SB\sakura1.png",320,240 F,0,187293,188656,1 M,0,187293,189056,388,-49,396,262 S,0,187293,189056,0.15 R,0,187293,189056,1.52,-0.09 F,0,188656,189056,1,0
Sprite,Foreground,Centre,"SB\sakura1.png",320,240 F,0,187254,188613,1 M,0,187254,189013,257,-20,232,207 S,0,187254,189013,0.27 R,0,187254,189013,2.26,-0.21 F,0,188613,189013,1,0
Sprite,Foreground,Centre,"SB\sakura1.png",320,240 F,0,188658,189827,1 M,0,188658,190227,561,-41,598,272 S,0,188658,190227,0.21 R,0,188658,190227,2.49,-2.2 F,0,189827,190227,1,0
Sprite,Foreground,Centre,"SB\sakura1.png",320,240 F,0,188913,190597,1 M,0,188913,190997,16,-46,60,271 S,0,188913,190997,0.32 R,0,188913,190997,0.68,-1.16 F,0,190597,190997,1,0
Sprite,Foreground,Centre,"SB\sakura1.png",320,240 F,0,189751,191425,1 M,0,189751,191825,582,-34,575,221 S,0,189751,191825,0.21 R,0,189751,191825,2.15,-1.68 F,0,191425,191825,1,0
Sprite,Foreground,Centre,"SB\sakura1.png",320,240 F,0,190044,191469,1 M,0,190044,191869,278,-33,221,284 S,0,190044,191869,0.16 R,0,190044,191869,1.49,-1.25 F,0,191469,191869,1,0
Sprite,Foreground,Centre,"SB\sakura1.png",320,240 F,0,191148,193099,1 M,0,191148,193499,505,-24,518,292 S,0,191148,193499,0.1 R,0,191148,193499,2.1,-0.96 F,0,193099,193499,1,0
Sprite,Foreground,Centre,"SB\sakura1.png",320,240 F,0,191504,192850,1 M,0,191504,193250,232,-35,208,298 S,0,191504,193250,0.27 R,0,191504,193250,1.54,-1.11 F,0,192850,193250,1,0
Sprite,Foreground,Centre,"SB\sakura1.png",320,240 F,0,192518,194422,1 M,0,192518,194822,73,-47,133,259 S,0,192518,194822,0.47 R,0,192518,194822,0.39,-2.44 F,0,194422,194822,1,0
Sprite,Foreground,Centre,"SB\sakura1.png",320,240 F,0,192626,193569,1 M,0,192626,193969,413,-20,383,295 S,0,192626,193969,0.38 R,0,192626,193969,2.2,-2.48 F,0,193569,193969,1,0
Sprite,Foreground,Centre,"SB\sakura1.png",320,240 F,0,193771,195622,1 M,0,193771,196022,465,-28,513,237 S,0,193771,196022,0.23 R,0,193771,196022,0.36,-1.19 F,0,195622,196022,1,0
Sprite,Foreground,Centre,"SB\sakura1.png",320,240 F,0,194243,195183,1 M,0,194243,195583,304,-39,328,274 S,0,194243,195583,0.38 R,0,194243,195583,2.62,-2.23 F,0,195183,195583,1,0
Sprite,Foreground,Centre,"SB\sakura1.png",320,240 F,0,194644,196258,1 M,0,194644,196658,368,-22,412,252 S,0,194644,196658,0.39 R,0,194644,196658,2.87,-2.27 F,0,196258,196658,1,0
Sprite,Foreground,Centre,"SB\sakura1.png",320,240 F,0,195293,196617,1 M,0,195293,197017,121,-33,148,279 S,0,195293,197017,0.28 R,0,195293,197017,2.13,-0.11 F,0,196617,197017,1,0
Sprite,Foreground,Centre,"SB\sakura1.png",320,240 F,0,196532,198036,1 M,0,196532,198436,80,-32,93,238 S,0,196532,198436,0.25 R,0,196532,198436,1.88,-1.29 F,0,198036,198436,1,0
Sprite,Foreground,Centre,"SB\sakura1.png",320,240 F,0,195935,198004,1 M,0,195935,198404,590,-39,635,246 S,0,195935,198404,0.26 R,0,195935,198404,0.47,-0.78 F,0,198004,198404,1,0
Sprite,Foreground,Centre,"SB\sakura1.png",320,240 F,0,197571,199395,1 M,0,197571,199795,-6,-45,-52,203 S,0,197571,199795,0.37 R,0,197571,199795,2.11,-0.86 F,0,199395,199795,1,0
Sprite,Foreground,Centre,"SB\sakura1.png",320,240 F,0,197782,198693,1 M,0,197782,199093,268,-50,267,257 S,0,197782,199093,0.24 R,0,197782,199093,0.51,-2.17 F,0,198693,199093,1,0
Sprite,Foreground,Centre,"SB\sakura1.png",320,240 F,0,198461,200176,1 M,0,198461,200576,-6,-37,11,265 S,0,198461,200576,0.3 R,0,198461,200576,1.98,-0.72 F,0,200176,200576,1,0
Sprite,Foreground,Centre,"SB\sakura1.png",320,240 F,0,199145,200318,1 M,0,199145,200718,67,-35,80,205 S,0,199145,200718,0.18 R,0,199145,200718,2.34,-2.44 F,0,200318,200718,1,0
Sprite,Foreground,Centre,"SB\sakura1.png",320,240 F,0,200255,201564,1 M,0,200255,201964,146,-48,102,269 S,0,200255,201964,0.46 R,0,200255,201964,0.78,-2.08 F,0,201564,201964,1,0
Sprite,Foreground,Centre,"SB\sakura1.png",320,240 F,0,200396,201243,1 M,0,200396,201643,81,-25,138,254 S,0,200396,201643,0.25 R,0,200396,201643,1.84,-0.07 F,0,201243,201643,1,0
Sprite,Foreground,Centre,"SB\sakura1.png",320,240 F,0,201532,202922,1 M,0,201532,203322,293,-20,250,291 S,0,201532,203322,0.42 R,0,201532,203322,2.95,-0.36 F,0,202922,203322,1,0
Sprite,Foreground,Centre,"SB\sakura1.png",320,240 F,0,201479,202736,1 M,0,201479,203136,444,-21,395,297 S,0,201479,203136,0.15 R,0,201479,203136,1.23,-1.35 F,0,202736,203136,1,0
Sprite,Foreground,Centre,"SB\sakura1.png",320,240 F,0,202192,204406,1 M,0,202192,204806,545,-45,576,222 S,0,202192,204806,0.43 R,0,202192,204806,1.17,-1.98 F,0,204406,204806,1,0
Sprite,Foreground,Centre,"SB\sakura1.png",320,240 F,0,202705,204477,1 M,0,202705,204877,489,-41,508,291 S,0,202705,204877,0.23 R,0,202705,204877,0.05,-1.74 F,0,204477,204877,1,0
Sprite,Foreground,Centre,"SB\sakura1.png",320,240 F,0,204250,205007,1 M,0,204250,205407,194,-41,163,214 S,0,204250,205407,0.14 R,0,204250,205407,3.08,-0.34 F,0,205007,205407,1,0
Sprite,Foreground,Centre,"SB\sakura1.png",320,240 F,0,203634,205272,1 M,0,203634,205672,438,-22,396,240 S,0,203634,205672,0.15 R,0,203634,205672,3.14,-2.98 F,0,205272,205672,1,0
Sprite,Foreground,Centre,"SB\sakura1.png",320,240 F,0,205046,206225,1 M,0,205046,206625,87,-41,85,234 S,0,205046,206625,0.28 R,0,205046,206625,2.44,-2.96 F,0,206225,206625,1,0
Sprite,Foreground,Centre,"SB\sakura1.png",320,240 F,0,205179,206816,1 M,0,205179,207216,442,-41,474,236 S,0,205179,207216,0.21 R,0,205179,207216,1.51,-0.98 F,0,206816,207216,1,0
Sprite,Foreground,Centre,"SB\sakura1.png",320,240 F,0,206688,207926,1 M,0,206688,208326,94,-31,145,237 S,0,206688,208326,0.36 R,0,206688,208326,3.09,-0.13 F,0,207926,208326,1,0
Sprite,Foreground,Centre,"SB\sakura1.png",320,240 F,0,206689,208230,1 M,0,206689,208630,429,-40,373,258 S,0,206689,208630,0.39 R,0,206689,208630,1.42,-2.44 F,0,208230,208630,1,0
Sprite,Foreground,Centre,"SB\sakura1.png",320,240 F,0,207527,208694,1 M,0,207527,209094,512,-32,465,219 S,0,207527,209094,0.37 R,0,207527,209094,0.75,-1.27 F,0,208694,209094,1,0
Sprite,Foreground,Centre,"SB\sakura1.png",320,240 F,0,207639,209480,1 M,0,207639,209880,501,-35,555,211 S,0,207639,209880,0.46 R,0,207639,209880,2.72,-2.63 F,0,209480,209880,1,0
Sprite,Foreground,Centre,"SB\sakura1.png",320,240 F,0,208594,210825,1 M,0,208594,211225,313,-32,270,229 S,0,208594,211225,0.43 R,0,208594,211225,1.43,-0.55 F,0,210825,211225,1,0
Sprite,Foreground,Centre,"SB\sakura1.png",320,240 F,0,208619,210376,1 M,0,208619,210776,308,-30,313,251 S,0,208619,210776,0.4 R,0,208619,210776,1.05,-2.43 F,0,210376,210776,1,0
Sprite,Foreground,Centre,"SB\sakura1.png",320,240 F,0,210260,211657,1 M,0,210260,212057,570,-44,599,276 S,0,210260,212057,0.36 R,0,210260,212057,2.82,-2.91 F,0,211657,212057,1,0
Sprite,Foreground,Centre,"SB\sakura1.png",320,240 F,0,209831,211427,1 M,0,209831,211827,606,-29,617,297 S,0,209831,211827,0.41 R,0,209831,211827,1.41,-1.21 F,0,211427,211827,1,0
Sprite,Foreground,Centre,"SB\sakura1.png",320,240 F,0,211540,213081,1 M,0,211540,213481,382,-37,393,208 S,0,211540,213481,0.42 R,0,211540,213481,2.41,-0.97 F,0,213081,213481,1,0
Sprite,Foreground,Centre,"SB\sakura1.png",320,240 F,0,211391,213253,1 M,0,211391,213653,152,-48,201,221 S,0,211391,213653,0.45 R,0,211391,213653,3.12,-1.52 F,0,213253,213653,1,0
Sprite,Foreground,Centre,"SB\sakura1.png",320,240 F,0,212528,214053,1 M,0,212528,214453,517,-27,474,207 S,0,212528,214453,0.19 R,0,212528,214453,2.48,-2.91 F,0,214053,214453,1,0
Sprite,Foreground,Centre,"SB\sakura1.png",320,240 F,0,212994,214375,1 M,0,212994,214775,255,-39,299,251 S,0,212994,214775,0.49 R,0,212994,214775,0.95,-1.86 F,0,214375,214775,1,0
Sprite,Foreground,Centre,"SB\sakura1.png",320,240 F,0,213950,215465,1 M,0,213950,215865,535,-35,540,247 S,0,213950,215865,0.48 R,0,213950,215865,2.26,-1.82 F,0,215465,215865,1,0
Sprite,Foreground,Centre,"SB\sakura1.png",320,240 F,0,213631,215892,1 M,0,213631,216292,234,-45,292,260 S,0,213631,216292,0.19 R,0,213631,216292,2.11,-0.43 F,0,215892,216292,1,0
Sprite,Foreground,Centre,"SB\sakura1.png",320,240 F,0,214974,216422,1 M,0,214974,216822,165,-20,152,298 S,0,214974,216822,0.14 R,0,214974,216822,0.34,-2.3 F,0,216422,216822,1,0
Sprite,Foreground,Centre,"SB\sakura1.png",320,240 F,0,214996,216248,1 M,0,214996,216648,407,-33,396,288 S,0,214996,216648,0.2 R,0,214996,216648,2.88,-1.68 F,0,216248,216648,1,0
Sprite,Foreground,Centre,"SB\sakura1.png",320,240 F,0,216440,217542,1 M,0,216440,217942,291,-44,280,274 S,0,216440,217942,0.37 R,0,216440,217942,0.68,-0.85 F,0,217542,217942,1,0
Sprite,Foreground,Centre,"SB\sakura1.png",320,240 F,0,216146,217610,1 M,0,216146,218010,597,-26,579,211 S,0,216146,218010,0.24 R,0,216146,218010,3.08,-2.55 F,0,217610,218010,1,0
Sprite,Foreground,Centre,"SB\sakura1.png",320,240 F,0,217586,219211,1 M,0,217586,219611,455,-23,510,261 S,0,217586,219611,0.4 R,0,217586,219611,1.13,-2.72 F,0,219211,219611,1,0
Sprite,Foreground,Centre,"SB\sakura1.png",320,240 F,0,218123,219495,1 M,0,218123,219895,313,-45,266,225 S,0,218123,219895,0.26 R,0,218123,219895,0.82,-2.18 F,0,219495,219895,1,0
Sprite,Foreground,Centre,"SB\sakura1.png",320,240 F,0,218777,220098,1 M,0,218777,220498,61,-29,26,238 S,0,218777,220498,0.24 R,0,218777,220498,1.87,-0.81 F,0,220098,220498,1,0
Sprite,Foreground,Centre,"SB\sakura1.png",320,240 F,0,219234,220913,1 M,0,219234,221313,382,-25,377,265 S,0,219234,221313,0.44 R,0,219234,221313,0.59,-1.2 F,0,220913,221313,1,0
Sprite,Foreground,Centre,"SB\sakura1.png",320,240 F,0,220370,221787,1 M,0,220370,222187,631,-39,657,278 S,0,220370,222187,0.39 R,0,220370,222187,1.73,-2.37 F,0,221787,222187,1,0
Sprite,Foreground,Centre,"SB\sakura1.png",320,240 F,0,220585,221525,1 M,0,220585,221925,80,-49,103,225 S,0,220585,221925,0.24 R,0,220585,221925,1.29,-3.06 F,0,221525,221925,1,0
Sprite,Foreground,Centre,"SB\sakura1.png",320,240 F,0,221256,222876,1 M,0,221256,223276,486,-49,546,282 S,0,221256,223276,0.43 R,0,221256,223276,2.1,-1.13 F,0,222876,223276,1,0
Sprite,Foreground,Centre,"SB\sakura1.png",320,240 F,0,221589,222578,1 M,0,221589,222978,74,-20,131,281 S,0,221589,222978,0.47 R,0,221589,222978,0.22,-1.87 F,0,222578,222978,1,0
Sprite,Foreground,Centre,"SB\sakura1.png",320,240 F,0,223037,223953,1 M,0,223037,224353,167,-36,179,219 S,0,223037,224353,0.33 R,0,223037,224353,2.31,-1.48 F,0,223953,224353,1,0
Sprite,Foreground,Centre,"SB\sakura1.png",320,240 F,0,222658,224547,1 M,0,222658,224947,386,-33,428,294 S,0,222658,224947,0.11 R,0,222658,224947,0.46,-0.5 F,0,224547,224947,1,0
Sprite,Foreground,Centre,"SB\sakura1.png",320,240 F,0,224536,225907,1 M,0,224536,226307,520,-50,579,291 S,0,224536,226307,0.45 R,0,224536,226307,2.94,-1.87 F,0,225907,226307,1,0
Sprite,Foreground,Centre,"SB\sakura1.png",320,240 F,0,224141,225225,1 M,0,224141,225625,309,-43,271,224 S,0,224141,225625,0.46 R,0,224141,225625,0.06,-1.89 F,0,225225,225625,1,0
Sprite,Foreground,Centre,"SB\sakura1.png",320,240 F,0,225380,227012,1 M,0,225380,227412,13,-39,16,244 S,0,225380,227412,0.43 R,0,225380,227412,0.28,-1.56 F,0,227012,227412,1,0
Sprite,Foreground,Centre,"SB\sakura1.png",320,240 F,0,225332,226549,1 M,0,225332,226949,70,-33,118,202 S,0,225332,226949,0.1 R,0,225332,226949,1.33,-0.39 F,0,226549,226949,1,0
Sprite,Foreground,Centre,"SB\sakura1.png",320,240 F,0,226373,227698,1 M,0,226373,228098,588,-42,614,285 S,0,226373,228098,0.18 R,0,226373,228098,2.98,-1.07 F,0,227698,228098,1,0
Sprite,Foreground,Centre,"SB\sakura1.png",320,240 F,0,226802,228425,1 M,0,226802,228825,227,-45,196,207 S,0,226802,228825,0.13 R,0,226802,228825,2.74,-2.53 F,0,228425,228825,1,0
Sprite,Foreground,Centre,"SB\sakura2.png",320,240 F,0,108970,110649,1 M,0,108970,111049,507,-49,512,251 S,0,108970,111049,0.6 R,0,108970,111049,3.07,-1.62 F,0,110649,111049,1,0
Sprite,Foreground,Centre,"SB\sakura2.png",320,240 F,0,109540,110537,1 M,0,109540,110937,241,-50,229,266 S,0,109540,110937,0.42 R,0,109540,110937,1.75,-0.5 F,0,110537,110937,1,0
Sprite,Foreground,Centre,"SB\sakura2.png",320,240 F,0,110157,111457,1 M,0,110157,111857,312,-24,292,275 S,0,110157,111857,0.39 R,0,110157,111857,0.2,-2.68 F,0,111457,111857,1,0
Sprite,Foreground,Centre,"SB\sakura2.png",320,240 F,0,110560,111877,1 M,0,110560,112277,537,-27,521,289 S,0,110560,112277,0.42 R,0,110560,112277,0.82,-0.23 F,0,111877,112277,1,0
Sprite,Foreground,Centre,"SB\sakura2.png",320,240 F,0,111334,113226,1 M,0,111334,113626,100,-25,63,235 S,0,111334,113626,0.66 R,0,111334,113626,1.6,-1.43 F,0,113226,113626,1,0
Sprite,Foreground,Centre,"SB\sakura2.png",320,240 F,0,111920,113005,1 M,0,111920,113405,-4,-20,24,207 S,0,111920,113405,0.31 R,0,111920,113405,3.01,-2.39 F,0,113005,113405,1,0
Sprite,Foreground,Centre,"SB\sakura2.png",320,240 F,0,112567,114074,1 M,0,112567,114474,77,-49,40,273 S,0,112567,114474,0.66 R,0,112567,114474,1.63,-1.51 F,0,114074,114474,1,0
Sprite,Foreground,Centre,"SB\sakura2.png",320,240 F,0,114511,115643,1 M,0,114511,116043,109,-27,169,265 S,0,114511,116043,0.68 R,0,114511,116043,0.75,-2.4 F,0,115643,116043,1,0
Sprite,Foreground,Centre,"SB\sakura2.png",320,240 F,0,114514,116068,1 M,0,114514,116468,24,-50,62,232 S,0,114514,116468,0.44 R,0,114514,116468,0.35,-1.37 F,0,116068,116468,1,0
Sprite,Foreground,Centre,"SB\sakura2.png",320,240 F,0,115275,117305,1 M,0,115275,117705,346,-33,320,298 S,0,115275,117705,0.53 R,0,115275,117705,1.82,-2.4 F,0,117305,117705,1,0
Sprite,Foreground,Centre,"SB\sakura2.png",320,240 F,0,115283,117252,1 M,0,115283,117652,209,-24,156,264 S,0,115283,117652,0.3 R,0,115283,117652,1.13,-0.56 F,0,117252,117652,1,0
Sprite,Foreground,Centre,"SB\sakura2.png",320,240 F,0,117127,118073,1 M,0,117127,118473,200,-45,144,246 S,0,117127,118473,0.57 R,0,117127,118473,1.18,-2.88 F,0,118073,118473,1,0
Sprite,Foreground,Centre,"SB\sakura2.png",320,240 F,0,116956,118178,1 M,0,116956,118578,133,-32,106,240 S,0,116956,118578,0.32 R,0,116956,118578,0.4,-2.15 F,0,118178,118578,1,0
Sprite,Foreground,Centre,"SB\sakura2.png",320,240 F,0,118188,119643,1 M,0,118188,120043,493,-29,457,247 S,0,118188,120043,0.35 R,0,118188,120043,0.59,-0.31 F,0,119643,120043,1,0
Sprite,Foreground,Centre,"SB\sakura2.png",320,240 F,0,117830,119749,1 M,0,117830,120149,174,-43,231,200 S,0,117830,120149,0.58 R,0,117830,120149,1.5,-2.45 F,0,119749,120149,1,0
Sprite,Foreground,Centre,"SB\sakura2.png",320,240 F,0,118836,120863,1 M,0,118836,121263,101,-41,59,223 S,0,118836,121263,0.58 R,0,118836,121263,1.82,-2.06 F,0,120863,121263,1,0
Sprite,Foreground,Centre,"SB\sakura2.png",320,240 F,0,120263,122266,1 M,0,120263,122666,454,-37,470,270 S,0,120263,122666,0.54 R,0,120263,122666,1.06,-2.34 F,0,122266,122666,1,0
Sprite,Foreground,Centre,"SB\sakura2.png",320,240 F,0,120364,121628,1 M,0,120364,122028,51,-33,85,272 S,0,120364,122028,0.33 R,0,120364,122028,1.19,-2.5 F,0,121628,122028,1,0
Sprite,Foreground,Centre,"SB\sakura2.png",320,240 F,0,121936,123232,1 M,0,121936,123632,7,-31,-2,204 S,0,121936,123632,0.66 R,0,121936,123632,2.89,-1.64 F,0,123232,123632,1,0
Sprite,Foreground,Centre,"SB\sakura2.png",320,240 F,0,121674,123191,1 M,0,121674,123591,526,-24,518,257 S,0,121674,123591,0.65 R,0,121674,123591,3.04,-2.84 F,0,123191,123591,1,0
Sprite,Foreground,Centre,"SB\sakura2.png",320,240 F,0,123482,124615,1 M,0,123482,125015,165,-27,164,223 S,0,123482,125015,0.67 R,0,123482,125015,0.48,-2.15 F,0,124615,125015,1,0
Sprite,Foreground,Centre,"SB\sakura2.png",320,240 F,0,122977,124580,1 M,0,122977,124980,415,-44,446,269 S,0,122977,124980,0.51 R,0,122977,124980,2.01,-1.95 F,0,124580,124980,1,0
Sprite,Foreground,Centre,"SB\sakura2.png",320,240 F,0,124445,125584,1 M,0,124445,125984,281,-45,245,249 S,0,124445,125984,0.68 R,0,124445,125984,2.71,-2.12 F,0,125584,125984,1,0
Sprite,Foreground,Centre,"SB\sakura2.png",320,240 F,0,124031,125687,1 M,0,124031,126087,364,-45,365,257 S,0,124031,126087,0.46 R,0,124031,126087,1.35,-2.58 F,0,125687,126087,1,0
Sprite,Foreground,Centre,"SB\sakura2.png",320,240 F,0,125677,127463,1 M,0,125677,127863,524,-28,492,236 S,0,125677,127863,0.48 R,0,125677,127863,1.76,-0.71 F,0,127463,127863,1,0
Sprite,Foreground,Centre,"SB\sakura2.png",320,240 F,0,125267,126776,1 M,0,125267,127176,484,-32,474,228 S,0,125267,127176,0.7 R,0,125267,127176,1.76,-2.98 F,0,126776,127176,1,0
Sprite,Foreground,Centre,"SB\sakura2.png",320,240 F,0,126484,128407,1 M,0,126484,128807,143,-24,143,208 S,0,126484,128807,0.3 R,0,126484,128807,0.98,-1.56 F,0,128407,128807,1,0
Sprite,Foreground,Centre,"SB\sakura2.png",320,240 F,0,126830,128681,1 M,0,126830,129081,438,-41,463,211 S,0,126830,129081,0.59 R,0,126830,129081,2.53,-0.07 F,0,128681,129081,1,0
Sprite,Foreground,Centre,"SB\sakura2.png",320,240 F,0,128168,129925,1 M,0,128168,130325,201,-46,218,227 S,0,128168,130325,0.33 R,0,128168,130325,1.99,-2.41 F,0,129925,130325,1,0
Sprite,Foreground,Centre,"SB\sakura2.png",320,240 F,0,127715,129954,1 M,0,127715,130354,310,-31,329,217 S,0,127715,130354,0.64 R,0,127715,130354,3.12,-2.09 F,0,129954,130354,1,0
Sprite,Foreground,Centre,"SB\sakura2.png",320,240 F,0,129697,130554,1 M,0,129697,130954,558,-40,561,269 S,0,129697,130954,0.37 R,0,129697,130954,2.97,-1.43 F,0,130554,130954,1,0
Sprite,Foreground,Centre,"SB\sakura2.png",320,240 F,0,129211,130695,1 M,0,129211,131095,421,-23,449,238 S,0,129211,131095,0.43 R,0,129211,131095,1.08,-2.22 F,0,130695,131095,1,0
Sprite,Foreground,Centre,"SB\sakura2.png",320,240 F,0,130425,132238,1 M,0,130425,132638,71,-39,66,228 S,0,130425,132638,0.63 R,0,130425,132638,1.99,-1.2 F,0,132238,132638,1,0
Sprite,Foreground,Centre,"SB\sakura2.png",320,240 F,0,132344,133216,1 M,0,132344,133616,102,-35,102,250 S,0,132344,133616,0.52 R,0,132344,133616,0.51,-0.11 F,0,133216,133616,1,0
Sprite,Foreground,Centre,"SB\sakura2.png",320,240 F,0,131754,133254,1 M,0,131754,133654,523,-39,582,267 S,0,131754,133654,0.51 R,0,131754,133654,2.92,-2.02 F,0,133254,133654,1,0
Sprite,Foreground,Centre,"SB\sakura2.png",320,240 F,0,133007,134279,1 M,0,133007,134679,382,-36,338,219 S,0,133007,134679,0.46 R,0,133007,134679,2.98,-0.39 F,0,134279,134679,1,0
Sprite,Foreground,Centre,"SB\sakura2.png",320,240 F,0,132729,134279,1 M,0,132729,134679,462,-40,503,205 S,0,132729,134679,0.55 R,0,132729,134679,2.31,-0.63 F,0,134279,134679,1,0
Sprite,Foreground,Centre,"SB\sakura2.png",320,240 F,0,134090,136060,1 M,0,134090,136460,173,-45,211,299 S,0,134090,136460,0.54 R,0,134090,136460,0.71,-1.6 F,0,136060,136460,1,0
Sprite,Foreground,Centre,"SB\sakura2.png",320,240 F,0,135762,137555,1 M,0,135762,137955,45,-33,33,257 S,0,135762,137955,0.45 R,0,135762,137955,2.7,-2.83 F,0,137555,137955,1,0
Sprite,Foreground,Centre,"SB\sakura2.png",320,240 F,0,135720,137363,1 M,0,135720,137763,471,-47,510,220 S,0,135720,137763,0.48 R,0,135720,137763,1.77,-1.1 F,0,137363,137763,1,0
Sprite,Foreground,Centre,"SB\sakura2.png",320,240 F,0,137121,138469,1 M,0,137121,138869,518,-28,565,245 S,0,137121,138869,0.63 R,0,137121,138869,0.84,-2.59 F,0,138469,138869,1,0
Sprite,Foreground,Centre,"SB\sakura2.png",320,240 F,0,137192,138338,1 M,0,137192,138738,512,-20,492,262 S,0,137192,138738,0.43 R,0,137192,138738,0.69,-1.67 F,0,138338,138738,1,0
Sprite,Foreground,Centre,"SB\sakura2.png",320,240 F,0,138112,139533,1 M,0,138112,139933,73,-23,33,217 S,0,138112,139933,0.39 R,0,138112,139933,0.07,-0.22 F,0,139533,139933,1,0
Sprite,Foreground,Centre,"SB\sakura2.png",320,240 F,0,139295,140784,1 M,0,139295,141184,99,-36,120,266 S,0,139295,141184,0.31 R,0,139295,141184,0.29,-2.95 F,0,140784,141184,1,0
Sprite,Foreground,Centre,"SB\sakura2.png",320,240 F,0,139020,141191,1 M,0,139020,141591,546,-25,522,280 S,0,139020,141591,0.36 R,0,139020,141591,2.82,-2.97 F,0,141191,141591,1,0
Sprite,Foreground,Centre,"SB\sakura2.png",320,240 F,0,140882,142369,1 M,0,140882,142769,36,-22,54,282 S,0,140882,142769,0.54 R,0,140882,142769,1.98,-2.34 F,0,142369,142769,1,0
Sprite,Foreground,Centre,"SB\sakura2.png",320,240 F,0,140677,142492,1 M,0,140677,142892,381,-42,366,208 S,0,140677,142892,0.43 R,0,140677,142892,0.41,-0.37 F,0,142492,142892,1,0
Sprite,Foreground,Centre,"SB\sakura2.png",320,240 F,0,142144,143755,1 M,0,142144,144155,637,-36,678,300 S,0,142144,144155,0.42 R,0,142144,144155,2.79,-0.76 F,0,143755,144155,1,0
Sprite,Foreground,Centre,"SB\sakura2.png",320,240 F,0,142163,143516,1 M,0,142163,143916,439,-36,462,256 S,0,142163,143916,0.58 R,0,142163,143916,2.96,-1.2 F,0,143516,143916,1,0
Sprite,Foreground,Centre,"SB\sakura2.png",320,240 F,0,143009,145103,1 M,0,143009,145503,69,-48,78,246 S,0,143009,145503,0.67 R,0,143009,145503,2.09,-1.52 F,0,145103,145503,1,0
Sprite,Foreground,Centre,"SB\sakura2.png",320,240 F,0,143127,145127,1 M,0,143127,145527,489,-34,459,212 S,0,143127,145527,0.5 R,0,143127,145527,3.02,-0.63 F,0,145127,145527,1,0
Sprite,Foreground,Centre,"SB\sakura2.png",320,240 F,0,144436,146304,1 M,0,144436,146704,144,-44,105,252 S,0,144436,146704,0.34 R,0,144436,146704,1.49,-2.59 F,0,146304,146704,1,0
Sprite,Foreground,Centre,"SB\sakura2.png",320,240 F,0,144714,145669,1 M,0,144714,146069,176,-49,215,238 S,0,144714,146069,0.34 R,0,144714,146069,1.19,-1.86 F,0,145669,146069,1,0
Sprite,Foreground,Centre,"SB\sakura2.png",320,240 F,0,146011,147597,1 M,0,146011,147997,491,-23,447,275 S,0,146011,147997,0.68 R,0,146011,147997,0.37,-0.59 F,0,147597,147997,1,0
Sprite,Foreground,Centre,"SB\sakura2.png",320,240 F,0,146151,147211,1 M,0,146151,147611,440,-35,496,261 S,0,146151,147611,0.38 R,0,146151,147611,0.38,-0.37 F,0,147211,147611,1,0
Sprite,Foreground,Centre,"SB\sakura2.png",320,240 F,0,146689,148957,1 M,0,146689,149357,312,-33,314,244 S,0,146689,149357,0.6 R,0,146689,149357,3.14,-3.04 F,0,148957,149357,1,0
Sprite,Foreground,Centre,"SB\sakura2.png",320,240 F,0,147025,148571,1 M,0,147025,148971,356,-27,310,214 S,0,147025,148971,0.37 R,0,147025,148971,0.5,-1.8 F,0,148571,148971,1,0
Sprite,Foreground,Centre,"SB\sakura2.png",320,240 F,0,148626,149570,1 M,0,148626,149970,580,-21,580,211 S,0,148626,149970,0.64 R,0,148626,149970,1.39,-1.36 F,0,149570,149970,1,0
Sprite,Foreground,Centre,"SB\sakura2.png",320,240 F,0,148471,149723,1 M,0,148471,150123,583,-29,542,210 S,0,148471,150123,0.68 R,0,148471,150123,2.9,-1.66 F,0,149723,150123,1,0
Sprite,Foreground,Centre,"SB\sakura2.png",320,240 F,0,149881,150984,1 M,0,149881,151384,123,-38,124,226 S,0,149881,151384,0.56 R,0,149881,151384,1.66,-1.18 F,0,150984,151384,1,0
Sprite,Foreground,Centre,"SB\sakura2.png",320,240 F,0,149761,151451,1 M,0,149761,151851,49,-27,13,223 S,0,149761,151851,0.31 R,0,149761,151851,3.02,-1.72 F,0,151451,151851,1,0
Sprite,Foreground,Centre,"SB\sakura2.png",320,240 F,0,150956,152271,1 M,0,150956,152671,163,-43,158,274 S,0,150956,152671,0.47 R,0,150956,152671,1.97,-0.91 F,0,152271,152671,1,0
Sprite,Foreground,Centre,"SB\sakura2.png",320,240 F,0,151197,152416,1 M,0,151197,152816,377,-34,360,262 S,0,151197,152816,0.59 R,0,151197,152816,0.29,-0.97 F,0,152416,152816,1,0
Sprite,Foreground,Centre,"SB\sakura2.png",320,240 F,0,152003,153726,1 M,0,152003,154126,48,-36,13,225 S,0,152003,154126,0.51 R,0,152003,154126,2.95,-0.59 F,0,153726,154126,1,0
Sprite,Foreground,Centre,"SB\sakura2.png",320,240 F,0,153096,154484,1 M,0,153096,154884,5,-23,-35,241 S,0,153096,154884,0.51 R,0,153096,154884,1.52,-0.4 F,0,154484,154884,1,0
Sprite,Foreground,Centre,"SB\sakura2.png",320,240 F,0,153323,154421,1 M,0,153323,154821,196,-25,246,276 S,0,153323,154821,0.38 R,0,153323,154821,1.66,-0.21 F,0,154421,154821,1,0
Sprite,Foreground,Centre,"SB\sakura2.png",320,240 F,0,154253,156354,1 M,0,154253,156754,565,-31,572,230 S,0,154253,156754,0.7 R,0,154253,156754,1.61,-1.73 F,0,156354,156754,1,0
Sprite,Foreground,Centre,"SB\sakura2.png",320,240 F,0,154334,156485,1 M,0,154334,156885,102,-25,95,214 S,0,154334,156885,0.32 R,0,154334,156885,2.92,-2.26 F,0,156485,156885,1,0
Sprite,Foreground,Centre,"SB\sakura2.png",320,240 F,0,155535,157154,1 M,0,155535,157554,361,-49,346,256 S,0,155535,157554,0.63 R,0,155535,157554,2.72,-1.83 F,0,157154,157554,1,0
Sprite,Foreground,Centre,"SB\sakura2.png",320,240 F,0,156240,157356,1 M,0,156240,157756,318,-31,301,245 S,0,156240,157756,0.68 R,0,156240,157756,1.89,-1.5 F,0,157356,157756,1,0
Sprite,Foreground,Centre,"SB\sakura2.png",320,240 F,0,157295,158926,1 M,0,157295,159326,318,-36,324,269 S,0,157295,159326,0.56 R,0,157295,159326,1.14,-0.87 F,0,158926,159326,1,0
Sprite,Foreground,Centre,"SB\sakura2.png",320,240 F,0,157118,158971,1 M,0,157118,159371,611,-28,572,258 S,0,157118,159371,0.68 R,0,157118,159371,0.31,-2.63 F,0,158971,159371,1,0
Sprite,Foreground,Centre,"SB\sakura2.png",320,240 F,0,158003,160229,1 M,0,158003,160629,418,-25,416,265 S,0,158003,160629,0.6 R,0,158003,160629,2.1,-1.67 F,0,160229,160629,1,0
Sprite,Foreground,Centre,"SB\sakura2.png",320,240 F,0,158384,160288,1 M,0,158384,160688,77,-42,83,238 S,0,158384,160688,0.48 R,0,158384,160688,2.75,-2.93 F,0,160288,160688,1,0
Sprite,Foreground,Centre,"SB\sakura2.png",320,240 F,0,160038,160820,1 M,0,160038,161220,281,-33,266,246 S,0,160038,161220,0.6 R,0,160038,161220,1.73,-0.47 F,0,160820,161220,1,0
Sprite,Foreground,Centre,"SB\sakura2.png",320,240 F,0,159955,160884,1 M,0,159955,161284,386,-47,434,239 S,0,159955,161284,0.49 R,0,159955,161284,0.58,-1.06 F,0,160884,161284,1,0
Sprite,Foreground,Centre,"SB\sakura2.png",320,240 F,0,160812,162023,1 M,0,160812,162423,-10,-49,-18,255 S,0,160812,162423,0.56 R,0,160812,162423,2.74,-1.37 F,0,162023,162423,1,0
Sprite,Foreground,Centre,"SB\sakura2.png",320,240 F,0,161340,161996,1 M,0,161340,162396,543,-46,596,257 S,0,161340,162396,0.39 R,0,161340,162396,2.25,-2.26 F,0,161996,162396,1,0
Sprite,Foreground,Centre,"SB\sakura2.png",320,240 F,0,162525,163548,1 M,0,162525,163948,335,-32,298,276 S,0,162525,163948,0.58 R,0,162525,163948,1.26,-0.07 F,0,163548,163948,1,0
Sprite,Foreground,Centre,"SB\sakura2.png",320,240 F,0,162284,163466,1 M,0,162284,163866,358,-25,342,219 S,0,162284,163866,0.61 R,0,162284,163866,1.81,-2.95 F,0,163466,163866,1,0
Sprite,Foreground,Centre,"SB\sakura2.png",320,240 F,0,163740,165037,1 M,0,163740,165437,383,-32,433,269 S,0,163740,165437,0.46 R,0,163740,165437,2.91,-0.36 F,0,165037,165437,1,0
Sprite,Foreground,Centre,"SB\sakura2.png",320,240 F,0,163317,164634,1 M,0,163317,165034,231,-23,274,211 S,0,163317,165034,0.6 R,0,163317,165034,0.7,-2.46 F,0,164634,165034,1,0
Sprite,Foreground,Centre,"SB\sakura2.png",320,240 F,0,164917,166259,1 M,0,164917,166659,62,-42,31,242 S,0,164917,166659,0.58 R,0,164917,166659,0.35,-0.06 F,0,166259,166659,1,0
Sprite,Foreground,Centre,"SB\sakura2.png",320,240 F,0,164281,166223,1 M,0,164281,166623,508,-41,542,286 S,0,164281,166623,0.67 R,0,164281,166623,1.08,-0.92 F,0,166223,166623,1,0
Sprite,Foreground,Centre,"SB\sakura2.png",320,240 F,0,166110,167328,1 M,0,166110,167728,155,-41,114,257 S,0,166110,167728,0.47 R,0,166110,167728,0,-2.59 F,0,167328,167728,1,0
Sprite,Foreground,Centre,"SB\sakura2.png",320,240 F,0,165821,167530,1 M,0,165821,167930,619,-41,599,296 S,0,165821,167930,0.62 R,0,165821,167930,0.57,-1.13 F,0,167530,167930,1,0
Sprite,Foreground,Centre,"SB\sakura2.png",320,240 F,0,167217,168263,1 M,0,167217,168663,405,-22,465,239 S,0,167217,168663,0.4 R,0,167217,168663,1.3,-1.68 F,0,168263,168663,1,0
Sprite,Foreground,Centre,"SB\sakura2.png",320,240 F,0,167323,168486,1 M,0,167323,168886,544,-35,562,229 S,0,167323,168886,0.48 R,0,167323,168886,1.25,-0.96 F,0,168486,168886,1,0
Sprite,Foreground,Centre,"SB\sakura2.png",320,240 F,0,168921,169528,1 M,0,168921,169928,494,-41,489,220 S,0,168921,169928,0.35 R,0,168921,169928,2.27,-1.72 F,0,169528,169928,1,0
Sprite,Foreground,Centre,"SB\sakura2.png",320,240 F,0,168523,170272,1 M,0,168523,170672,403,-41,448,288 S,0,168523,170672,0.49 R,0,168523,170672,2.95,-2.07 F,0,170272,170672,1,0
Sprite,Foreground,Centre,"SB\sakura2.png",320,240 F,0,170034,171061,1 M,0,170034,171461,203,-31,167,246 S,0,170034,171461,0.32 R,0,170034,171461,1.31,-3 F,0,171061,171461,1,0
Sprite,Foreground,Centre,"SB\sakura2.png",320,240 F,0,170127,171038,1 M,0,170127,171438,221,-38,231,294 S,0,170127,171438,0.48 R,0,170127,171438,0.63,-0.61 F,0,171038,171438,1,0
Sprite,Foreground,Centre,"SB\sakura2.png",320,240 F,0,170990,172927,1 M,0,170990,173327,228,-27,198,258 S,0,170990,173327,0.65 R,0,170990,173327,0.85,-2.56 F,0,172927,173327,1,0
Sprite,Foreground,Centre,"SB\sakura2.png",320,240 F,0,170972,172335,1 M,0,170972,172735,307,-28,250,290 S,0,170972,172735,0.42 R,0,170972,172735,1.74,-1.55 F,0,172335,172735,1,0
Sprite,Foreground,Centre,"SB\sakura2.png",320,240 F,0,172183,173941,1 M,0,172183,174341,630,-46,622,294 S,0,172183,174341,0.45 R,0,172183,174341,2.28,-3.08 F,0,173941,174341,1,0
Sprite,Foreground,Centre,"SB\sakura2.png",320,240 F,0,172229,173576,1 M,0,172229,173976,103,-43,157,269 S,0,172229,173976,0.53 R,0,172229,173976,1.88,-1.71 F,0,173576,173976,1,0
Sprite,Foreground,Centre,"SB\sakura2.png",320,240 F,0,173992,175069,1 M,0,173992,175469,613,-25,578,294 S,0,173992,175469,0.61 R,0,173992,175469,0.88,-1.33 F,0,175069,175469,1,0
Sprite,Foreground,Centre,"SB\sakura2.png",320,240 F,0,173934,174560,1 M,0,173934,174960,506,-43,458,284 S,0,173934,174960,0.55 R,0,173934,174960,0.35,-0.82 F,0,174560,174960,1,0
Sprite,Foreground,Centre,"SB\sakura2.png",320,240 F,0,174513,176558,1 M,0,174513,176958,596,-24,583,299 S,0,174513,176958,0.52 R,0,174513,176958,1.75,-0.97 F,0,176558,176958,1,0
Sprite,Foreground,Centre,"SB\sakura2.png",320,240 F,0,174996,176604,1 M,0,174996,177004,324,-44,336,211 S,0,174996,177004,0.49 R,0,174996,177004,2.87,-2.68 F,0,176604,177004,1,0
Sprite,Foreground,Centre,"SB\sakura2.png",320,240 F,0,175694,177230,1 M,0,175694,177630,255,-28,300,229 S,0,175694,177630,0.55 R,0,175694,177630,1.75,-0.95 F,0,177230,177630,1,0
Sprite,Foreground,Centre,"SB\sakura2.png",320,240 F,0,176448,177543,1 M,0,176448,177943,217,-31,214,254 S,0,176448,177943,0.69 R,0,176448,177943,2.11,-1.34 F,0,177543,177943,1,0
Sprite,Foreground,Centre,"SB\sakura2.png",320,240 F,0,177121,179221,1 M,0,177121,179621,131,-37,133,232 S,0,177121,179621,0.36 R,0,177121,179621,1.24,-1.84 F,0,179221,179621,1,0
Sprite,Foreground,Centre,"SB\sakura2.png",320,240 F,0,177084,178655,1 M,0,177084,179055,345,-29,379,291 S,0,177084,179055,0.62 R,0,177084,179055,1.78,-2.52 F,0,178655,179055,1,0
Sprite,Foreground,Centre,"SB\sakura2.png",320,240 F,0,178408,179768,1 M,0,178408,180168,351,-39,320,255 S,0,178408,180168,0.4 R,0,178408,180168,0.24,-2.03 F,0,179768,180168,1,0
Sprite,Foreground,Centre,"SB\sakura2.png",320,240 F,0,179010,179910,1 M,0,179010,180310,633,-41,593,253 S,0,179010,180310,0.58 R,0,179010,180310,2.25,-1.64 F,0,179910,180310,1,0
Sprite,Foreground,Centre,"SB\sakura2.png",320,240 F,0,180144,181255,1 M,0,180144,181655,562,-28,591,262 S,0,180144,181655,0.35 R,0,180144,181655,2.79,-2.66 F,0,181255,181655,1,0
Sprite,Foreground,Centre,"SB\sakura2.png",320,240 F,0,180105,181745,1 M,0,180105,182145,284,-31,288,237 S,0,180105,182145,0.44 R,0,180105,182145,1.51,-3.03 F,0,181745,182145,1,0
Sprite,Foreground,Centre,"SB\sakura2.png",320,240 F,0,181294,183005,1 M,0,181294,183405,393,-45,400,225 S,0,181294,183405,0.69 R,0,181294,183405,0.4,-1.12 F,0,183005,183405,1,0
Sprite,Foreground,Centre,"SB\sakura2.png",320,240 F,0,181358,182563,1 M,0,181358,182963,530,-30,576,291 S,0,181358,182963,0.51 R,0,181358,182963,2.18,-0.36 F,0,182563,182963,1,0
Sprite,Foreground,Centre,"SB\sakura2.png",320,240 F,0,182178,184303,1 M,0,182178,184703,107,-30,148,223 S,0,182178,184703,0.39 R,0,182178,184703,2.95,-0.76 F,0,184303,184703,1,0
Sprite,Foreground,Centre,"SB\sakura2.png",320,240 F,0,182301,184045,1 M,0,182301,184445,265,-37,325,274 S,0,182301,184445,0.34 R,0,182301,184445,1.46,-1.84 F,0,184045,184445,1,0
Sprite,Foreground,Centre,"SB\sakura2.png",320,240 F,0,183296,184679,1 M,0,183296,185079,314,-30,285,202 S,0,183296,185079,0.58 R,0,183296,185079,1.83,-0.91 F,0,184679,185079,1,0
Sprite,Foreground,Centre,"SB\sakura2.png",320,240 F,0,183982,184907,1 M,0,183982,185307,594,-32,554,217 S,0,183982,185307,0.49 R,0,183982,185307,2.13,-0.56 F,0,184907,185307,1,0
Sprite,Foreground,Centre,"SB\sakura2.png",320,240 F,0,184509,186163,1 M,0,184509,186563,89,-32,98,245 S,0,184509,186563,0.53 R,0,184509,186563,0.05,-1.81 F,0,186163,186563,1,0
Sprite,Foreground,Centre,"SB\sakura2.png",320,240 F,0,184718,186279,1 M,0,184718,186679,425,-32,402,225 S,0,184718,186679,0.51 R,0,184718,186679,2.57,-1.03 F,0,186279,186679,1,0
Sprite,Foreground,Centre,"SB\sakura2.png",320,240 F,0,186085,187959,1 M,0,186085,188359,87,-37,53,229 S,0,186085,188359,0.33 R,0,186085,188359,2.72,-2.48 F,0,187959,188359,1,0
Sprite,Foreground,Centre,"SB\sakura2.png",320,240 F,0,186581,187751,1 M,0,186581,188151,374,-39,360,255 S,0,186581,188151,0.46 R,0,186581,188151,2.6,-2.58 F,0,187751,188151,1,0
Sprite,Foreground,Centre,"SB\sakura2.png",320,240 F,0,187623,188680,1 M,0,187623,189080,81,-39,102,247 S,0,187623,189080,0.67 R,0,187623,189080,2.37,-1.07 F,0,188680,189080,1,0
Sprite,Foreground,Centre,"SB\sakura2.png",320,240 F,0,187567,189219,1 M,0,187567,189619,274,-47,225,287 S,0,187567,189619,0.45 R,0,187567,189619,0.75,-0.72 F,0,189219,189619,1,0
Sprite,Foreground,Centre,"SB\sakura2.png",320,240 F,0,188738,190254,1 M,0,188738,190654,72,-50,92,258 S,0,188738,190654,0.6 R,0,188738,190654,2.49,-3.04 F,0,190254,190654,1,0
Sprite,Foreground,Centre,"SB\sakura2.png",320,240 F,0,188471,190314,1 M,0,188471,190714,113,-38,53,273 S,0,188471,190714,0.31 R,0,188471,190714,1.51,-2.23 F,0,190314,190714,1,0
Sprite,Foreground,Centre,"SB\sakura2.png",320,240 F,0,189707,191200,1 M,0,189707,191600,82,-43,129,202 S,0,189707,191600,0.58 R,0,189707,191600,2.31,-1.44 F,0,191200,191600,1,0
Sprite,Foreground,Centre,"SB\sakura2.png",320,240 F,0,190303,191453,1 M,0,190303,191853,436,-21,380,241 S,0,190303,191853,0.39 R,0,190303,191853,1.9,-2.29 F,0,191453,191853,1,0
Sprite,Foreground,Centre,"SB\sakura2.png",320,240 F,0,190822,192454,1 M,0,190822,192854,167,-36,205,212 S,0,190822,192854,0.42 R,0,190822,192854,0.99,-1.78 F,0,192454,192854,1,0
Sprite,Foreground,Centre,"SB\sakura2.png",320,240 F,0,191701,193041,1 M,0,191701,193441,105,-46,132,219 S,0,191701,193441,0.37 R,0,191701,193441,0.17,-2.34 F,0,193041,193441,1,0
Sprite,Foreground,Centre,"SB\sakura2.png",320,240 F,0,192513,193597,1 M,0,192513,193997,266,-23,281,262 S,0,192513,193997,0.48 R,0,192513,193997,1.8,-2.4 F,0,193597,193997,1,0
Sprite,Foreground,Centre,"SB\sakura2.png",320,240 F,0,192449,194181,1 M,0,192449,194581,205,-39,170,240 S,0,192449,194581,0.58 R,0,192449,194581,1.97,-1.32 F,0,194181,194581,1,0
Sprite,Foreground,Centre,"SB\sakura2.png",320,240 F,0,193496,195437,1 M,0,193496,195837,549,-40,574,256 S,0,193496,195837,0.54 R,0,193496,195837,2.57,-2.79 F,0,195437,195837,1,0
Sprite,Foreground,Centre,"SB\sakura2.png",320,240 F,0,193941,195419,1 M,0,193941,195819,28,-41,61,261 S,0,193941,195819,0.56 R,0,193941,195819,2.81,-2.95 F,0,195419,195819,1,0
Sprite,Foreground,Centre,"SB\sakura2.png",320,240 F,0,195216,196344,1 M,0,195216,196744,133,-39,117,232 S,0,195216,196744,0.67 R,0,195216,196744,3.14,-1.02 F,0,196344,196744,1,0
Sprite,Foreground,Centre,"SB\sakura2.png",320,240 F,0,195447,196359,1 M,0,195447,196759,343,-42,362,299 S,0,195447,196759,0.44 R,0,195447,196759,1.29,-1.12 F,0,196359,196759,1,0
Sprite,Foreground,Centre,"SB\sakura2.png",320,240 F,0,196194,198064,1 M,0,196194,198464,386,-42,328,299 S,0,196194,198464,0.49 R,0,196194,198464,1.38,-0.07 F,0,198064,198464,1,0
Sprite,Foreground,Centre,"SB\sakura2.png",320,240 F,0,196367,197797,1 M,0,196367,198197,458,-49,459,298 S,0,196367,198197,0.61 R,0,196367,198197,0.85,-0.38 F,0,197797,198197,1,0
Sprite,Foreground,Centre,"SB\sakura2.png",320,240 F,0,197695,199013,1 M,0,197695,199413,370,-32,322,239 S,0,197695,199413,0.7 R,0,197695,199413,1.54,-0.77 F,0,199013,199413,1,0
Sprite,Foreground,Centre,"SB\sakura2.png",320,240 F,0,197359,198903,1 M,0,197359,199303,74,-39,85,204 S,0,197359,199303,0.64 R,0,197359,199303,1.14,-0.31 F,0,198903,199303,1,0
Sprite,Foreground,Centre,"SB\sakura2.png",320,240 F,0,198910,200604,1 M,0,198910,201004,230,-46,170,253 S,0,198910,201004,0.69 R,0,198910,201004,1.37,-1.43 F,0,200604,201004,1,0
Sprite,Foreground,Centre,"SB\sakura2.png",320,240 F,0,198805,199911,1 M,0,198805,200311,475,-24,496,257 S,0,198805,200311,0.39 R,0,198805,200311,1.63,-0.47 F,0,199911,200311,1,0
Sprite,Foreground,Centre,"SB\sakura2.png",320,240 F,0,200040,201975,1 M,0,200040,202375,14,-35,-16,260 S,0,200040,202375,0.42 R,0,200040,202375,2.08,-0.38 F,0,201975,202375,1,0
Sprite,Foreground,Centre,"SB\sakura2.png",320,240 F,0,200044,201851,1 M,0,200044,202251,204,-41,195,231 S,0,200044,202251,0.49 R,0,200044,202251,1.93,-2.98 F,0,201851,202251,1,0
Sprite,Foreground,Centre,"SB\sakura2.png",320,240 F,0,201213,203198,1 M,0,201213,203598,51,-33,109,244 S,0,201213,203598,0.41 R,0,201213,203598,1.18,-1.68 F,0,203198,203598,1,0
Sprite,Foreground,Centre,"SB\sakura2.png",320,240 F,0,201725,202371,1 M,0,201725,202771,146,-37,180,297 S,0,201725,202771,0.36 R,0,201725,202771,0.28,-2.89 F,0,202371,202771,1,0
Sprite,Foreground,Centre,"SB\sakura2.png",320,240 F,0,202429,204183,1 M,0,202429,204583,171,-43,190,263 S,0,202429,204583,0.47 R,0,202429,204583,1.63,-2.23 F,0,204183,204583,1,0
Sprite,Foreground,Centre,"SB\sakura2.png",320,240 F,0,202275,204347,1 M,0,202275,204747,602,-28,614,274 S,0,202275,204747,0.66 R,0,202275,204747,1.57,-0.77 F,0,204347,204747,1,0
Sprite,Foreground,Centre,"SB\sakura2.png",320,240 F,0,203928,205410,1 M,0,203928,205810,3,-46,-46,208 S,0,203928,205810,0.44 R,0,203928,205810,2.35,-2.26 F,0,205410,205810,1,0
Sprite,Foreground,Centre,"SB\sakura2.png",320,240 F,0,204199,205179,1 M,0,204199,205579,43,-25,-2,216 S,0,204199,205579,0.34 R,0,204199,205579,1.69,-2.75 F,0,205179,205579,1,0
Sprite,Foreground,Centre,"SB\sakura2.png",320,240 F,0,205096,206811,1 M,0,205096,207211,162,-45,164,284 S,0,205096,207211,0.7 R,0,205096,207211,1.11,-0.48 F,0,206811,207211,1,0
Sprite,Foreground,Centre,"SB\sakura2.png",320,240 F,0,205506,206750,1 M,0,205506,207150,98,-37,75,287 S,0,205506,207150,0.36 R,0,205506,207150,2.76,-1.01 F,0,206750,207150,1,0
Sprite,Foreground,Centre,"SB\sakura2.png",320,240 F,0,206327,207621,1 M,0,206327,208021,360,-41,316,253 S,0,206327,208021,0.48 R,0,206327,208021,1.04,-1.24 F,0,207621,208021,1,0
Sprite,Foreground,Centre,"SB\sakura2.png",320,240 F,0,206520,208044,1 M,0,206520,208444,151,-20,110,201 S,0,206520,208444,0.52 R,0,206520,208444,0.82,-0.19 F,0,208044,208444,1,0
Sprite,Foreground,Centre,"SB\sakura2.png",320,240 F,0,207841,209025,1 M,0,207841,209425,329,-27,320,257 S,0,207841,209425,0.51 R,0,207841,209425,0.43,-2.58 F,0,209025,209425,1,0
Sprite,Foreground,Centre,"SB\sakura2.png",320,240 F,0,207743,208814,1 M,0,207743,209214,208,-29,154,242 S,0,207743,209214,0.56 R,0,207743,209214,0.51,-1.41 F,0,208814,209214,1,0
Sprite,Foreground,Centre,"SB\sakura2.png",320,240 F,0,208491,209937,1 M,0,208491,210337,22,-32,28,265 S,0,208491,210337,0.38 R,0,208491,210337,0.04,-2.88 F,0,209937,210337,1,0
Sprite,Foreground,Centre,"SB\sakura2.png",320,240 F,0,208699,210291,1 M,0,208699,210691,370,-40,344,291 S,0,208699,210691,0.68 R,0,208699,210691,0.48,-2.16 F,0,210291,210691,1,0
Sprite,Foreground,Centre,"SB\sakura2.png",320,240 F,0,209839,211459,1 M,0,209839,211859,297,-38,299,257 S,0,209839,211859,0.57 R,0,209839,211859,0.81,-0.86 F,0,211459,211859,1,0
Sprite,Foreground,Centre,"SB\sakura2.png",320,240 F,0,210235,212005,1 M,0,210235,212405,132,-29,101,252 S,0,210235,212405,0.69 R,0,210235,212405,1.41,-1.3 F,0,212005,212405,1,0
Sprite,Foreground,Centre,"SB\sakura2.png",320,240 F,0,211253,213248,1 M,0,211253,213648,331,-39,353,288 S,0,211253,213648,0.53 R,0,211253,213648,0.69,-2.15 F,0,213248,213648,1,0
Sprite,Foreground,Centre,"SB\sakura2.png",320,240 F,0,211219,212522,1 M,0,211219,212922,243,-36,241,283 S,0,211219,212922,0.67 R,0,211219,212922,2.61,-2.5 F,0,212522,212922,1,0
Sprite,Foreground,Centre,"SB\sakura2.png",320,240 F,0,212301,214047,1 M,0,212301,214447,501,-40,512,237 S,0,212301,214447,0.33 R,0,212301,214447,2.04,-2.2 F,0,214047,214447,1,0
Sprite,Foreground,Centre,"SB\sakura2.png",320,240 F,0,213005,213805,1 M,0,213005,214205,255,-25,257,202 S,0,213005,214205,0.54 R,0,213005,214205,0.12,-1.87 F,0,213805,214205,1,0
Sprite,Foreground,Centre,"SB\sakura2.png",320,240 F,0,214079,215895,1 M,0,214079,216295,138,-31,144,202 S,0,214079,216295,0.65 R,0,214079,216295,1.38,-1.65 F,0,215895,216295,1,0
Sprite,Foreground,Centre,"SB\sakura2.png",320,240 F,0,214130,215683,1 M,0,214130,216083,56,-21,86,235 S,0,214130,216083,0.44 R,0,214130,216083,2.75,-2.13 F,0,215683,216083,1,0
Sprite,Foreground,Centre,"SB\sakura2.png",320,240 F,0,215620,217125,1 M,0,215620,217525,187,-29,218,238 S,0,215620,217525,0.46 R,0,215620,217525,0.58,-1.55 F,0,217125,217525,1,0
Sprite,Foreground,Centre,"SB\sakura2.png",320,240 F,0,214997,216297,1 M,0,214997,216697,517,-29,544,265 S,0,214997,216697,0.42 R,0,214997,216697,1.05,-2.53 F,0,216297,216697,1,0
Sprite,Foreground,Centre,"SB\sakura2.png",320,240 F,0,216620,218379,1 M,0,216620,218779,377,-23,399,248 S,0,216620,218779,0.34 R,0,216620,218779,2.34,-2.14 F,0,218379,218779,1,0
Sprite,Foreground,Centre,"SB\sakura2.png",320,240 F,0,216365,218201,1 M,0,216365,218601,253,-38,236,249 S,0,216365,218601,0.42 R,0,216365,218601,3.12,-0.05 F,0,218201,218601,1,0
Sprite,Foreground,Centre,"SB\sakura2.png",320,240 F,0,217561,218798,1 M,0,217561,219198,619,-33,614,259 S,0,217561,219198,0.64 R,0,217561,219198,0.62,-1.89 F,0,218798,219198,1,0
Sprite,Foreground,Centre,"SB\sakura2.png",320,240 F,0,218113,219029,1 M,0,218113,219429,326,-27,385,241 S,0,218113,219429,0.38 R,0,218113,219429,3.01,-0.7 F,0,219029,219429,1,0
Sprite,Foreground,Centre,"SB\sakura2.png",320,240 F,0,218827,220724,1 M,0,218827,221124,89,-34,78,242 S,0,218827,221124,0.43 R,0,218827,221124,1.02,-2.47 F,0,220724,221124,1,0
Sprite,Foreground,Centre,"SB\sakura2.png",320,240 F,0,219329,220811,1 M,0,219329,221211,502,-48,480,213 S,0,219329,221211,0.35 R,0,219329,221211,1.98,-2.58 F,0,220811,221211,1,0
Sprite,Foreground,Centre,"SB\sakura2.png",320,240 F,0,220555,221316,1 M,0,220555,221716,596,-48,584,200 S,0,220555,221716,0.45 R,0,220555,221716,2.71,-3.05 F,0,221316,221716,1,0
Sprite,Foreground,Centre,"SB\sakura2.png",320,240 F,0,220231,221552,1 M,0,220231,221952,379,-46,343,282 S,0,220231,221952,0.51 R,0,220231,221952,2.9,-1.48 F,0,221552,221952,1,0
Sprite,Foreground,Centre,"SB\sakura2.png",320,240 F,0,221724,223422,1 M,0,221724,223822,211,-45,180,268 S,0,221724,223822,0.31 R,0,221724,223822,0.83,-2.8 F,0,223422,223822,1,0
Sprite,Foreground,Centre,"SB\sakura2.png",320,240 F,0,221854,222647,1 M,0,221854,223047,385,-46,384,228 S,0,221854,223047,0.51 R,0,221854,223047,2.04,-1.82 F,0,222647,223047,1,0
Sprite,Foreground,Centre,"SB\sakura2.png",320,240 F,0,222878,224456,1 M,0,222878,224856,487,-49,544,297 S,0,222878,224856,0.66 R,0,222878,224856,3.01,-1.33 F,0,224456,224856,1,0
Sprite,Foreground,Centre,"SB\sakura2.png",320,240 F,0,223143,224167,1 M,0,223143,224567,115,-28,128,238 S,0,223143,224567,0.48 R,0,223143,224567,0.84,-1.99 F,0,224167,224567,1,0
Sprite,Foreground,Centre,"SB\sakura2.png",320,240 F,0,223769,225819,1 M,0,223769,226219,434,-27,380,260 S,0,223769,226219,0.5 R,0,223769,226219,0.25,-3.11 F,0,225819,226219,1,0
Sprite,Foreground,Centre,"SB\sakura2.png",320,240 F,0,223739,225229,1 M,0,223739,225629,270,-26,275,234 S,0,223739,225629,0.7 R,0,223739,225629,2.02,-2.33 F,0,225229,225629,1,0
Sprite,Foreground,Centre,"SB\sakura2.png",320,240 F,0,225357,227125,1 M,0,225357,227525,576,-37,556,223 S,0,225357,227525,0.6 R,0,225357,227525,1.73,-0.46 F,0,227125,227525,1,0
Sprite,Foreground,Centre,"SB\sakura2.png",320,240 F,0,225717,226538,1 M,0,225717,226938,74,-27,30,241 S,0,225717,226938,0.59 R,0,225717,226938,0.97,-0.26 F,0,226538,226938,1,0
Sprite,Foreground,Centre,"SB\sakura2.png",320,240 F,0,227052,227820,1 M,0,227052,228220,574,-36,573,216 S,0,227052,228220,0.37 R,0,227052,228220,1.38,-2.82 F,0,227820,228220,1,0
Sprite,Foreground,Centre,"SB\sakura2.png",320,240 F,0,226451,228177,1 M,0,226451,228577,42,-44,76,268 S,0,226451,228577,0.42 R,0,226451,228577,0.69,-2.1 F,0,228177,228577,1,0
Sprite,Foreground,Centre,"SB\BG wave.png",320,240 F,0,153007,156699,0,1 M,0,153007,182545,571,356,78,354 F,0,180699,182545,1,0
Sprite,Foreground,Centre,"SB\kira.png",320,240 M,0,166853,,164,183 F,0,166853,166968,0,1 S,0,166853,167084,0.3446399,1 R,0,166853,167084,0,0.45056 F,0,166968,167084,1,0
Sprite,Foreground,Centre,"SB\kira.png",320,240 M,0,167315,,493,164 F,0,167315,167430,0,1 S,0,167315,167546,0.3446399,1 R,0,167315,167546,0,0.45056 F,0,167430,167546,1,0
Sprite,Foreground,Centre,"SB\kira.png",320,240 M,0,167545,,220,309 F,0,167545,167660,0,1 S,0,167545,167776,0.3446399,1 R,0,167545,167776,0,0.45056 F,0,167660,167776,1,0
Sprite,Foreground,Centre,"SB\kira.png",320,240 F,0,181853,181968,1 S,0,181853,182084,0.1,0.3548799 R,0,181853,182084,0,-1.04448 F,0,181968,182084,1,0
Sprite,Foreground,Centre,"SB\kira.png",320,240 M,0,181968,,353,267 F,0,181968,182083,1 S,0,181968,182199,0.3446399,0.6108801 R,0,181968,182199,0,-0.4095999 F,0,182083,182199,1,0
Sprite,Foreground,Centre,"SB\BG wave.png",320,240 F,0,182084,184392,0,1 M,0,182084,197315,556,377,112,375 F,0,193622,197315,1,0
Sprite,Foreground,Centre,"SB\kira.png",320,240 M,0,196853,,188,240 F,0,196853,196968,1 S,0,196853,196968,0.15008,0.8975999 F,0,196968,197084,1,0 S,0,196968,197084,0.8975999,1
Sprite,Foreground,Centre,"SB\kira.png",320,240 M,0,197084,,464,170 R,0,197084,,-1.72032 F,0,197084,197199,1 S,0,197084,197199,0.1398399,0.7337601 F,0,197199,197315,1,0 S,0,197199,197315,0.7337601,0.8771201
Sprite,Foreground,Centre,"SB\btf.png",320,240 F,0,153007,156699,0,1 M,0,153007,197315,391,183,249,293 R,0,153007,197315,0,-0.1433601 F,0,156699,193622,1 F,0,193622,197315,1,0
Sprite,Foreground,Centre,"SB\btf.png",320,240 S,0,182545,,0.7132799 F,0,182545,184392,0,1 M,0,182545,197315,186,151,261,347 R,0,182545,197315,0,-0.3481604 F,0,184392,195468,1 F,0,195468,197315,1,0
Sprite,Foreground,Centre,"SB\dot.png",320,240 F,0,196106,199476,0.44 M,0,196106,199938,339,505,336,66 S,0,196106,199938,0.96 F,0,199476,199938,0.44,0
Sprite,Foreground,Centre,"SB\dot.png",320,240 F,0,196387,199554,0.32 M,0,196387,200016,158,514,137,14 S,0,196387,200016,0.95 F,0,199554,200016,0.32,0
Sprite,Foreground,Centre,"SB\dot.png",320,240 F,0,195999,196964,0.46 M,0,195999,197426,354,511,376,77 S,0,195999,197426,0.94 F,0,196964,197426,0.46,0
Sprite,Foreground,Centre,"SB\dot.png",320,240 F,0,196093,199397,0.86 M,0,196093,199859,509,502,496,137 S,0,196093,199859,0.94 F,0,199397,199859,0.86,0
Sprite,Foreground,Centre,"SB\dot.png",320,240 F,0,195972,198426,1 M,0,195972,198888,612,501,586,138 S,0,195972,198888,0.78 F,0,198426,198888,1,0
Sprite,Foreground,Centre,"SB\dot.png",320,240 F,0,195952,198265,0.47 M,0,195952,198727,238,517,244,2 S,0,195952,198727,0.82 F,0,198265,198727,0.47,0
Sprite,Foreground,Centre,"SB\dot.png",320,240 F,0,195773,198516,0.91 M,0,195773,198978,36,514,37,86 S,0,195773,198978,0.6 F,0,198516,198978,0.91,0
Sprite,Foreground,Centre,"SB\dot.png",320,240 F,0,195764,197812,0.98 M,0,195764,198274,531,517,511,21 S,0,195764,198274,0.95 F,0,197812,198274,0.98,0
Sprite,Foreground,Centre,"SB\dot.png",320,240 F,0,196209,199391,0.39 M,0,196209,199853,109,511,115,137 S,0,196209,199853,0.78 F,0,199391,199853,0.39,0
Sprite,Foreground,Centre,"SB\dot.png",320,240 F,0,195502,198930,0.3 M,0,195502,199392,115,517,110,44 S,0,195502,199392,0.9 F,0,198930,199392,0.3,0
Sprite,Foreground,Centre,"SB\dot.png",320,240 F,0,195534,196946,0.87 M,0,195534,197408,576,505,596,44 S,0,195534,197408,0.62 F,0,196946,197408,0.87,0
Sprite,Foreground,Centre,"SB\dot.png",320,240 F,0,196029,198244,0.44 M,0,196029,198706,436,506,428,104 S,0,196029,198706,0.65 F,0,198244,198706,0.44,0
Sprite,Foreground,Centre,"SB\dot.png",320,240 F,0,195539,199314,1 M,0,195539,199776,364,500,338,75 S,0,195539,199776,0.67 F,0,199314,199776,1,0
Sprite,Foreground,Centre,"SB\dot.png",320,240 F,0,196182,197810,0.89 M,0,196182,198272,524,501,551,85 S,0,196182,198272,0.65 F,0,197810,198272,0.89,0
Sprite,Foreground,Centre,"SB\dot.png",320,240 F,0,195609,197335,0.56 M,0,195609,197797,353,513,370,149 S,0,195609,197797,0.77 F,0,197335,197797,0.56,0
Sprite,Foreground,Centre,"SB\dot.png",320,240 F,0,195661,197873,0.73 M,0,195661,198335,590,507,571,154 S,0,195661,198335,0.75 F,0,197873,198335,0.73,0
Sprite,Foreground,Centre,"SB\dot.png",320,240 F,0,195762,197049,0.51 M,0,195762,197511,455,513,455,79 S,0,195762,197511,0.62 F,0,197049,197511,0.51,0
Sprite,Foreground,Centre,"SB\dot.png",320,240 F,0,195843,197902,0.95 M,0,195843,198364,46,502,74,66 S,0,195843,198364,0.93 F,0,197902,198364,0.95,0
Sprite,Foreground,Centre,"SB\dot.png",320,240 F,0,195995,198593,0.35 M,0,195995,199055,468,503,439,117 S,0,195995,199055,0.61 F,0,198593,199055,0.35,0
Sprite,Foreground,Centre,"SB\dot.png",320,240 F,0,196235,198009,0.48 M,0,196235,198471,534,520,518,125 S,0,196235,198471,0.63 F,0,198009,198471,0.48,0
Sprite,Foreground,Centre,"SB\dot.png",320,240 F,0,196347,198515,0.45 M,0,196347,198977,99,516,94,85 S,0,196347,198977,0.63 F,0,198515,198977,0.45,0
Sprite,Foreground,Centre,"SB\dot.png",320,240 F,0,196085,196919,0.48 M,0,196085,197381,374,520,374,84 S,0,196085,197381,0.78 F,0,196919,197381,0.48,0
Sprite,Foreground,Centre,"SB\dot.png",320,240 F,0,195910,199490,0.94 M,0,195910,199952,304,507,307,81 S,0,195910,199952,0.81 F,0,199490,199952,0.94,0
Sprite,Foreground,Centre,"SB\dot.png",320,240 F,0,196349,197789,0.8 M,0,196349,198251,594,513,585,160 S,0,196349,198251,0.86 F,0,197789,198251,0.8,0
Sprite,Foreground,Centre,"SB\dot.png",320,240 F,0,195690,197486,0.52 M,0,195690,197948,65,507,73,50 S,0,195690,197948,0.89 F,0,197486,197948,0.52,0
Sprite,Foreground,Centre,"SB\dot.png",320,240 F,0,195511,198218,0.36 M,0,195511,198680,546,517,551,103 S,0,195511,198680,0.95 F,0,198218,198680,0.36,0
Sprite,Foreground,Centre,"SB\dot.png",320,240 F,0,196378,197543,0.45 M,0,196378,198005,590,501,575,7 S,0,196378,198005,0.84 F,0,197543,198005,0.45,0
Sprite,Foreground,Centre,"SB\dot.png",320,240 F,0,196241,199372,0.79 M,0,196241,199834,302,518,316,129 S,0,196241,199834,0.64 F,0,199372,199834,0.79,0
Sprite,Foreground,Centre,"SB\dot.png",320,240 F,0,196154,196955,0.94 M,0,196154,197417,208,512,211,160 S,0,196154,197417,0.94 F,0,196955,197417,0.94,0
Sprite,Foreground,Centre,"SB\dot.png",320,240 F,0,195755,198937,0.7 M,0,195755,199399,462,519,469,117 S,0,195755,199399,0.92 F,0,198937,199399,0.7,0
Sprite,Foreground,Centre,"SB\dot.png",320,240 F,0,197586,199211,1 M,0,197586,199673,275,500,265,34 S,0,197586,199673,0.91 F,0,199211,199673,1,0
Sprite,Foreground,Centre,"SB\dot.png",320,240 F,0,197913,199735,0.65 M,0,197913,200197,288,512,266,8 S,0,197913,200197,0.93 F,0,199735,200197,0.65,0
Sprite,Foreground,Centre,"SB\dot.png",320,240 F,0,198176,200181,0.73 M,0,198176,200643,66,505,59,123 S,0,198176,200643,0.84 F,0,200181,200643,0.73,0
Sprite,Foreground,Centre,"SB\dot.png",320,240 F,0,197919,201409,0.59 M,0,197919,201871,316,512,346,140 S,0,197919,201871,0.67 F,0,201409,201871,0.59,0
Sprite,Foreground,Centre,"SB\dot.png",320,240 F,0,197886,200413,0.4 M,0,197886,200875,568,500,574,116 S,0,197886,200875,0.84 F,0,200413,200875,0.4,0
Sprite,Foreground,Centre,"SB\dot.png",320,240 F,0,198178,200895,0.71 M,0,198178,201357,188,514,159,2 S,0,198178,201357,0.68 F,0,200895,201357,0.71,0
Sprite,Foreground,Centre,"SB\dot.png",320,240 F,0,197934,200056,0.96 M,0,197934,200518,508,516,514,70 S,0,197934,200518,0.7 F,0,200056,200518,0.96,0
Sprite,Foreground,Centre,"SB\dot.png",320,240 F,0,197751,198884,0.3 M,0,197751,199346,268,503,297,131 S,0,197751,199346,0.8 F,0,198884,199346,0.3,0
Sprite,Foreground,Centre,"SB\dot.png",320,240 F,0,197968,199044,0.83 M,0,197968,199506,403,504,376,102 S,0,197968,199506,0.94 F,0,199044,199506,0.83,0
Sprite,Foreground,Centre,"SB\dot.png",320,240 F,0,197888,199757,0.88 M,0,197888,200219,128,517,103,111 S,0,197888,200219,0.89 F,0,199757,200219,0.88,0
Sprite,Foreground,Centre,"SB\dot.png",320,240 F,0,198016,201194,0.78 M,0,198016,201656,569,503,593,7 S,0,198016,201656,0.9 F,0,201194,201656,0.78,0
Sprite,Foreground,Centre,"SB\dot.png",320,240 F,0,197386,200331,0.74 M,0,197386,200793,463,518,476,86 S,0,197386,200793,1 F,0,200331,200793,0.74,0
Sprite,Foreground,Centre,"SB\dot.png",320,240 F,0,197456,199282,0.91 M,0,197456,199744,156,508,153,43 S,0,197456,199744,0.94 F,0,199282,199744,0.91,0
Sprite,Foreground,Centre,"SB\dot.png",320,240 F,0,197549,199357,0.63 M,0,197549,199819,158,515,149,75 S,0,197549,199819,0.95 F,0,199357,199819,0.63,0
Sprite,Foreground,Centre,"SB\dot.png",320,240 F,0,197631,199158,0.63 M,0,197631,199620,172,519,202,22 S,0,197631,199620,0.85 F,0,199158,199620,0.63,0
Sprite,Foreground,Centre,"SB\dot.png",320,240 F,0,197648,198953,0.98 M,0,197648,199415,425,513,429,148 S,0,197648,199415,0.8 F,0,198953,199415,0.98,0
Sprite,Foreground,Centre,"SB\dot.png",320,240 F,0,197719,199610,0.75 M,0,197719,200072,109,518,131,33 S,0,197719,200072,0.9 F,0,199610,200072,0.75,0
Sprite,Foreground,Centre,"SB\dot.png",320,240 F,0,198182,200579,0.33 M,0,198182,201041,217,512,196,44 S,0,198182,201041,0.82 F,0,200579,201041,0.33,0
Sprite,Foreground,Centre,"SB\dot.png",320,240 F,0,197908,199992,0.94 M,0,197908,200454,148,507,130,67 S,0,197908,200454,0.75 F,0,199992,200454,0.94,0
Sprite,Foreground,Centre,"SB\dot.png",320,240 F,0,197528,200372,0.67 M,0,197528,200834,443,507,416,11 S,0,197528,200834,0.92 F,0,200372,200834,0.67,0
Sprite,Foreground,Centre,"SB\dot.png",320,240 F,0,197986,200216,0.92 M,0,197986,200678,445,520,449,35 S,0,197986,200678,0.98 F,0,200216,200678,0.92,0
Sprite,Foreground,Centre,"SB\dot.png",320,240 F,0,197759,200004,0.76 M,0,197759,200466,476,503,461,72 S,0,197759,200466,0.82 F,0,200004,200466,0.76,0
Sprite,Foreground,Centre,"SB\dot.png",320,240 F,0,198174,200930,0.76 M,0,198174,201392,634,510,608,95 S,0,198174,201392,0.85 F,0,200930,201392,0.76,0
Sprite,Foreground,Centre,"SB\dot.png",320,240 F,0,197810,199223,0.77 M,0,197810,199685,151,502,176,42 S,0,197810,199685,1 F,0,199223,199685,0.77,0
Sprite,Foreground,Centre,"SB\dot.png",320,240 F,0,198116,199764,0.32 M,0,198116,200226,242,515,231,46 S,0,198116,200226,0.61 F,0,199764,200226,0.32,0
Sprite,Foreground,Centre,"SB\dot.png",320,240 F,0,197864,200645,0.66 M,0,197864,201107,191,519,219,83 S,0,197864,201107,0.68 F,0,200645,201107,0.66,0
Sprite,Foreground,Centre,"SB\dot.png",320,240 F,0,197485,200738,0.62 M,0,197485,201200,327,510,314,9 S,0,197485,201200,1 F,0,200738,201200,0.62,0
Sprite,Foreground,Centre,"SB\dot.png",320,240 F,0,198151,199892,0.83 M,0,198151,200354,219,508,220,4 S,0,198151,200354,0.9 F,0,199892,200354,0.83,0
Sprite,Foreground,Centre,"SB\dot.png",320,240 F,0,198027,200245,0.7 M,0,198027,200707,74,502,66,131 S,0,198027,200707,0.73 F,0,200245,200707,0.7,0
Sprite,Foreground,Centre,"SB\dot.png",320,240 F,0,197612,200083,0.48 M,0,197612,200545,365,513,364,82 S,0,197612,200545,0.64 F,0,200083,200545,0.48,0
Sprite,Foreground,Centre,"SB\dot.png",320,240 F,0,199186,200805,0.74 M,0,199186,201267,580,517,557,152 S,0,199186,201267,0.94 F,0,200805,201267,0.74,0
Sprite,Foreground,Centre,"SB\dot.png",320,240 F,0,199218,203310,0.8 M,0,199218,203772,420,500,432,138 S,0,199218,203772,0.8 F,0,203310,203772,0.8,0
Sprite,Foreground,Centre,"SB\dot.png",320,240 F,0,199880,203101,0.22 M,0,199880,203563,576,500,555,137 S,0,199880,203563,0.6 F,0,203101,203563,0.22,0
Sprite,Foreground,Centre,"SB\dot.png",320,240 F,0,199589,201262,0.66 M,0,199589,201724,149,503,161,22 S,0,199589,201724,1 F,0,201262,201724,0.66,0
Sprite,Foreground,Centre,"SB\dot.png",320,240 F,0,199308,201733,0.34 M,0,199308,202195,546,508,531,22 S,0,199308,202195,0.89 F,0,201733,202195,0.34,0
Sprite,Foreground,Centre,"SB\dot.png",320,240 F,0,199430,202177,0.87 M,0,199430,202639,25,501,14,116 S,0,199430,202639,0.74 F,0,202177,202639,0.87,0
Sprite,Foreground,Centre,"SB\dot.png",320,240 F,0,199954,202107,0.24 M,0,199954,202569,274,518,296,131 S,0,199954,202569,0.69 F,0,202107,202569,0.24,0
Sprite,Foreground,Centre,"SB\dot.png",320,240 F,0,200074,201051,0.95 M,0,200074,201513,313,510,306,7 S,0,200074,201513,0.85 F,0,201051,201513,0.95,0
Sprite,Foreground,Centre,"SB\dot.png",320,240 F,0,199878,201312,0.64 M,0,199878,201774,225,512,226,77 S,0,199878,201774,0.92 F,0,201312,201774,0.64,0
Sprite,Foreground,Centre,"SB\dot.png",320,240 F,0,199949,200867,0.73 M,0,199949,201329,252,507,231,6 S,0,199949,201329,0.79 F,0,200867,201329,0.73,0
Sprite,Foreground,Centre,"SB\dot.png",320,240 F,0,199899,201272,0.4 M,0,199899,201734,87,504,110,65 S,0,199899,201734,0.9 F,0,201272,201734,0.4,0
Sprite,Foreground,Centre,"SB\dot.png",320,240 F,0,199863,202297,0.75 M,0,199863,202759,290,507,308,40 S,0,199863,202759,0.83 F,0,202297,202759,0.75,0
Sprite,Foreground,Centre,"SB\dot.png",320,240 F,0,199199,202931,0.26 M,0,199199,203393,208,516,230,120 S,0,199199,203393,0.94 F,0,202931,203393,0.26,0
Sprite,Foreground,Centre,"SB\dot.png",320,240 F,0,199298,202515,0.58 M,0,199298,202977,201,518,171,110 S,0,199298,202977,0.88 F,0,202515,202977,0.58,0
Sprite,Foreground,Centre,"SB\dot.png",320,240 F,0,199659,201075,0.63 M,0,199659,201537,590,506,603,125 S,0,199659,201537,0.79 F,0,201075,201537,0.63,0
Sprite,Foreground,Centre,"SB\dot.png",320,240 F,0,199593,201821,0.34 M,0,199593,202283,538,502,545,148 S,0,199593,202283,0.88 F,0,201821,202283,0.34,0
Sprite,Foreground,Centre,"SB\dot.png",320,240 F,0,199568,203309,0.83 M,0,199568,203771,467,500,482,23 S,0,199568,203771,0.69 F,0,203309,203771,0.83,0
Sprite,Foreground,Centre,"SB\dot.png",320,240 F,0,199859,200935,0.57 M,0,199859,201397,154,518,176,89 S,0,199859,201397,0.98 F,0,200935,201397,0.57,0
Sprite,Foreground,Centre,"SB\dot.png",320,240 F,0,200013,201931,0.79 M,0,200013,202393,578,514,579,72 S,0,200013,202393,0.86 F,0,201931,202393,0.79,0
Sprite,Foreground,Centre,"SB\dot.png",320,240 F,0,199702,202361,0.45 M,0,199702,202823,38,511,49,92 S,0,199702,202823,0.81 F,0,202361,202823,0.45,0
Sprite,Foreground,Centre,"SB\dot.png",320,240 F,0,199749,202404,0.39 M,0,199749,202866,549,512,572,11 S,0,199749,202866,0.64 F,0,202404,202866,0.39,0
Sprite,Foreground,Centre,"SB\dot.png",320,240 F,0,199413,202611,0.34 M,0,199413,203073,269,508,256,13 S,0,199413,203073,0.81 F,0,202611,203073,0.34,0
Sprite,Foreground,Centre,"SB\dot.png",320,240 F,0,200009,201148,0.3 M,0,200009,201610,538,517,559,156 S,0,200009,201610,0.78 F,0,201148,201610,0.3,0
Sprite,Foreground,Centre,"SB\dot.png",320,240 F,0,199837,201183,0.79 M,0,199837,201645,639,514,635,81 S,0,199837,201645,0.8 F,0,201183,201645,0.79,0
Sprite,Foreground,Centre,"SB\dot.png",320,240 F,0,199923,202325,0.75 M,0,199923,202787,54,504,72,86 S,0,199923,202787,1 F,0,202325,202787,0.75,0
Sprite,Foreground,Centre,"SB\dot.png",320,240 F,0,199566,202385,0.34 M,0,199566,202847,154,505,133,125 S,0,199566,202847,0.75 F,0,202385,202847,0.34,0
Sprite,Foreground,Centre,"SB\dot.png",320,240 F,0,199219,202131,0.38 M,0,199219,202593,331,518,333,136 S,0,199219,202593,0.83 F,0,202131,202593,0.38,0
Sprite,Foreground,Centre,"SB\dot.png",320,240 F,0,199562,202902,0.36 M,0,199562,203364,72,506,44,48 S,0,199562,203364,0.62 F,0,202902,203364,0.36,0
Sprite,Foreground,Centre,"SB\dot.png",320,240 F,0,199973,202271,0.42 M,0,199973,202733,390,516,409,107 S,0,199973,202733,0.86 F,0,202271,202733,0.42,0
Sprite,Foreground,Centre,"SB\dot.png",320,240 F,0,199633,201492,0.53 M,0,199633,201954,590,508,594,58 S,0,199633,201954,0.98 F,0,201492,201954,0.53,0
Sprite,Foreground,Centre,"SB\dot.png",320,240 F,0,201790,203532,0.43 M,0,201790,203994,390,501,413,38 S,0,201790,203994,0.61 F,0,203532,203994,0.43,0
Sprite,Foreground,Centre,"SB\dot.png",320,240 F,0,201686,203645,0.96 M,0,201686,204107,358,511,332,68 S,0,201686,204107,0.88 F,0,203645,204107,0.96,0
Sprite,Foreground,Centre,"SB\dot.png",320,240 F,0,201222,203321,0.52 M,0,201222,203783,216,516,238,61 S,0,201222,203783,0.73 F,0,203321,203783,0.52,0
Sprite,Foreground,Centre,"SB\dot.png",320,240 F,0,201784,204314,0.98 M,0,201784,204776,129,512,123,81 S,0,201784,204776,0.85 F,0,204314,204776,0.98,0
Sprite,Foreground,Centre,"SB\dot.png",320,240 F,0,201725,203461,0.51 M,0,201725,203923,99,519,111,84 S,0,201725,203923,0.88 F,0,203461,203923,0.51,0
Sprite,Foreground,Centre,"SB\dot.png",320,240 F,0,201215,202578,0.31 M,0,201215,203040,420,510,402,26 S,0,201215,203040,1 F,0,202578,203040,0.31,0
Sprite,Foreground,Centre,"SB\dot.png",320,240 F,0,201042,202599,0.63 M,0,201042,203061,438,502,435,119 S,0,201042,203061,0.95 F,0,202599,203061,0.63,0
Sprite,Foreground,Centre,"SB\dot.png",320,240 F,0,201639,202606,0.5 M,0,201639,203068,53,507,57,129 S,0,201639,203068,0.67 F,0,202606,203068,0.5,0
Sprite,Foreground,Centre,"SB\dot.png",320,240 F,0,201723,204790,0.7 M,0,201723,205252,370,501,375,139 S,0,201723,205252,0.66 F,0,204790,205252,0.7,0
Sprite,Foreground,Centre,"SB\dot.png",320,240 F,0,201936,204461,0.44 M,0,201936,204923,303,515,301,108 S,0,201936,204923,0.68 F,0,204461,204923,0.44,0
Sprite,Foreground,Centre,"SB\dot.png",320,240 F,0,201087,203250,0.77 M,0,201087,203712,23,520,-5,107 S,0,201087,203712,0.86 F,0,203250,203712,0.77,0
Sprite,Foreground,Centre,"SB\dot.png",320,240 F,0,201049,202846,0.93 M,0,201049,203308,335,516,344,15 S,0,201049,203308,0.96 F,0,202846,203308,0.93,0
Sprite,Foreground,Centre,"SB\dot.png",320,240 F,0,201426,204459,0.31 M,0,201426,204921,214,507,207,26 S,0,201426,204921,0.73 F,0,204459,204921,0.31,0
Sprite,Foreground,Centre,"SB\dot.png",320,240 F,0,201833,203450,0.21 M,0,201833,203912,95,500,88,109 S,0,201833,203912,0.75 F,0,203450,203912,0.21,0
Sprite,Foreground,Centre,"SB\dot.png",320,240 F,0,201831,202399,0.96 M,0,201831,202861,148,512,165,107 S,0,201831,202861,0.92 F,0,202399,202861,0.96,0
Sprite,Foreground,Centre,"SB\dot.png",320,240 F,0,201870,202473,0.93 M,0,201870,202935,168,511,140,88 S,0,201870,202935,0.9 F,0,202473,202935,0.93,0
Sprite,Foreground,Centre,"SB\dot.png",320,240 F,0,201470,203489,0.67 M,0,201470,203951,431,510,461,6 S,0,201470,203951,0.69 F,0,203489,203951,0.67,0
Sprite,Foreground,Centre,"SB\dot.png",320,240 F,0,201521,203473,0.32 M,0,201521,203935,567,512,546,129 S,0,201521,203935,0.66 F,0,203473,203935,0.32,0
Sprite,Foreground,Centre,"SB\dot.png",320,240 F,0,201172,202497,0.8 M,0,201172,202959,429,513,459,94 S,0,201172,202959,0.95 F,0,202497,202959,0.8,0
Sprite,Foreground,Centre,"SB\dot.png",320,240 F,0,201118,202661,0.51 M,0,201118,203123,57,505,41,57 S,0,201118,203123,0.7 F,0,202661,203123,0.51,0
Sprite,Foreground,Centre,"SB\dot.png",320,240 F,0,201143,204051,0.84 M,0,201143,204513,51,516,22,44 S,0,201143,204513,0.82 F,0,204051,204513,0.84,0
Sprite,Foreground,Centre,"SB\dot.png",320,240 F,0,201251,202984,0.23 M,0,201251,203446,611,501,631,135 S,0,201251,203446,0.84 F,0,202984,203446,0.23,0
Sprite,Foreground,Centre,"SB\dot.png",320,240 F,0,201045,204459,0.89 M,0,201045,204921,274,514,297,110 S,0,201045,204921,0.94 F,0,204459,204921,0.89,0
Sprite,Foreground,Centre,"SB\dot.png",320,240 F,0,201503,202753,0.98 M,0,201503,203215,498,511,506,151 S,0,201503,203215,0.64 F,0,202753,203215,0.98,0
Sprite,Foreground,Centre,"SB\dot.png",320,240 F,0,201132,202738,1 M,0,201132,203200,408,514,393,110 S,0,201132,203200,0.98 F,0,202738,203200,1,0
Sprite,Foreground,Centre,"SB\dot.png",320,240 F,0,201254,202593,0.74 M,0,201254,203055,486,520,476,2 S,0,201254,203055,0.98 F,0,202593,203055,0.74,0
Sprite,Foreground,Centre,"SB\dot.png",320,240 F,0,201111,204173,0.86 M,0,201111,204635,225,500,199,143 S,0,201111,204635,0.73 F,0,204173,204635,0.86,0
Sprite,Foreground,Centre,"SB\dot.png",320,240 F,0,201099,203240,0.76 M,0,201099,203702,486,516,474,118 S,0,201099,203702,0.78 F,0,203240,203702,0.76,0
Sprite,Foreground,Centre,"SB\dot.png",320,240 F,0,201323,202624,0.81 M,0,201323,203086,537,503,512,45 S,0,201323,203086,0.66 F,0,202624,203086,0.81,0
Sprite,Foreground,Centre,"SB\dot.png",320,240 F,0,201162,204390,0.97 M,0,201162,204852,183,510,201,77 S,0,201162,204852,0.87 F,0,204390,204852,0.97,0
Sprite,Foreground,Centre,"SB\dot.png",320,240 F,0,203610,205438,0.88 M,0,203610,205900,239,518,210,0 S,0,203610,205900,0.73 F,0,205438,205900,0.88,0
Sprite,Foreground,Centre,"SB\dot.png",320,240 F,0,203510,205204,0.44 M,0,203510,205666,129,505,112,117 S,0,203510,205666,0.9 F,0,205204,205666,0.44,0
Sprite,Foreground,Centre,"SB\dot.png",320,240 F,0,203213,205863,0.91 M,0,203213,206325,577,508,602,95 S,0,203213,206325,0.66 F,0,205863,206325,0.91,0
Sprite,Foreground,Centre,"SB\dot.png",320,240 F,0,203292,207004,0.35 M,0,203292,207466,49,517,36,76 S,0,203292,207466,0.98 F,0,207004,207466,0.35,0
Sprite,Foreground,Centre,"SB\dot.png",320,240 F,0,202991,206664,0.29 M,0,202991,207126,179,520,160,43 S,0,202991,207126,0.9 F,0,206664,207126,0.29,0
Sprite,Foreground,Centre,"SB\dot.png",320,240 F,0,203443,204607,0.33 M,0,203443,205069,365,506,384,70 S,0,203443,205069,0.97 F,0,204607,205069,0.33,0
Sprite,Foreground,Centre,"SB\dot.png",320,240 F,0,203769,204628,0.97 M,0,203769,205090,25,501,33,51 S,0,203769,205090,0.96 F,0,204628,205090,0.97,0
Sprite,Foreground,Centre,"SB\dot.png",320,240 F,0,203091,204521,0.69 M,0,203091,204983,183,514,161,144 S,0,203091,204983,0.94 F,0,204521,204983,0.69,0
Sprite,Foreground,Centre,"SB\dot.png",320,240 F,0,202866,204676,0.54 M,0,202866,205138,618,520,591,49 S,0,202866,205138,0.95 F,0,204676,205138,0.54,0
Sprite,Foreground,Centre,"SB\dot.png",320,240 F,0,203564,205056,0.75 M,0,203564,205518,335,500,326,149 S,0,203564,205518,0.79 F,0,205056,205518,0.75,0
Sprite,Foreground,Centre,"SB\dot.png",320,240 F,0,203661,204909,0.81 M,0,203661,205371,131,514,151,24 S,0,203661,205371,0.69 F,0,204909,205371,0.81,0
Sprite,Foreground,Centre,"SB\dot.png",320,240 F,0,203576,206190,0.95 M,0,203576,206652,76,519,101,115 S,0,203576,206652,0.83 F,0,206190,206652,0.95,0
Sprite,Foreground,Centre,"SB\dot.png",320,240 F,0,203629,204458,0.45 M,0,203629,204920,583,501,592,35 S,0,203629,204920,0.66 F,0,204458,204920,0.45,0
Sprite,Foreground,Centre,"SB\dot.png",320,240 F,0,203478,206755,0.74 M,0,203478,207217,194,519,220,15 S,0,203478,207217,0.95 F,0,206755,207217,0.74,0
Sprite,Foreground,Centre,"SB\dot.png",320,240 F,0,203077,206660,0.56 M,0,203077,207122,324,512,334,39 S,0,203077,207122,0.62 F,0,206660,207122,0.56,0
Sprite,Foreground,Centre,"SB\dot.png",320,240 F,0,202999,205319,0.77 M,0,202999,205781,104,510,131,79 S,0,202999,205781,0.73 F,0,205319,205781,0.77,0
Sprite,Foreground,Centre,"SB\dot.png",320,240 F,0,203299,205723,0.46 M,0,203299,206185,564,518,543,45 S,0,203299,206185,0.69 F,0,205723,206185,0.46,0
Sprite,Foreground,Centre,"SB\dot.png",320,240 F,0,202929,205997,0.62 M,0,202929,206459,145,509,162,108 S,0,202929,206459,0.94 F,0,205997,206459,0.62,0
Sprite,Foreground,Centre,"SB\dot.png",320,240 F,0,203283,206856,0.88 M,0,203283,207318,460,506,457,139 S,0,203283,207318,0.63 F,0,206856,207318,0.88,0
Sprite,Foreground,Centre,"SB\dot.png",320,240 F,0,203029,204585,0.59 M,0,203029,205047,102,518,76,136 S,0,203029,205047,0.92 F,0,204585,205047,0.59,0
Sprite,Foreground,Centre,"SB\dot.png",320,240 F,0,203659,205388,0.95 M,0,203659,205850,152,520,131,114 S,0,203659,205850,0.85 F,0,205388,205850,0.95,0
Sprite,Foreground,Centre,"SB\dot.png",320,240 F,0,203306,205306,0.89 M,0,203306,205768,123,507,125,31 S,0,203306,205768,0.64 F,0,205306,205768,0.89,0
Sprite,Foreground,Centre,"SB\dot.png",320,240 F,0,202993,204690,0.44 M,0,202993,205152,394,502,374,80 S,0,202993,205152,0.76 F,0,204690,205152,0.44,0
Sprite,Foreground,Centre,"SB\dot.png",320,240 F,0,203425,205901,0.91 M,0,203425,206363,587,509,576,71 S,0,203425,206363,0.9 F,0,205901,206363,0.91,0
Sprite,Foreground,Centre,"SB\dot.png",320,240 F,0,203350,206937,0.53 M,0,203350,207399,382,505,408,51 S,0,203350,207399,0.63 F,0,206937,207399,0.53,0
Sprite,Foreground,Centre,"SB\dot.png",320,240 F,0,202935,206004,0.71 M,0,202935,206466,464,504,461,102 S,0,202935,206466,0.82 F,0,206004,206466,0.71,0
Sprite,Foreground,Centre,"SB\dot.png",320,240 F,0,203769,205968,0.65 M,0,203769,206430,599,500,590,103 S,0,203769,206430,0.77 F,0,205968,206430,0.65,0
Sprite,Foreground,Centre,"SB\dot.png",320,240 F,0,203702,205623,0.99 M,0,203702,206085,184,506,188,107 S,0,203702,206085,0.94 F,0,205623,206085,0.99,0
Sprite,Foreground,Centre,"SB\dot.png",320,240 F,0,203545,206894,0.43 M,0,203545,207356,454,511,441,109 S,0,203545,207356,0.68 F,0,206894,207356,0.43,0
Sprite,Foreground,Centre,"SB\dot.png",320,240 F,0,203592,205869,0.94 M,0,203592,206331,265,503,293,94 S,0,203592,206331,0.66 F,0,205869,206331,0.94,0
Sprite,Foreground,Centre,"SB\dot.png",320,240 F,0,205419,206287,0.95 M,0,205419,206749,171,502,176,93 S,0,205419,206749,0.71 F,0,206287,206749,0.95,0
Sprite,Foreground,Centre,"SB\dot.png",320,240 F,0,205317,207887,0.8 M,0,205317,208349,241,505,264,122 S,0,205317,208349,0.99 F,0,207887,208349,0.8,0
Sprite,Foreground,Centre,"SB\dot.png",320,240 F,0,205293,207392,0.9 M,0,205293,207854,237,515,230,72 S,0,205293,207854,0.94 F,0,207392,207854,0.9,0
Sprite,Foreground,Centre,"SB\dot.png",320,240 F,0,205608,206429,0.38 M,0,205608,206891,595,500,603,121 S,0,205608,206891,0.89 F,0,206429,206891,0.38,0
Sprite,Foreground,Centre,"SB\dot.png",320,240 F,0,205016,207770,0.97 M,0,205016,208232,626,506,640,5 S,0,205016,208232,0.91 F,0,207770,208232,0.97,0
Sprite,Foreground,Centre,"SB\dot.png",320,240 F,0,205328,206995,0.37 M,0,205328,207457,430,509,414,130 S,0,205328,207457,0.96 F,0,206995,207457,0.37,0
Sprite,Foreground,Centre,"SB\dot.png",320,240 F,0,205154,207632,0.35 M,0,205154,208094,439,508,420,151 S,0,205154,208094,0.74 F,0,207632,208094,0.35,0
Sprite,Foreground,Centre,"SB\dot.png",320,240 F,0,205313,207140,0.3 M,0,205313,207602,503,520,529,50 S,0,205313,207602,1 F,0,207140,207602,0.3,0
Sprite,Foreground,Centre,"SB\dot.png",320,240 F,0,204903,208609,0.72 M,0,204903,209071,600,502,590,34 S,0,204903,209071,0.7 F,0,208609,209071,0.72,0
Sprite,Foreground,Centre,"SB\dot.png",320,240 F,0,204839,207064,0.49 M,0,204839,207526,442,505,463,3 S,0,204839,207526,0.63 F,0,207064,207526,0.49,0
Sprite,Foreground,Centre,"SB\dot.png",320,240 F,0,204918,207616,0.4 M,0,204918,208078,149,508,160,88 S,0,204918,208078,0.93 F,0,207616,208078,0.4,0
Sprite,Foreground,Centre,"SB\dot.png",320,240 F,0,205183,207340,0.65 M,0,205183,207802,366,509,358,124 S,0,205183,207802,0.82 F,0,207340,207802,0.65,0
Sprite,Foreground,Centre,"SB\dot.png",320,240 F,0,205483,207232,0.2 M,0,205483,207694,449,518,461,19 S,0,205483,207694,0.71 F,0,207232,207694,0.2,0
Sprite,Foreground,Centre,"SB\dot.png",320,240 F,0,205550,207510,0.33 M,0,205550,207972,79,513,88,69 S,0,205550,207972,0.88 F,0,207510,207972,0.33,0
Sprite,Foreground,Centre,"SB\dot.png",320,240 F,0,205537,208569,0.33 M,0,205537,209031,239,510,269,38 S,0,205537,209031,0.67 F,0,208569,209031,0.33,0
Sprite,Foreground,Centre,"SB\dot.png",320,240 F,0,204904,206526,0.37 M,0,204904,206988,604,504,613,154 S,0,204904,206988,0.81 F,0,206526,206988,0.37,0
Sprite,Foreground,Centre,"SB\dot.png",320,240 F,0,205133,206705,0.6 M,0,205133,207167,84,510,61,7 S,0,205133,207167,0.77 F,0,206705,207167,0.6,0
Sprite,Foreground,Centre,"SB\dot.png",320,240 F,0,205114,207494,0.44 M,0,205114,207956,16,514,46,137 S,0,205114,207956,0.67 F,0,207494,207956,0.44,0
Sprite,Foreground,Centre,"SB\dot.png",320,240 F,0,205380,208276,0.35 M,0,205380,208738,645,510,665,43 S,0,205380,208738,0.98 F,0,208276,208738,0.35,0
Sprite,Foreground,Centre,"SB\dot.png",320,240 F,0,205601,207034,0.61 M,0,205601,207496,106,513,96,100 S,0,205601,207496,0.72 F,0,207034,207496,0.61,0
Sprite,Foreground,Centre,"SB\dot.png",320,240 F,0,205333,207600,0.86 M,0,205333,208062,408,515,429,94 S,0,205333,208062,0.92 F,0,207600,208062,0.86,0
Sprite,Foreground,Centre,"SB\dot.png",320,240 F,0,205577,207036,0.98 M,0,205577,207498,170,519,194,85 S,0,205577,207498,0.98 F,0,207036,207498,0.98,0
Sprite,Foreground,Centre,"SB\dot.png",320,240 F,0,205462,208039,0.96 M,0,205462,208501,218,511,248,34 S,0,205462,208501,0.66 F,0,208039,208501,0.96,0
Sprite,Foreground,Centre,"SB\dot.png",320,240 F,0,204871,206406,0.22 M,0,204871,206868,504,515,492,63 S,0,204871,206868,0.64 F,0,206406,206868,0.22,0
Sprite,Foreground,Centre,"SB\dot.png",320,240 F,0,204890,206237,0.88 M,0,204890,206699,540,500,560,45 S,0,204890,206699,0.68 F,0,206237,206699,0.88,0
Sprite,Foreground,Centre,"SB\dot.png",320,240 F,0,205306,206870,0.71 M,0,205306,207332,533,507,515,135 S,0,205306,207332,0.82 F,0,206870,207332,0.71,0
Sprite,Foreground,Centre,"SB\dot.png",320,240 F,0,204739,208586,0.8 M,0,204739,209048,245,501,223,36 S,0,204739,209048,0.83 F,0,208586,209048,0.8,0
Sprite,Foreground,Centre,"SB\dot.png",320,240 F,0,205087,208450,0.84 M,0,205087,208912,315,511,332,152 S,0,205087,208912,0.97 F,0,208450,208912,0.84,0
Sprite,Foreground,Centre,"SB\dot.png",320,240 F,0,205003,206846,0.62 M,0,205003,207308,301,512,322,30 S,0,205003,207308,0.92 F,0,206846,207308,0.62,0
Sprite,Foreground,Centre,"SB\dot.png",320,240 F,0,205484,206207,0.97 M,0,205484,206669,448,520,467,9 S,0,205484,206669,0.65 F,0,206207,206669,0.97,0
Sprite,Foreground,Centre,"SB\dot.png",320,240 F,0,207363,209101,0.41 M,0,207363,209563,520,516,521,102 S,0,207363,209563,0.81 F,0,209101,209563,0.41,0
Sprite,Foreground,Centre,"SB\dot.png",320,240 F,0,206924,209541,0.41 M,0,206924,210003,307,508,302,12 S,0,206924,210003,0.98 F,0,209541,210003,0.41,0
Sprite,Foreground,Centre,"SB\dot.png",320,240 F,0,206556,210161,0.69 M,0,206556,210623,213,502,221,35 S,0,206556,210623,0.77 F,0,210161,210623,0.69,0
Sprite,Foreground,Centre,"SB\dot.png",320,240 F,0,207026,208178,0.34 M,0,207026,208640,31,514,23,95 S,0,207026,208640,0.76 F,0,208178,208640,0.34,0
Sprite,Foreground,Centre,"SB\dot.png",320,240 F,0,207461,209824,0.96 M,0,207461,210286,97,501,70,153 S,0,207461,210286,0.83 F,0,209824,210286,0.96,0
Sprite,Foreground,Centre,"SB\dot.png",320,240 F,0,207160,209097,0.59 M,0,207160,209559,36,507,39,23 S,0,207160,209559,0.67 F,0,209097,209559,0.59,0
Sprite,Foreground,Centre,"SB\dot.png",320,240 F,0,206825,209169,0.98 M,0,206825,209631,7,515,13,125 S,0,206825,209631,0.84 F,0,209169,209631,0.98,0
Sprite,Foreground,Centre,"SB\dot.png",320,240 F,0,207307,210349,0.81 M,0,207307,210811,472,503,462,19 S,0,207307,210811,0.74 F,0,210349,210811,0.81,0
Sprite,Foreground,Centre,"SB\dot.png",320,240 F,0,207275,210359,0.63 M,0,207275,210821,13,507,6,57 S,0,207275,210821,0.67 F,0,210359,210821,0.63,0
Sprite,Foreground,Centre,"SB\dot.png",320,240 F,0,207077,208022,0.5 M,0,207077,208484,311,515,322,92 S,0,207077,208484,0.63 F,0,208022,208484,0.5,0
Sprite,Foreground,Centre,"SB\dot.png",320,240 F,0,206842,210681,0.42 M,0,206842,211143,493,505,509,143 S,0,206842,211143,0.76 F,0,210681,211143,0.42,0
Sprite,Foreground,Centre,"SB\dot.png",320,240 F,0,207227,208694,0.83 M,0,207227,209156,285,520,313,117 S,0,207227,209156,0.76 F,0,208694,209156,0.83,0
Sprite,Foreground,Centre,"SB\dot.png",320,240 F,0,206777,208038,0.9 M,0,206777,208500,493,515,494,132 S,0,206777,208500,0.87 F,0,208038,208500,0.9,0
Sprite,Foreground,Centre,"SB\dot.png",320,240 F,0,206802,208886,0.73 M,0,206802,209348,247,512,245,20 S,0,206802,209348,0.63 F,0,208886,209348,0.73,0
Sprite,Foreground,Centre,"SB\dot.png",320,240 F,0,207073,209421,0.6 M,0,207073,209883,81,500,65,66 S,0,207073,209883,0.75 F,0,209421,209883,0.6,0
Sprite,Foreground,Centre,"SB\dot.png",320,240 F,0,206955,208976,1 M,0,206955,209438,583,512,586,45 S,0,206955,209438,0.92 F,0,208976,209438,1,0
Sprite,Foreground,Centre,"SB\dot.png",320,240 F,0,207418,208903,0.96 M,0,207418,209365,227,504,237,105 S,0,207418,209365,0.66 F,0,208903,209365,0.96,0
Sprite,Foreground,Centre,"SB\dot.png",320,240 F,0,206767,208876,0.44 M,0,206767,209338,484,508,498,4 S,0,206767,209338,0.73 F,0,208876,209338,0.44,0
Sprite,Foreground,Centre,"SB\dot.png",320,240 F,0,206647,208336,0.62 M,0,206647,208798,500,509,473,27 S,0,206647,208798,0.64 F,0,208336,208798,0.62,0
Sprite,Foreground,Centre,"SB\dot.png",320,240 F,0,206688,208333,0.73 M,0,206688,208795,61,512,44,20 S,0,206688,208795,0.73 F,0,208333,208795,0.73,0
Sprite,Foreground,Centre,"SB\dot.png",320,240 F,0,207214,208490,0.44 M,0,207214,208952,133,507,127,81 S,0,207214,208952,0.77 F,0,208490,208952,0.44,0
Sprite,Foreground,Centre,"SB\dot.png",320,240 F,0,207147,210412,0.26 M,0,207147,210874,405,512,381,145 S,0,207147,210874,0.89 F,0,210412,210874,0.26,0
Sprite,Foreground,Centre,"SB\dot.png",320,240 F,0,206706,209476,0.38 M,0,206706,209938,624,510,625,33 S,0,206706,209938,0.96 F,0,209476,209938,0.38,0
Sprite,Foreground,Centre,"SB\dot.png",320,240 F,0,206779,210365,0.78 M,0,206779,210827,268,512,282,35 S,0,206779,210827,0.97 F,0,210365,210827,0.78,0
Sprite,Foreground,Centre,"SB\dot.png",320,240 F,0,206676,208088,0.68 M,0,206676,208550,366,501,337,7 S,0,206676,208550,0.83 F,0,208088,208550,0.68,0
Sprite,Foreground,Centre,"SB\dot.png",320,240 F,0,207365,208066,0.8 M,0,207365,208528,139,515,145,127 S,0,207365,208528,0.94 F,0,208066,208528,0.8,0
Sprite,Foreground,Centre,"SB\dot.png",320,240 F,0,207385,210246,0.72 M,0,207385,210708,477,513,449,102 S,0,207385,210708,0.67 F,0,210246,210708,0.72,0
Sprite,Foreground,Centre,"SB\dot.png",320,240 F,0,206898,208072,0.4 M,0,206898,208534,562,508,566,1 S,0,206898,208534,0.92 F,0,208072,208534,0.4,0
Sprite,Foreground,Centre,"SB\dot.png",320,240 F,0,206785,208960,0.6 M,0,206785,209422,268,505,239,88 S,0,206785,209422,0.87 F,0,208960,209422,0.6,0
Sprite,Foreground,Centre,"SB\dot.png",320,240 F,0,207453,209474,0.86 M,0,207453,209936,607,512,579,152 S,0,207453,209936,0.7 F,0,209474,209936,0.86,0
Sprite,Foreground,Centre,"SB\dot.png",320,240 F,0,209075,212125,0.9 M,0,209075,212587,457,515,484,56 S,0,209075,212587,0.71 F,0,212125,212587,0.9,0
Sprite,Foreground,Centre,"SB\dot.png",320,240 F,0,209186,211549,0.21 M,0,209186,212011,543,515,519,17 S,0,209186,212011,0.94 F,0,211549,212011,0.21,0
Sprite,Foreground,Centre,"SB\dot.png",320,240 F,0,208499,209851,0.61 M,0,208499,210313,447,509,443,146 S,0,208499,210313,0.87 F,0,209851,210313,0.61,0
Sprite,Foreground,Centre,"SB\dot.png",320,240 F,0,209209,212356,0.48 M,0,209209,212818,604,515,581,104 S,0,209209,212818,0.82 F,0,212356,212818,0.48,0
Sprite,Foreground,Centre,"SB\dot.png",320,240 F,0,208717,211691,0.94 M,0,208717,212153,61,512,79,155 S,0,208717,212153,0.66 F,0,211691,212153,0.94,0
Sprite,Foreground,Centre,"SB\dot.png",320,240 F,0,209134,210751,0.37 M,0,209134,211213,296,508,288,31 S,0,209134,211213,0.86 F,0,210751,211213,0.37,0
Sprite,Foreground,Centre,"SB\dot.png",320,240 F,0,208520,211734,0.46 M,0,208520,212196,125,505,98,113 S,0,208520,212196,1 F,0,211734,212196,0.46,0
Sprite,Foreground,Centre,"SB\dot.png",320,240 F,0,208897,212236,0.77 M,0,208897,212698,618,508,589,49 S,0,208897,212698,0.8 F,0,212236,212698,0.77,0
Sprite,Foreground,Centre,"SB\dot.png",320,240 F,0,208890,210329,0.35 M,0,208890,210791,-8,507,11,8 S,0,208890,210791,0.84 F,0,210329,210791,0.35,0
Sprite,Foreground,Centre,"SB\dot.png",320,240 F,0,209147,209872,0.27 M,0,209147,210334,332,520,332,145 S,0,209147,210334,1 F,0,209872,210334,0.27,0
Sprite,Foreground,Centre,"SB\dot.png",320,240 F,0,209238,211553,0.74 M,0,209238,212015,140,500,165,38 S,0,209238,212015,0.94 F,0,211553,212015,0.74,0
Sprite,Foreground,Centre,"SB\dot.png",320,240 F,0,208994,209948,0.71 M,0,208994,210410,207,519,210,155 S,0,208994,210410,1 F,0,209948,210410,0.71,0
Sprite,Foreground,Centre,"SB\dot.png",320,240 F,0,209167,211672,0.26 M,0,209167,212134,308,502,299,62 S,0,209167,212134,0.94 F,0,211672,212134,0.26,0
Sprite,Foreground,Centre,"SB\dot.png",320,240 F,0,209278,211822,0.33 M,0,209278,212284,225,518,250,53 S,0,209278,212284,0.65 F,0,211822,212284,0.33,0
Sprite,Foreground,Centre,"SB\dot.png",320,240 F,0,208669,210874,0.98 M,0,208669,211336,133,511,115,150 S,0,208669,211336,0.6 F,0,210874,211336,0.98,0
Sprite,Foreground,Centre,"SB\dot.png",320,240 F,0,209016,210828,0.75 M,0,209016,211290,649,505,662,78 S,0,209016,211290,0.6 F,0,210828,211290,0.75,0
Sprite,Foreground,Centre,"SB\dot.png",320,240 F,0,208893,210679,0.87 M,0,208893,211141,365,508,373,111 S,0,208893,211141,0.94 F,0,210679,211141,0.87,0
Sprite,Foreground,Centre,"SB\dot.png",320,240 F,0,209145,210495,0.86 M,0,209145,210957,535,510,528,1 S,0,209145,210957,0.63 F,0,210495,210957,0.86,0
Sprite,Foreground,Centre,"SB\dot.png",320,240 F,0,208567,210307,0.95 M,0,208567,210769,94,517,119,135 S,0,208567,210769,0.96 F,0,210307,210769,0.95,0
Sprite,Foreground,Centre,"SB\dot.png",320,240 F,0,209157,211331,0.26 M,0,209157,211793,506,517,531,55 S,0,209157,211793,0.7 F,0,211331,211793,0.26,0
Sprite,Foreground,Centre,"SB\dot.png",320,240 F,0,209108,211946,0.31 M,0,209108,212408,100,515,121,67 S,0,209108,212408,0.76 F,0,211946,212408,0.31,0
Sprite,Foreground,Centre,"SB\dot.png",320,240 F,0,209162,211880,0.91 M,0,209162,212342,603,505,618,82 S,0,209162,212342,0.97 F,0,211880,212342,0.91,0
Sprite,Foreground,Centre,"SB\dot.png",320,240 F,0,208994,209824,0.56 M,0,208994,210286,148,511,161,71 S,0,208994,210286,0.87 F,0,209824,210286,0.56,0
Sprite,Foreground,Centre,"SB\dot.png",320,240 F,0,209289,211532,0.77 M,0,209289,211994,153,513,135,88 S,0,209289,211994,0.66 F,0,211532,211994,0.77,0
Sprite,Foreground,Centre,"SB\dot.png",320,240 F,0,208881,212142,0.22 M,0,208881,212604,226,511,226,138 S,0,208881,212604,0.92 F,0,212142,212604,0.22,0
Sprite,Foreground,Centre,"SB\dot.png",320,240 F,0,208415,210891,0.76 M,0,208415,211353,139,517,140,105 S,0,208415,211353,0.69 F,0,210891,211353,0.76,0
Sprite,Foreground,Centre,"SB\dot.png",320,240 F,0,208893,211034,0.65 M,0,208893,211496,535,508,515,110 S,0,208893,211496,0.62 F,0,211034,211496,0.65,0
Sprite,Foreground,Centre,"SB\dot.png",320,240 F,0,208738,211973,0.6 M,0,208738,212435,578,520,548,23 S,0,208738,212435,0.88 F,0,211973,212435,0.6,0
Sprite,Foreground,Centre,"SB\dot.png",320,240 F,0,209079,209827,0.58 M,0,209079,210289,417,507,387,65 S,0,209079,210289,0.94 F,0,209827,210289,0.58,0
Sprite,Foreground,Centre,"SB\dot.png",320,240 F,0,209077,211800,0.94 M,0,209077,212262,287,508,307,30 S,0,209077,212262,0.95 F,0,211800,212262,0.94,0
Sprite,Foreground,Centre,"SB\dot.png",320,240 F,0,210957,211846,0.47 M,0,210957,212308,284,511,284,50 S,0,210957,212308,0.97 F,0,211846,212308,0.47,0
Sprite,Foreground,Centre,"SB\dot.png",320,240 F,0,210894,214346,0.77 M,0,210894,214808,513,505,521,106 S,0,210894,214808,0.76 F,0,214346,214808,0.77,0
Sprite,Foreground,Centre,"SB\dot.png",320,240 F,0,210880,214331,0.36 M,0,210880,214793,476,506,506,74 S,0,210880,214793,0.73 F,0,214331,214793,0.36,0
Sprite,Foreground,Centre,"SB\dot.png",320,240 F,0,210436,213402,0.38 M,0,210436,213864,546,502,559,158 S,0,210436,213864,0.98 F,0,213402,213864,0.38,0
Sprite,Foreground,Centre,"SB\dot.png",320,240 F,0,210365,211698,0.44 M,0,210365,212160,332,508,325,87 S,0,210365,212160,0.93 F,0,211698,212160,0.44,0
Sprite,Foreground,Centre,"SB\dot.png",320,240 F,0,210607,212771,0.42 M,0,210607,213233,617,513,634,143 S,0,210607,213233,0.8 F,0,212771,213233,0.42,0
Sprite,Foreground,Centre,"SB\dot.png",320,240 F,0,210415,211849,0.39 M,0,210415,212311,61,512,33,115 S,0,210415,212311,0.9 F,0,211849,212311,0.39,0
Sprite,Foreground,Centre,"SB\dot.png",320,240 F,0,210759,214242,0.39 M,0,210759,214704,38,517,19,55 S,0,210759,214704,0.6 F,0,214242,214704,0.39,0
Sprite,Foreground,Centre,"SB\dot.png",320,240 F,0,210605,213975,0.71 M,0,210605,214437,118,509,96,71 S,0,210605,214437,0.95 F,0,213975,214437,0.71,0
Sprite,Foreground,Centre,"SB\dot.png",320,240 F,0,210454,214390,0.98 M,0,210454,214852,245,506,250,136 S,0,210454,214852,0.69 F,0,214390,214852,0.98,0
Sprite,Foreground,Centre,"SB\dot.png",320,240 F,0,210981,213699,0.87 M,0,210981,214161,456,505,462,138 S,0,210981,214161,0.88 F,0,213699,214161,0.87,0
Sprite,Foreground,Centre,"SB\dot.png",320,240 F,0,211037,213378,0.82 M,0,211037,213840,364,518,385,22 S,0,211037,213840,0.71 F,0,213378,213840,0.82,0
Sprite,Foreground,Centre,"SB\dot.png",320,240 F,0,210522,213605,0.51 M,0,210522,214067,327,502,350,52 S,0,210522,214067,0.91 F,0,213605,214067,0.51,0
Sprite,Foreground,Centre,"SB\dot.png",320,240 F,0,210949,212679,0.39 M,0,210949,213141,284,508,256,145 S,0,210949,213141,0.8 F,0,212679,213141,0.39,0
Sprite,Foreground,Centre,"SB\dot.png",320,240 F,0,210441,212250,0.28 M,0,210441,212712,624,502,645,61 S,0,210441,212712,0.75 F,0,212250,212712,0.28,0
Sprite,Foreground,Centre,"SB\dot.png",320,240 F,0,210781,212699,0.41 M,0,210781,213161,73,514,94,18 S,0,210781,213161,0.63 F,0,212699,213161,0.41,0
Sprite,Foreground,Centre,"SB\dot.png",320,240 F,0,210483,211947,0.88 M,0,210483,212409,243,520,239,134 S,0,210483,212409,0.61 F,0,211947,212409,0.88,0
Sprite,Foreground,Centre,"SB\dot.png",320,240 F,0,210803,214105,0.68 M,0,210803,214567,57,515,83,157 S,0,210803,214567,0.69 F,0,214105,214567,0.68,0
Sprite,Foreground,Centre,"SB\dot.png",320,240 F,0,210919,212999,0.6 M,0,210919,213461,121,514,128,10 S,0,210919,213461,0.94 F,0,212999,213461,0.6,0
Sprite,Foreground,Centre,"SB\dot.png",320,240 F,0,210857,211925,0.93 M,0,210857,212387,333,514,332,110 S,0,210857,212387,0.81 F,0,211925,212387,0.93,0
Sprite,Foreground,Centre,"SB\dot.png",320,240 F,0,211002,214162,0.45 M,0,211002,214624,38,517,18,30 S,0,211002,214624,0.64 F,0,214162,214624,0.45,0
Sprite,Foreground,Centre,"SB\dot.png",320,240 F,0,211101,212129,0.23 M,0,211101,212591,148,519,161,123 S,0,211101,212591,0.62 F,0,212129,212591,0.23,0
Sprite,Foreground,Centre,"SB\dot.png",320,240 F,0,210618,212709,0.91 M,0,210618,213171,559,512,546,36 S,0,210618,213171,0.83 F,0,212709,213171,0.91,0
Sprite,Foreground,Centre,"SB\dot.png",320,240 F,0,210766,214003,0.45 M,0,210766,214465,435,512,415,113 S,0,210766,214465,0.62 F,0,214003,214465,0.45,0
Sprite,Foreground,Centre,"SB\dot.png",320,240 F,0,210673,211910,0.48 M,0,210673,212372,327,506,338,21 S,0,210673,212372,0.93 F,0,211910,212372,0.48,0
Sprite,Foreground,Centre,"SB\dot.png",320,240 F,0,210501,213568,0.96 M,0,210501,214030,66,516,72,102 S,0,210501,214030,0.93 F,0,213568,214030,0.96,0
Sprite,Foreground,Centre,"SB\dot.png",320,240 F,0,210263,213330,0.82 M,0,210263,213792,307,503,318,25 S,0,210263,213792,0.74 F,0,213330,213792,0.82,0
Sprite,Foreground,Centre,"SB\dot.png",320,240 F,0,210918,212523,0.5 M,0,210918,212985,374,506,399,104 S,0,210918,212985,0.87 F,0,212523,212985,0.5,0
Sprite,Foreground,Centre,"SB\dot.png",320,240 F,0,211081,211703,0.95 M,0,211081,212165,81,500,53,116 S,0,211081,212165,0.96 F,0,211703,212165,0.95,0
Sprite,Foreground,Centre,"SB\dot.png",320,240 F,0,211051,211744,0.77 M,0,211051,212206,620,509,617,67 S,0,211051,212206,0.84 F,0,211744,212206,0.77,0
Sprite,Foreground,Centre,"SB\dot.png",320,240 F,0,212869,214349,0.39 M,0,212869,214811,147,505,176,95 S,0,212869,214811,0.7 F,0,214349,214811,0.39,0
Sprite,Foreground,Centre,"SB\dot.png",320,240 F,0,212786,215093,0.28 M,0,212786,215555,466,513,465,25 S,0,212786,215555,0.97 F,0,215093,215555,0.28,0
Sprite,Foreground,Centre,"SB\dot.png",320,240 F,0,212814,213980,0.93 M,0,212814,214442,272,511,283,71 S,0,212814,214442,0.65 F,0,213980,214442,0.93,0
Sprite,Foreground,Centre,"SB\dot.png",320,240 F,0,212375,215837,0.7 M,0,212375,216299,89,510,102,57 S,0,212375,216299,0.67 F,0,215837,216299,0.7,0
Sprite,Foreground,Centre,"SB\dot.png",320,240 F,0,212258,214420,0.64 M,0,212258,214882,585,519,611,39 S,0,212258,214882,0.98 F,0,214420,214882,0.64,0
Sprite,Foreground,Centre,"SB\dot.png",320,240 F,0,212764,215110,0.54 M,0,212764,215572,95,509,73,109 S,0,212764,215572,0.66 F,0,215110,215572,0.54,0
Sprite,Foreground,Centre,"SB\dot.png",320,240 F,0,212628,214170,0.48 M,0,212628,214632,-1,519,16,146 S,0,212628,214632,0.89 F,0,214170,214632,0.48,0
Sprite,Foreground,Centre,"SB\dot.png",320,240 F,0,212825,214349,0.94 M,0,212825,214811,126,506,101,133 S,0,212825,214811,0.74 F,0,214349,214811,0.94,0
Sprite,Foreground,Centre,"SB\dot.png",320,240 F,0,212246,214065,0.98 M,0,212246,214527,9,515,33,126 S,0,212246,214527,0.72 F,0,214065,214527,0.98,0
Sprite,Foreground,Centre,"SB\dot.png",320,240 F,0,212997,216056,0.99 M,0,212997,216518,616,502,597,16 S,0,212997,216518,0.65 F,0,216056,216518,0.99,0
Sprite,Foreground,Centre,"SB\dot.png",320,240 F,0,212282,216049,0.94 M,0,212282,216511,535,511,565,117 S,0,212282,216511,0.96 F,0,216049,216511,0.94,0
Sprite,Foreground,Centre,"SB\dot.png",320,240 F,0,212500,215910,0.98 M,0,212500,216372,638,510,656,28 S,0,212500,216372,0.74 F,0,215910,216372,0.98,0
Sprite,Foreground,Centre,"SB\dot.png",320,240 F,0,213020,215077,0.82 M,0,213020,215539,475,513,497,7 S,0,213020,215539,0.64 F,0,215077,215539,0.82,0
Sprite,Foreground,Centre,"SB\dot.png",320,240 F,0,212688,214552,0.81 M,0,212688,215014,75,506,99,49 S,0,212688,215014,0.8 F,0,214552,215014,0.81,0
Sprite,Foreground,Centre,"SB\dot.png",320,240 F,0,212599,214602,0.66 M,0,212599,215064,83,508,84,26 S,0,212599,215064,0.65 F,0,214602,215064,0.66,0
Sprite,Foreground,Centre,"SB\dot.png",320,240 F,0,212546,214528,0.81 M,0,212546,214990,146,518,157,6 S,0,212546,214990,0.83 F,0,214528,214990,0.81,0
Sprite,Foreground,Centre,"SB\dot.png",320,240 F,0,212328,215743,0.35 M,0,212328,216205,13,520,10,84 S,0,212328,216205,0.84 F,0,215743,216205,0.35,0
Sprite,Foreground,Centre,"SB\dot.png",320,240 F,0,212877,215741,0.74 M,0,212877,216203,593,501,606,143 S,0,212877,216203,0.96 F,0,215741,216203,0.74,0
Sprite,Foreground,Centre,"SB\dot.png",320,240 F,0,212761,213989,0.43 M,0,212761,214451,141,506,155,76 S,0,212761,214451,0.76 F,0,213989,214451,0.43,0
Sprite,Foreground,Centre,"SB\dot.png",320,240 F,0,212638,216188,0.58 M,0,212638,216650,572,508,588,141 S,0,212638,216650,0.92 F,0,216188,216650,0.58,0
Sprite,Foreground,Centre,"SB\dot.png",320,240 F,0,212861,215493,0.99 M,0,212861,215955,182,506,208,81 S,0,212861,215955,0.66 F,0,215493,215955,0.99,0
Sprite,Foreground,Centre,"SB\dot.png",320,240 F,0,212676,214708,0.67 M,0,212676,215170,117,513,124,106 S,0,212676,215170,0.83 F,0,214708,215170,0.67,0
Sprite,Foreground,Centre,"SB\dot.png",320,240 F,0,212457,213786,0.37 M,0,212457,214248,235,517,265,61 S,0,212457,214248,0.72 F,0,213786,214248,0.37,0
Sprite,Foreground,Centre,"SB\dot.png",320,240 F,0,212412,215260,0.83 M,0,212412,215722,272,508,257,113 S,0,212412,215722,1 F,0,215260,215722,0.83,0
Sprite,Foreground,Centre,"SB\dot.png",320,240 F,0,212430,213662,0.71 M,0,212430,214124,521,502,509,14 S,0,212430,214124,0.79 F,0,213662,214124,0.71,0
Sprite,Foreground,Centre,"SB\dot.png",320,240 F,0,213021,215946,0.63 M,0,213021,216408,149,502,172,99 S,0,213021,216408,0.6 F,0,215946,216408,0.63,0
Sprite,Foreground,Centre,"SB\dot.png",320,240 F,0,212951,214822,0.83 M,0,212951,215284,592,504,578,100 S,0,212951,215284,0.9 F,0,214822,215284,0.83,0
Sprite,Foreground,Centre,"SB\dot.png",320,240 F,0,212669,215041,0.65 M,0,212669,215503,602,506,580,96 S,0,212669,215503,0.68 F,0,215041,215503,0.65,0
Sprite,Foreground,Centre,"SB\dot.png",320,240 F,0,212298,215880,0.27 M,0,212298,216342,174,504,188,65 S,0,212298,216342,0.81 F,0,215880,216342,0.27,0
Sprite,Foreground,Centre,"SB\dot.png",320,240 F,0,212877,214342,0.69 M,0,212877,214804,170,517,171,110 S,0,212877,214804,0.64 F,0,214342,214804,0.69,0
Sprite,Foreground,Centre,"SB\dot.png",320,240 F,0,214709,216496,0.39 M,0,214709,216958,34,508,30,143 S,0,214709,216958,0.86 F,0,216496,216958,0.39,0
Sprite,Foreground,Centre,"SB\dot.png",320,240 F,0,214624,216641,0.94 M,0,214624,217103,424,503,450,125 S,0,214624,217103,0.76 F,0,216641,217103,0.94,0
Sprite,Foreground,Centre,"SB\dot.png",320,240 F,0,214592,216610,0.88 M,0,214592,217072,87,503,85,93 S,0,214592,217072,0.88 F,0,216610,217072,0.88,0
Sprite,Foreground,Centre,"SB\dot.png",320,240 F,0,214695,217819,0.77 M,0,214695,218281,478,506,455,49 S,0,214695,218281,0.95 F,0,217819,218281,0.77,0
Sprite,Foreground,Centre,"SB\dot.png",320,240 F,0,214449,218018,0.31 M,0,214449,218480,596,514,575,150 S,0,214449,218480,0.87 F,0,218018,218480,0.31,0
Sprite,Foreground,Centre,"SB\dot.png",320,240 F,0,214419,216312,0.56 M,0,214419,216774,606,518,578,109 S,0,214419,216774,0.91 F,0,216312,216774,0.56,0
Sprite,Foreground,Centre,"SB\dot.png",320,240 F,0,214686,215364,0.58 M,0,214686,215826,254,505,224,84 S,0,214686,215826,0.65 F,0,215364,215826,0.58,0
Sprite,Foreground,Centre,"SB\dot.png",320,240 F,0,214811,217384,0.7 M,0,214811,217846,-8,513,-23,43 S,0,214811,217846,0.96 F,0,217384,217846,0.7,0
Sprite,Foreground,Centre,"SB\dot.png",320,240 F,0,214771,216039,0.75 M,0,214771,216501,208,516,217,122 S,0,214771,216501,0.96 F,0,216039,216501,0.75,0
Sprite,Foreground,Centre,"SB\dot.png",320,240 F,0,214131,215462,0.56 M,0,214131,215924,228,520,253,93 S,0,214131,215924,0.76 F,0,215462,215924,0.56,0
Sprite,Foreground,Centre,"SB\dot.png",320,240 F,0,214864,218050,0.3 M,0,214864,218512,183,518,182,121 S,0,214864,218512,0.89 F,0,218050,218512,0.3,0
Sprite,Foreground,Centre,"SB\dot.png",320,240 F,0,214810,217013,0.27 M,0,214810,217475,119,503,140,99 S,0,214810,217475,0.97 F,0,217013,217475,0.27,0
Sprite,Foreground,Centre,"SB\dot.png",320,240 F,0,214730,216431,0.22 M,0,214730,216893,416,507,439,40 S,0,214730,216893,0.85 F,0,216431,216893,0.22,0
Sprite,Foreground,Centre,"SB\dot.png",320,240 F,0,214395,215654,1 M,0,214395,216116,573,509,568,77 S,0,214395,216116,0.6 F,0,215654,216116,1,0
Sprite,Foreground,Centre,"SB\dot.png",320,240 F,0,214320,217535,0.81 M,0,214320,217997,320,502,313,64 S,0,214320,217997,1 F,0,217535,217997,0.81,0
Sprite,Foreground,Centre,"SB\dot.png",320,240 F,0,214741,216804,0.85 M,0,214741,217266,389,501,396,69 S,0,214741,217266,0.62 F,0,216804,217266,0.85,0
Sprite,Foreground,Centre,"SB\dot.png",320,240 F,0,214032,217269,0.53 M,0,214032,217731,77,520,92,142 S,0,214032,217731,0.92 F,0,217269,217731,0.53,0
Sprite,Foreground,Centre,"SB\dot.png",320,240 F,0,213963,216040,0.45 M,0,213963,216502,379,513,372,1 S,0,213963,216502,0.98 F,0,216040,216502,0.45,0
Sprite,Foreground,Centre,"SB\dot.png",320,240 F,0,214838,217071,0.57 M,0,214838,217533,575,508,557,27 S,0,214838,217533,0.72 F,0,217071,217533,0.57,0
Sprite,Foreground,Centre,"SB\dot.png",320,240 F,0,214749,216350,0.38 M,0,214749,216812,510,509,493,49 S,0,214749,216812,0.76 F,0,216350,216812,0.38,0
Sprite,Foreground,Centre,"SB\dot.png",320,240 F,0,214801,216316,0.63 M,0,214801,216778,543,514,551,131 S,0,214801,216778,0.71 F,0,216316,216778,0.63,0
Sprite,Foreground,Centre,"SB\dot.png",320,240 F,0,214417,216949,0.93 M,0,214417,217411,54,519,36,48 S,0,214417,217411,0.96 F,0,216949,217411,0.93,0
Sprite,Foreground,Centre,"SB\dot.png",320,240 F,0,214634,217701,0.26 M,0,214634,218163,485,500,489,17 S,0,214634,218163,0.94 F,0,217701,218163,0.26,0
Sprite,Foreground,Centre,"SB\dot.png",320,240 F,0,214634,217250,0.73 M,0,214634,217712,416,502,445,123 S,0,214634,217712,0.69 F,0,217250,217712,0.73,0
Sprite,Foreground,Centre,"SB\dot.png",320,240 F,0,214017,217432,0.3 M,0,214017,217894,619,506,607,145 S,0,214017,217894,0.61 F,0,217432,217894,0.3,0
Sprite,Foreground,Centre,"SB\dot.png",320,240 F,0,214130,217497,0.42 M,0,214130,217959,518,504,543,41 S,0,214130,217959,0.74 F,0,217497,217959,0.42,0
Sprite,Foreground,Centre,"SB\dot.png",320,240 F,0,214407,217228,0.77 M,0,214407,217690,641,520,652,143 S,0,214407,217690,0.77 F,0,217228,217690,0.77,0
Sprite,Foreground,Centre,"SB\dot.png",320,240 F,0,213996,216291,0.88 M,0,213996,216753,3,506,-8,130 S,0,213996,216753,0.63 F,0,216291,216753,0.88,0
Sprite,Foreground,Centre,"SB\dot.png",320,240 F,0,214865,216577,0.5 M,0,214865,217039,559,515,549,88 S,0,214865,217039,0.87 F,0,216577,217039,0.5,0
Sprite,Foreground,Centre,"SB\dot.png",320,240 F,0,214339,216145,0.34 M,0,214339,216607,251,517,261,25 S,0,214339,216607,0.74 F,0,216145,216607,0.34,0
Sprite,Foreground,Centre,"SB\dot.png",320,240 F,0,216209,218350,0.4 M,0,216209,218812,541,500,522,16 S,0,216209,218812,0.61 F,0,218350,218812,0.4,0
Sprite,Foreground,Centre,"SB\dot.png",320,240 F,0,215961,218667,0.8 M,0,215961,219129,258,500,246,102 S,0,215961,219129,0.96 F,0,218667,219129,0.8,0
Sprite,Foreground,Centre,"SB\dot.png",320,240 F,0,216278,219118,0.91 M,0,216278,219580,510,513,525,4 S,0,216278,219580,0.75 F,0,219118,219580,0.91,0
Sprite,Foreground,Centre,"SB\dot.png",320,240 F,0,216337,217835,0.79 M,0,216337,218297,265,509,268,25 S,0,216337,218297,0.7 F,0,217835,218297,0.79,0
Sprite,Foreground,Centre,"SB\dot.png",320,240 F,0,216133,219397,0.96 M,0,216133,219859,250,503,221,74 S,0,216133,219859,0.76 F,0,219397,219859,0.96,0
Sprite,Foreground,Centre,"SB\dot.png",320,240 F,0,216359,219344,0.66 M,0,216359,219806,212,502,237,147 S,0,216359,219806,0.7 F,0,219344,219806,0.66,0
Sprite,Foreground,Centre,"SB\dot.png",320,240 F,0,215928,218381,0.81 M,0,215928,218843,565,509,577,29 S,0,215928,218843,0.82 F,0,218381,218843,0.81,0
Sprite,Foreground,Centre,"SB\dot.png",320,240 F,0,216589,217317,0.47 M,0,216589,217779,498,516,504,89 S,0,216589,217779,1 F,0,217317,217779,0.47,0
Sprite,Foreground,Centre,"SB\dot.png",320,240 F,0,216114,217492,0.41 M,0,216114,217954,311,503,284,101 S,0,216114,217954,0.69 F,0,217492,217954,0.41,0
Sprite,Foreground,Centre,"SB\dot.png",320,240 F,0,216051,218537,0.65 M,0,216051,218999,396,516,414,15 S,0,216051,218999,0.9 F,0,218537,218999,0.65,0
Sprite,Foreground,Centre,"SB\dot.png",320,240 F,0,216338,219825,0.21 M,0,216338,220287,452,514,458,83 S,0,216338,220287,0.6 F,0,219825,220287,0.21,0
Sprite,Foreground,Centre,"SB\dot.png",320,240 F,0,216318,219173,0.24 M,0,216318,219635,622,519,601,35 S,0,216318,219635,0.76 F,0,219173,219635,0.24,0
Sprite,Foreground,Centre,"SB\dot.png",320,240 F,0,216670,219226,0.55 M,0,216670,219688,358,520,349,29 S,0,216670,219688,0.83 F,0,219226,219688,0.55,0
Sprite,Foreground,Centre,"SB\dot.png",320,240 F,0,216318,218430,0.88 M,0,216318,218892,267,520,255,19 S,0,216318,218892,0.91 F,0,218430,218892,0.88,0
Sprite,Foreground,Centre,"SB\dot.png",320,240 F,0,215919,219100,0.4 M,0,215919,219562,399,500,378,92 S,0,215919,219562,0.85 F,0,219100,219562,0.4,0
Sprite,Foreground,Centre,"SB\dot.png",320,240 F,0,216278,219092,0.88 M,0,216278,219554,247,505,237,51 S,0,216278,219554,0.83 F,0,219092,219554,0.88,0
Sprite,Foreground,Centre,"SB\dot.png",320,240 F,0,215876,217352,0.86 M,0,215876,217814,188,520,207,114 S,0,215876,217814,0.74 F,0,217352,217814,0.86,0
Sprite,Foreground,Centre,"SB\dot.png",320,240 F,0,216003,219779,0.71 M,0,216003,220241,506,508,533,63 S,0,216003,220241,0.9 F,0,219779,220241,0.71,0
Sprite,Foreground,Centre,"SB\dot.png",320,240 F,0,216714,217604,0.92 M,0,216714,218066,363,502,360,138 S,0,216714,218066,0.73 F,0,217604,218066,0.92,0
Sprite,Foreground,Centre,"SB\dot.png",320,240 F,0,216191,217406,0.88 M,0,216191,217868,304,517,322,129 S,0,216191,217868,0.64 F,0,217406,217868,0.88,0
Sprite,Foreground,Centre,"SB\dot.png",320,240 F,0,216347,218890,0.58 M,0,216347,219352,571,520,556,62 S,0,216347,219352,0.9 F,0,218890,219352,0.58,0
Sprite,Foreground,Centre,"SB\dot.png",320,240 F,0,216284,219455,0.69 M,0,216284,219917,311,506,307,32 S,0,216284,219917,0.6 F,0,219455,219917,0.69,0
Sprite,Foreground,Centre,"SB\dot.png",320,240 F,0,216208,219613,0.56 M,0,216208,220075,648,513,670,62 S,0,216208,220075,0.82 F,0,219613,220075,0.56,0
Sprite,Foreground,Centre,"SB\dot.png",320,240 F,0,216281,219340,0.86 M,0,216281,219802,484,518,488,149 S,0,216281,219802,0.9 F,0,219340,219802,0.86,0
Sprite,Foreground,Centre,"SB\dot.png",320,240 F,0,216294,217298,0.56 M,0,216294,217760,125,509,122,138 S,0,216294,217760,0.78 F,0,217298,217760,0.56,0
Sprite,Foreground,Centre,"SB\dot.png",320,240 F,0,215807,218956,0.29 M,0,215807,219418,96,506,123,160 S,0,215807,219418,0.93 F,0,218956,219418,0.29,0
Sprite,Foreground,Centre,"SB\dot.png",320,240 F,0,215798,217330,0.44 M,0,215798,217792,278,511,296,11 S,0,215798,217792,0.75 F,0,217330,217792,0.44,0
Sprite,Foreground,Centre,"SB\dot.png",320,240 F,0,216253,217380,0.25 M,0,216253,217842,51,502,48,52 S,0,216253,217842,1 F,0,217380,217842,0.25,0
Sprite,Foreground,Centre,"SB\dot.png",320,240 F,0,215828,219928,0.8 M,0,215828,220390,77,502,65,75 S,0,215828,220390,0.83 F,0,219928,220390,0.8,0
Sprite,Foreground,Centre,"SB\dot.png",320,240 F,0,216369,217777,0.79 M,0,216369,218239,321,509,301,56 S,0,216369,218239,0.81 F,0,217777,218239,0.79,0
Sprite,Foreground,Centre,"SB\dot.png",320,240 F,0,217995,221795,0.38 M,0,217995,222257,515,511,517,86 S,0,217995,222257,0.74 F,0,221795,222257,0.38,0
Sprite,Foreground,Centre,"SB\dot.png",320,240 F,0,218252,219648,0.53 M,0,218252,220110,226,503,211,155 S,0,218252,220110,0.82 F,0,219648,220110,0.53,0
Sprite,Foreground,Centre,"SB\dot.png",320,240 F,0,217655,219224,0.46 M,0,217655,219686,159,517,136,32 S,0,217655,219686,0.69 F,0,219224,219686,0.46,0
Sprite,Foreground,Centre,"SB\dot.png",320,240 F,0,217933,220364,0.62 M,0,217933,220826,432,500,421,106 S,0,217933,220826,0.99 F,0,220364,220826,0.62,0
Sprite,Foreground,Centre,"SB\dot.png",320,240 F,0,218275,220274,0.32 M,0,218275,220736,12,519,-13,7 S,0,218275,220736,0.65 F,0,220274,220736,0.32,0
Sprite,Foreground,Centre,"SB\dot.png",320,240 F,0,218181,219144,0.76 M,0,218181,219606,33,511,51,39 S,0,218181,219606,0.63 F,0,219144,219606,0.76,0
Sprite,Foreground,Centre,"SB\dot.png",320,240 F,0,217765,219657,0.79 M,0,217765,220119,523,502,513,42 S,0,217765,220119,0.73 F,0,219657,220119,0.79,0
Sprite,Foreground,Centre,"SB\dot.png",320,240 F,0,218439,220070,0.42 M,0,218439,220532,589,503,599,70 S,0,218439,220532,1 F,0,220070,220532,0.42,0
Sprite,Foreground,Centre,"SB\dot.png",320,240 F,0,217666,219395,0.45 M,0,217666,219857,428,503,402,29 S,0,217666,219857,0.88 F,0,219395,219857,0.45,0
Sprite,Foreground,Centre,"SB\dot.png",320,240 F,0,218033,219252,0.4 M,0,218033,219714,404,503,428,40 S,0,218033,219714,0.62 F,0,219252,219714,0.4,0
Sprite,Foreground,Centre,"SB\dot.png",320,240 F,0,218016,219467,0.82 M,0,218016,219929,579,517,608,125 S,0,218016,219929,0.8 F,0,219467,219929,0.82,0
Sprite,Foreground,Centre,"SB\dot.png",320,240 F,0,217888,219354,0.64 M,0,217888,219816,198,513,220,109 S,0,217888,219816,0.65 F,0,219354,219816,0.64,0
Sprite,Foreground,Centre,"SB\dot.png",320,240 F,0,218507,221629,0.63 M,0,218507,222091,350,513,348,3 S,0,218507,222091,0.84 F,0,221629,222091,0.63,0
Sprite,Foreground,Centre,"SB\dot.png",320,240 F,0,217994,220110,0.72 M,0,217994,220572,476,500,478,43 S,0,217994,220572,0.75 F,0,220110,220572,0.72,0
Sprite,Foreground,Centre,"SB\dot.png",320,240 F,0,217655,219218,0.92 M,0,217655,219680,430,516,402,130 S,0,217655,219680,0.72 F,0,219218,219680,0.92,0
Sprite,Foreground,Centre,"SB\dot.png",320,240 F,0,218294,219080,0.59 M,0,218294,219542,207,504,177,117 S,0,218294,219542,0.84 F,0,219080,219542,0.59,0
Sprite,Foreground,Centre,"SB\dot.png",320,240 F,0,217762,220994,0.79 M,0,217762,221456,434,506,422,108 S,0,217762,221456,0.82 F,0,220994,221456,0.79,0
Sprite,Foreground,Centre,"SB\dot.png",320,240 F,0,218204,220696,0.45 M,0,218204,221158,473,519,464,23 S,0,218204,221158,0.99 F,0,220696,221158,0.45,0
Sprite,Foreground,Centre,"SB\dot.png",320,240 F,0,217849,221752,0.31 M,0,217849,222214,192,514,186,121 S,0,217849,222214,0.94 F,0,221752,222214,0.31,0
Sprite,Foreground,Centre,"SB\dot.png",320,240 F,0,218272,219208,0.27 M,0,218272,219670,9,517,12,42 S,0,218272,219670,0.99 F,0,219208,219670,0.27,0
Sprite,Foreground,Centre,"SB\dot.png",320,240 F,0,218046,221431,0.41 M,0,218046,221893,48,511,67,101 S,0,218046,221893,0.95 F,0,221431,221893,0.41,0
Sprite,Foreground,Centre,"SB\dot.png",320,240 F,0,217861,219298,0.64 M,0,217861,219760,296,516,291,62 S,0,217861,219760,0.65 F,0,219298,219760,0.64,0
Sprite,Foreground,Centre,"SB\dot.png",320,240 F,0,217662,219335,0.6 M,0,217662,219797,199,517,187,66 S,0,217662,219797,0.78 F,0,219335,219797,0.6,0
Sprite,Foreground,Centre,"SB\dot.png",320,240 F,0,217696,221300,0.45 M,0,217696,221762,495,515,506,54 S,0,217696,221762,0.88 F,0,221300,221762,0.45,0
Sprite,Foreground,Centre,"SB\dot.png",320,240 F,0,218506,221411,0.39 M,0,218506,221873,116,500,93,155 S,0,218506,221873,0.62 F,0,221411,221873,0.39,0
Sprite,Foreground,Centre,"SB\dot.png",320,240 F,0,218342,219455,0.23 M,0,218342,219917,481,518,499,49 S,0,218342,219917,0.92 F,0,219455,219917,0.23,0
Sprite,Foreground,Centre,"SB\dot.png",320,240 F,0,218536,221102,0.29 M,0,218536,221564,424,514,445,85 S,0,218536,221564,0.81 F,0,221102,221564,0.29,0
Sprite,Foreground,Centre,"SB\dot.png",320,240 F,0,217830,219860,0.92 M,0,217830,220322,54,510,49,18 S,0,217830,220322,0.74 F,0,219860,220322,0.92,0
Sprite,Foreground,Centre,"SB\dot.png",320,240 F,0,218542,221790,0.29 M,0,218542,222252,385,519,399,12 S,0,218542,222252,0.69 F,0,221790,222252,0.29,0
Sprite,Foreground,Centre,"SB\dot.png",320,240 F,0,217978,221237,0.58 M,0,217978,221699,222,500,203,79 S,0,217978,221699,0.75 F,0,221237,221699,0.58,0
Sprite,Foreground,Centre,"SB\dot.png",320,240 F,0,220248,221412,0.79 M,0,220248,221874,588,513,571,70 S,0,220248,221874,0.9 F,0,221412,221874,0.79,0
Sprite,Foreground,Centre,"SB\dot.png",320,240 F,0,219966,222035,0.27 M,0,219966,222497,329,506,321,155 S,0,219966,222497,0.96 F,0,222035,222497,0.27,0
Sprite,Foreground,Centre,"SB\dot.png",320,240 F,0,219915,221084,0.45 M,0,219915,221546,207,507,197,70 S,0,219915,221546,0.95 F,0,221084,221546,0.45,0
Sprite,Foreground,Centre,"SB\dot.png",320,240 F,0,220310,221671,0.6 M,0,220310,222133,364,504,355,117 S,0,220310,222133,0.66 F,0,221671,222133,0.6,0
Sprite,Foreground,Centre,"SB\dot.png",320,240 F,0,220297,223624,0.33 M,0,220297,224086,42,520,63,117 S,0,220297,224086,0.61 F,0,223624,224086,0.33,0
Sprite,Foreground,Centre,"SB\dot.png",320,240 F,0,219793,223224,0.94 M,0,219793,223686,289,515,295,97 S,0,219793,223686,0.64 F,0,223224,223686,0.94,0
Sprite,Foreground,Centre,"SB\dot.png",320,240 F,0,220091,223273,0.22 M,0,220091,223735,24,509,-2,27 S,0,220091,223735,0.82 F,0,223273,223735,0.22,0
Sprite,Foreground,Centre,"SB\dot.png",320,240 F,0,219618,223144,0.8 M,0,219618,223606,195,509,192,95 S,0,219618,223606,0.82 F,0,223144,223606,0.8,0
Sprite,Foreground,Centre,"SB\dot.png",320,240 F,0,219683,223021,0.33 M,0,219683,223483,523,506,508,23 S,0,219683,223483,1 F,0,223021,223483,0.33,0
Sprite,Foreground,Centre,"SB\dot.png",320,240 F,0,219496,221815,0.99 M,0,219496,222277,236,506,249,136 S,0,219496,222277,0.93 F,0,221815,222277,0.99,0
Sprite,Foreground,Centre,"SB\dot.png",320,240 F,0,220400,221221,0.3 M,0,220400,221683,412,500,421,146 S,0,220400,221683,0.95 F,0,221221,221683,0.3,0
Sprite,Foreground,Centre,"SB\dot.png",320,240 F,0,220346,221105,0.84 M,0,220346,221567,169,519,161,52 S,0,220346,221567,0.99 F,0,221105,221567,0.84,0
Sprite,Foreground,Centre,"SB\dot.png",320,240 F,0,219825,221325,0.49 M,0,219825,221787,170,506,174,139 S,0,219825,221787,0.91 F,0,221325,221787,0.49,0
Sprite,Foreground,Centre,"SB\dot.png",320,240 F,0,220165,221655,0.72 M,0,220165,222117,265,512,245,105 S,0,220165,222117,0.92 F,0,221655,222117,0.72,0
Sprite,Foreground,Centre,"SB\dot.png",320,240 F,0,219873,223398,0.85 M,0,219873,223860,138,519,164,155 S,0,219873,223860,0.64 F,0,223398,223860,0.85,0
Sprite,Foreground,Centre,"SB\dot.png",320,240 F,0,219986,222799,0.61 M,0,219986,223261,102,506,125,119 S,0,219986,223261,0.79 F,0,222799,223261,0.61,0
Sprite,Foreground,Centre,"SB\dot.png",320,240 F,0,219734,220944,0.51 M,0,219734,221406,163,518,177,122 S,0,219734,221406,0.69 F,0,220944,221406,0.51,0
Sprite,Foreground,Centre,"SB\dot.png",320,240 F,0,219536,223523,0.73 M,0,219536,223985,294,518,302,7 S,0,219536,223985,0.6 F,0,223523,223985,0.73,0
Sprite,Foreground,Centre,"SB\dot.png",320,240 F,0,219495,221146,0.4 M,0,219495,221608,427,510,423,117 S,0,219495,221608,0.86 F,0,221146,221608,0.4,0
Sprite,Foreground,Centre,"SB\dot.png",320,240 F,0,220365,223519,0.72 M,0,220365,223981,473,501,453,135 S,0,220365,223981,0.84 F,0,223519,223981,0.72,0
Sprite,Foreground,Centre,"SB\dot.png",320,240 F,0,219860,221032,0.51 M,0,219860,221494,118,500,125,81 S,0,219860,221494,0.75 F,0,221032,221494,0.51,0
Sprite,Foreground,Centre,"SB\dot.png",320,240 F,0,219678,223515,0.5 M,0,219678,223977,163,520,189,65 S,0,219678,223977,0.9 F,0,223515,223977,0.5,0
Sprite,Foreground,Centre,"SB\dot.png",320,240 F,0,220245,222655,0.96 M,0,220245,223117,287,510,309,113 S,0,220245,223117,0.94 F,0,222655,223117,0.96,0
Sprite,Foreground,Centre,"SB\dot.png",320,240 F,0,219808,222959,0.84 M,0,219808,223421,57,502,82,50 S,0,219808,223421,0.84 F,0,222959,223421,0.84,0
Sprite,Foreground,Centre,"SB\dot.png",320,240 F,0,219708,222603,0.62 M,0,219708,223065,619,514,627,89 S,0,219708,223065,0.63 F,0,222603,223065,0.62,0
Sprite,Foreground,Centre,"SB\dot.png",320,240 F,0,220324,222676,0.54 M,0,220324,223138,517,514,524,128 S,0,220324,223138,0.97 F,0,222676,223138,0.54,0
Sprite,Foreground,Centre,"SB\dot.png",320,240 F,0,220398,223213,0.76 M,0,220398,223675,329,517,306,37 S,0,220398,223675,0.66 F,0,223213,223675,0.76,0
Sprite,Foreground,Centre,"SB\dot.png",320,240 F,0,219638,222243,0.33 M,0,219638,222705,417,504,409,76 S,0,219638,222705,0.94 F,0,222243,222705,0.33,0
Sprite,Foreground,Centre,"SB\dot.png",320,240 F,0,220003,221180,0.21 M,0,220003,221642,582,504,564,49 S,0,220003,221642,0.64 F,0,221180,221642,0.21,0
Sprite,Foreground,Centre,"SB\dot.png",320,240 F,0,220201,222670,0.78 M,0,220201,223132,95,501,114,115 S,0,220201,223132,0.61 F,0,222670,223132,0.78,0
Sprite,Foreground,Centre,"SB\dot.png",320,240 F,0,222243,223830,0.61 M,0,222243,224292,297,505,304,159 S,0,222243,224292,1 F,0,223830,224292,0.61,0
Sprite,Foreground,Centre,"SB\dot.png",320,240 F,0,222021,223146,0.6 M,0,222021,223608,24,519,1,70 S,0,222021,223608,0.98 F,0,223146,223608,0.6,0
Sprite,Foreground,Centre,"SB\dot.png",320,240 F,0,221907,225249,0.27 M,0,221907,225711,127,500,108,103 S,0,221907,225711,0.89 F,0,225249,225711,0.27,0
Sprite,Foreground,Centre,"SB\dot.png",320,240 F,0,221569,223041,0.6 M,0,221569,223503,42,512,48,58 S,0,221569,223503,0.8 F,0,223041,223503,0.6,0
Sprite,Foreground,Centre,"SB\dot.png",320,240 F,0,222159,224923,0.98 M,0,222159,225385,133,506,162,10 S,0,222159,225385,0.71 F,0,224923,225385,0.98,0
Sprite,Foreground,Centre,"SB\dot.png",320,240 F,0,221420,225406,0.53 M,0,221420,225868,575,513,581,77 S,0,221420,225868,0.98 F,0,225406,225868,0.53,0
Sprite,Foreground,Centre,"SB\dot.png",320,240 F,0,222132,223529,0.72 M,0,222132,223991,219,519,195,142 S,0,222132,223991,0.78 F,0,223529,223991,0.72,0
Sprite,Foreground,Centre,"SB\dot.png",320,240 F,0,221710,222733,0.83 M,0,221710,223195,404,508,381,114 S,0,221710,223195,0.96 F,0,222733,223195,0.83,0
Sprite,Foreground,Centre,"SB\dot.png",320,240 F,0,221605,222829,0.88 M,0,221605,223291,64,520,61,18 S,0,221605,223291,0.61 F,0,222829,223291,0.88,0
Sprite,Foreground,Centre,"SB\dot.png",320,240 F,0,221794,223276,0.2 M,0,221794,223738,80,512,67,4 S,0,221794,223738,0.82 F,0,223276,223738,0.2,0
Sprite,Foreground,Centre,"SB\dot.png",320,240 F,0,222002,225150,0.88 M,0,222002,225612,469,516,464,25 S,0,222002,225612,0.88 F,0,225150,225612,0.88,0
Sprite,Foreground,Centre,"SB\dot.png",320,240 F,0,221380,224201,0.75 M,0,221380,224663,634,509,619,66 S,0,221380,224663,0.89 F,0,224201,224663,0.75,0
Sprite,Foreground,Centre,"SB\dot.png",320,240 F,0,222069,224119,0.98 M,0,222069,224581,239,516,253,32 S,0,222069,224581,0.72 F,0,224119,224581,0.98,0
Sprite,Foreground,Centre,"SB\dot.png",320,240 F,0,222031,222755,0.44 M,0,222031,223217,436,517,460,3 S,0,222031,223217,0.75 F,0,222755,223217,0.44,0
Sprite,Foreground,Centre,"SB\dot.png",320,240 F,0,221440,223341,0.78 M,0,221440,223803,276,506,301,102 S,0,221440,223803,0.76 F,0,223341,223803,0.78,0
Sprite,Foreground,Centre,"SB\dot.png",320,240 F,0,222164,223912,0.74 M,0,222164,224374,268,511,270,9 S,0,222164,224374,0.94 F,0,223912,224374,0.74,0
Sprite,Foreground,Centre,"SB\dot.png",320,240 F,0,221939,225367,0.25 M,0,221939,225829,110,505,105,96 S,0,221939,225829,0.78 F,0,225367,225829,0.25,0
Sprite,Foreground,Centre,"SB\dot.png",320,240 F,0,221975,223078,0.28 M,0,221975,223540,159,500,135,32 S,0,221975,223540,0.84 F,0,223078,223540,0.28,0
Sprite,Foreground,Centre,"SB\dot.png",320,240 F,0,221568,224221,0.92 M,0,221568,224683,217,505,234,40 S,0,221568,224683,0.72 F,0,224221,224683,0.92,0
Sprite,Foreground,Centre,"SB\dot.png",320,240 F,0,222225,223945,0.54 M,0,222225,224407,386,512,362,22 S,0,222225,224407,0.6 F,0,223945,224407,0.54,0
Sprite,Foreground,Centre,"SB\dot.png",320,240 F,0,221877,223495,0.58 M,0,221877,223957,474,502,468,67 S,0,221877,223957,0.86 F,0,223495,223957,0.58,0
Sprite,Foreground,Centre,"SB\dot.png",320,240 F,0,221732,224227,0.73 M,0,221732,224689,-8,512,-33,132 S,0,221732,224689,0.66 F,0,224227,224689,0.73,0
Sprite,Foreground,Centre,"SB\dot.png",320,240 F,0,221529,222914,0.91 M,0,221529,223376,261,505,254,30 S,0,221529,223376,0.93 F,0,222914,223376,0.91,0
Sprite,Foreground,Centre,"SB\dot.png",320,240 F,0,221862,225092,0.98 M,0,221862,225554,145,503,120,18 S,0,221862,225554,0.66 F,0,225092,225554,0.98,0
Sprite,Foreground,Centre,"SB\dot.png",320,240 F,0,221713,225471,0.82 M,0,221713,225933,74,502,88,91 S,0,221713,225933,0.75 F,0,225471,225933,0.82,0
Sprite,Foreground,Centre,"SB\dot.png",320,240 F,0,221467,223131,0.61 M,0,221467,223593,274,511,264,113 S,0,221467,223593,0.73 F,0,223131,223593,0.61,0
Sprite,Foreground,Centre,"SB\dot.png",320,240 F,0,221528,224156,0.21 M,0,221528,224618,591,509,567,38 S,0,221528,224618,0.97 F,0,224156,224618,0.21,0
Sprite,Foreground,Centre,"SB\dot.png",320,240 F,0,221495,224127,0.61 M,0,221495,224589,268,519,256,126 S,0,221495,224589,0.72 F,0,224127,224589,0.61,0
Sprite,Foreground,Centre,"SB\dot.png",320,240 F,0,221553,224319,0.76 M,0,221553,224781,248,508,272,142 S,0,221553,224781,0.62 F,0,224319,224781,0.76,0
Sprite,Foreground,Centre,"SB\dot.png",320,240 F,0,221514,222743,0.72 M,0,221514,223205,615,520,605,147 S,0,221514,223205,0.78 F,0,222743,223205,0.72,0
Sprite,Foreground,Centre,"SB\dot.png",320,240 F,0,223903,225754,0.59 M,0,223903,226216,352,514,341,56 S,0,223903,226216,0.94 F,0,225754,226216,0.59,0
Sprite,Foreground,Centre,"SB\dot.png",320,240 F,0,223649,226149,0.89 M,0,223649,226611,426,513,443,89 S,0,223649,226611,0.61 F,0,226149,226611,0.89,0
Sprite,Foreground,Centre,"SB\dot.png",320,240 F,0,223663,226568,0.47 M,0,223663,227030,378,515,399,127 S,0,223663,227030,0.84 F,0,226568,227030,0.47,0
Sprite,Foreground,Centre,"SB\dot.png",320,240 F,0,223694,227041,0.76 M,0,223694,227503,618,514,588,120 S,0,223694,227503,0.83 F,0,227041,227503,0.76,0
Sprite,Foreground,Centre,"SB\dot.png",320,240 F,0,223835,224760,0.54 M,0,223835,225222,399,501,386,115 S,0,223835,225222,0.98 F,0,224760,225222,0.54,0
Sprite,Foreground,Centre,"SB\dot.png",320,240 F,0,224040,226436,0.88 M,0,224040,226898,383,514,354,91 S,0,224040,226898,0.6 F,0,226436,226898,0.88,0
Sprite,Foreground,Centre,"SB\dot.png",320,240 F,0,223230,226232,0.63 M,0,223230,226694,115,501,105,72 S,0,223230,226694,0.92 F,0,226232,226694,0.63,0
Sprite,Foreground,Centre,"SB\dot.png",320,240 F,0,223929,226336,0.95 M,0,223929,226798,542,512,527,68 S,0,223929,226798,0.84 F,0,226336,226798,0.95,0
Sprite,Foreground,Centre,"SB\dot.png",320,240 F,0,223813,226591,0.51 M,0,223813,227053,247,514,233,15 S,0,223813,227053,0.75 F,0,226591,227053,0.51,0
Sprite,Foreground,Centre,"SB\dot.png",320,240 F,0,223513,224683,0.35 M,0,223513,225145,425,520,442,31 S,0,223513,225145,0.64 F,0,224683,225145,0.35,0
Sprite,Foreground,Centre,"SB\dot.png",320,240 F,0,223792,224974,0.57 M,0,223792,225436,89,506,105,151 S,0,223792,225436,0.92 F,0,224974,225436,0.57,0
Sprite,Foreground,Centre,"SB\dot.png",320,240 F,0,223615,226228,0.93 M,0,223615,226690,79,507,71,98 S,0,223615,226690,0.98 F,0,226228,226690,0.93,0
Sprite,Foreground,Centre,"SB\dot.png",320,240 F,0,223287,226660,0.26 M,0,223287,227122,572,513,546,73 S,0,223287,227122,0.8 F,0,226660,227122,0.26,0
Sprite,Foreground,Centre,"SB\dot.png",320,240 F,0,223903,225366,0.57 M,0,223903,225828,239,512,235,135 S,0,223903,225828,0.8 F,0,225366,225828,0.57,0
Sprite,Foreground,Centre,"SB\dot.png",320,240 F,0,223478,226773,0.54 M,0,223478,227235,463,502,470,77 S,0,223478,227235,0.8 F,0,226773,227235,0.54,0
Sprite,Foreground,Centre,"SB\dot.png",320,240 F,0,223843,225015,0.96 M,0,223843,225477,52,518,24,145 S,0,223843,225477,0.93 F,0,225015,225477,0.96,0
Sprite,Foreground,Centre,"SB\dot.png",320,240 F,0,223767,225757,0.34 M,0,223767,226219,575,516,554,138 S,0,223767,226219,0.77 F,0,225757,226219,0.34,0
Sprite,Foreground,Centre,"SB\dot.png",320,240 F,0,224095,224902,0.85 M,0,224095,225364,632,508,650,127 S,0,224095,225364,0.87 F,0,224902,225364,0.85,0
Sprite,Foreground,Centre,"SB\dot.png",320,240 F,0,223625,225017,0.38 M,0,223625,225479,234,514,252,127 S,0,223625,225479,0.82 F,0,225017,225479,0.38,0
Sprite,Foreground,Centre,"SB\dot.png",320,240 F,0,223329,224840,0.28 M,0,223329,225302,221,518,250,20 S,0,223329,225302,0.99 F,0,224840,225302,0.28,0
Sprite,Foreground,Centre,"SB\dot.png",320,240 F,0,224027,227193,0.82 M,0,224027,227655,356,505,369,56 S,0,224027,227655,1 F,0,227193,227655,0.82,0
Sprite,Foreground,Centre,"SB\dot.png",320,240 F,0,223393,226781,0.55 M,0,223393,227243,197,502,221,53 S,0,223393,227243,0.72 F,0,226781,227243,0.55,0
Sprite,Foreground,Centre,"SB\dot.png",320,240 F,0,223648,225922,0.62 M,0,223648,226384,-5,502,-23,98 S,0,223648,226384,0.84 F,0,225922,226384,0.62,0
Sprite,Foreground,Centre,"SB\dot.png",320,240 F,0,223213,225306,0.85 M,0,223213,225768,498,513,475,37 S,0,223213,225768,0.78 F,0,225306,225768,0.85,0
Sprite,Foreground,Centre,"SB\dot.png",320,240 F,0,223701,227225,0.32 M,0,223701,227687,620,505,628,90 S,0,223701,227687,0.88 F,0,227225,227687,0.32,0
Sprite,Foreground,Centre,"SB\dot.png",320,240 F,0,223593,225392,0.53 M,0,223593,225854,64,507,94,141 S,0,223593,225854,0.64 F,0,225392,225854,0.53,0
Sprite,Foreground,Centre,"SB\dot.png",320,240 F,0,223377,227282,0.74 M,0,223377,227744,44,501,74,10 S,0,223377,227744,0.7 F,0,227282,227744,0.74,0
Sprite,Foreground,Centre,"SB\dot.png",320,240 F,0,223657,224740,0.39 M,0,223657,225202,62,509,60,141 S,0,223657,225202,0.66 F,0,224740,225202,0.39,0
Sprite,Foreground,Centre,"SB\dot.png",320,240 F,0,223618,224947,0.77 M,0,223618,225409,581,519,562,140 S,0,223618,225409,0.83 F,0,224947,225409,0.77,0
Sprite,Foreground,Centre,"SB\dot.png",320,240 F,0,223999,226678,0.7 M,0,223999,227140,181,503,178,156 S,0,223999,227140,0.96 F,0,226678,227140,0.7,0
Sprite,Foreground,Centre,"SB\BG end.jpg",320,240 M,0,263237,,320,240 F,0,263237,265555,0,0.1296002 F,0,265555,272929,0.1296002,0
Sprite,Foreground,Centre,"SB\kira.png",320,240 R,0,263237,,0 F,0,263237,263467,1,0.8754063 S,0,263237,263467,0.1,0.7845439 F,0,263467,265083,0.8754063,0 S,0,263467,265083,0.7845439,0.9999946
//Storyboard Sound Samples
Sample,190622,0,"normal-hitclap2.wav",30
Sample,216584,0,"normal-hitclap2.wav",30
//Background Colour Transformations
3,100,163,162,255

[TimingPoints]
61836,631.578947368421,4,2,1,50,1,0
61993,-100,4,2,1,41,0,0
62151,-100,4,2,1,43,0,0
63920,470.588235294118,4,2,0,30,1,0
64392,461.538461538462,4,2,1,40,1,0
64622,-100,4,2,1,40,0,0
66238,-100,4,2,1,50,0,0
66468,-100,4,2,1,40,0,0
68084,-100,4,2,1,45,0,0
68315,-100,4,2,1,40,0,0
68776,-100,4,2,1,30,0,0
69007,-100,4,2,1,34,0,0
69238,-100,4,2,1,40,0,0
69930,-153.846153846153,4,2,1,32,0,0
70161,-153.846153846153,4,2,1,45,0,0
71776,-100,4,2,1,40,0,0
75699,-100,4,2,1,30,0,0
76392,-100,4,2,1,40,0,0
77315,-153.846153846153,4,2,1,40,0,0
77545,-153.846153846153,4,2,1,37,0,0
77776,-153.846153846153,4,2,1,5,0,0
78007,-153.846153846153,4,2,1,28,0,0
78468,-153.846153846153,4,2,1,27,0,0
78699,-153.846153846153,4,2,1,37,0,0
79161,-100,4,2,0,50,0,0
79218,-100,4,2,2,50,0,0
80776,-100,4,2,1,27,0,0
81007,-100,4,2,1,40,0,0
81238,-100,4,2,2,50,0,0
82853,-100,4,2,1,50,0,0
83776,-100,4,2,1,27,0,0
84007,-100,4,2,1,50,0,0
84699,-149.253731343284,4,2,1,57,0,0
85161,-149.253731343284,4,2,1,15,0,0
85392,-149.253731343284,4,2,1,60,0,0
85622,-149.253731343284,4,2,1,47,0,0
85853,-149.253731343284,4,2,1,41,0,0
85968,-149.253731343284,4,2,1,60,0,0
86315,-149.253731343284,4,2,1,30,0,0
86430,-149.253731343284,4,2,1,50,0,0
86545,-100,4,2,1,50,0,0
88392,-100,4,2,1,31,0,0
88622,-100,4,2,1,50,0,0
90007,-100,4,2,1,30,0,0
90238,-100,4,2,1,50,0,0
91161,-100,4,2,1,30,0,0
91392,-100,4,2,1,50,0,0
92084,-149.253731343284,4,2,1,46,0,0
92545,-149.253731343284,4,2,1,17,0,0
92776,-149.253731343284,4,2,1,46,0,0
92892,-149.253731343284,4,2,1,49,0,0
93007,-149.253731343284,4,2,1,47,0,0
93238,-149.253731343284,4,2,1,40,0,0
93353,-149.253731343284,4,2,1,50,0,0
93930,-100,4,2,0,40,0,0
93988,-100,4,2,1,50,0,0
94622,-100,4,1,1,60,0,0
95545,-100,4,2,1,17,0,0
95776,-100,4,2,1,36,0,0
96238,-100,4,1,1,57,0,0
97622,-100,4,2,1,30,0,0
98084,-100,4,2,1,50,0,0
98545,-100,4,2,1,33,0,0
99007,-100,4,2,1,48,0,0
99468,-100,4,2,1,46,0,0
100161,-100,4,1,1,50,0,0
100968,-100,4,2,1,21,0,0
101315,-100,4,2,1,36,0,0
102007,-200,4,1,1,50,0,0
102238,-100,4,1,1,50,0,0
103161,-100,4,2,1,40,0,0
103392,-100,4,1,1,50,0,0
105007,-100,4,2,1,38,0,0
105468,-100,4,2,1,50,0,0
105930,-100,4,2,1,30,0,0
106392,-100,4,2,1,50,0,0
106853,-100,4,2,1,43,0,0
106968,-100,4,1,1,50,0,0
107084,-100,4,1,1,60,0,0
107199,-100,4,1,1,50,0,0
108007,-100,4,1,1,59,0,0
108122,-100,4,1,1,50,0,0
108238,-100,4,1,1,70,0,0
108353,-100,4,1,1,50,0,0
108468,-100,4,1,1,77,0,0
108584,-100,4,1,1,62,0,0
108699,-100,4,1,2,37,0,1
108930,-100,4,1,1,77,0,1
109161,-100,4,1,2,80,0,1
109507,-100,4,2,2,53,0,1
109622,-100,4,2,2,58,0,1
109968,-100,4,1,2,80,0,1
110084,-100,4,1,2,74,0,1
110315,-100,4,2,1,60,0,1
110430,-100,4,1,2,75,0,1
110545,-100,4,1,2,55,0,1
110776,-100,4,1,1,75,0,1
111007,-100,4,1,2,75,0,1
111238,-100,4,2,2,59,0,1
111353,-100,4,2,2,49,0,1
111815,-100,4,1,2,75,0,1
112161,-100,4,1,1,62,0,1
112392,-100,4,1,2,65,0,1
112622,-100,4,2,1,64,0,1
112853,-100,4,1,2,74,0,1
112968,-100,4,2,1,64,0,1
113315,-100,4,1,2,55,0,1
113545,-100,4,2,1,62,0,1
113776,-100,4,1,2,81,0,1
113892,-100,4,2,1,62,0,1
114238,-133.333333333333,4,1,2,61,0,1
114468,-133.333333333333,4,2,1,66,0,1
114699,-133.333333333333,4,1,2,71,0,1
115045,-100,4,1,1,62,0,1
115161,-100,4,1,2,52,0,1
115392,-100,4,1,1,62,0,1
115622,-100,4,1,2,74,0,1
116084,-100,4,1,2,62,0,1
116315,-100,4,1,2,70,0,1
116776,-100,4,1,1,68,0,1
116892,-100,4,2,2,52,0,1
117007,-100,4,2,2,65,0,1
117238,-100,4,2,2,57,0,1
117468,-100,4,1,2,76,0,1
117699,-100,4,1,2,67,0,1
118622,-100,4,2,1,62,0,1
119315,-100,4,1,2,69,0,1
119776,-100,4,1,2,54,0,1
120007,-100,4,2,1,64,0,1
120238,-100,4,1,2,68,0,1
120930,-100,4,2,1,57,0,1
121161,-100,4,1,2,69,0,1
121622,-200,4,1,2,42,0,1
122084,-200,4,1,2,52,0,1
122315,-200,4,2,2,52,0,1
122430,-100,4,1,2,42,0,1
122545,-100,4,1,2,54,0,1
122776,-100,4,1,2,51,0,1
122892,-100,4,1,2,61,0,1
123007,-100,4,1,2,67,0,1
123468,-100,4,1,2,32,0,1
123699,-100,4,1,1,74,0,1
123930,-100,4,1,2,69,0,1
124161,-100,4,1,1,72,0,1
124276,-100,4,2,1,61,0,1
124738,-100,4,1,2,71,0,1
124968,-100,4,1,2,61,0,1
125661,-100,4,1,2,61,0,1
125776,-100,4,1,2,71,0,1
126007,-100,4,2,1,68,0,1
126699,-100,4,1,2,71,0,1
126815,-100,4,1,1,68,0,1
127161,-100,4,1,2,65,0,1
127622,-100,4,1,2,71,0,1
127853,-100,4,2,1,60,0,1
128084,-100,4,1,2,66,0,1
128545,-100,4,1,2,69,0,1
128776,-100,4,1,1,66,0,1
129007,-100,4,1,2,66,0,1
129238,-100,4,2,1,61,0,1
129353,-100,4,1,2,66,0,1
129468,-100,4,1,2,71,0,1
129584,-100,4,1,2,66,0,1
129699,-100,4,2,1,66,0,1
129815,-100,4,1,2,66,0,1
130161,-100,4,2,1,66,0,1
130276,-100,4,2,1,60,0,1
130392,-100,4,1,2,66,0,1
130622,-100,4,2,1,66,0,1
130738,-100,4,1,2,66,0,1
131084,-100,4,1,1,66,0,1
131315,-100,4,1,2,66,0,1
131545,-100,4,2,1,66,0,1
131776,-100,4,1,2,47,0,1
132007,-100,4,1,1,66,0,1
132238,-100,4,1,2,76,0,1
132468,-100,4,1,1,66,0,1
132699,-100,4,1,2,66,0,1
133045,-100,4,1,1,66,0,1
133161,-100,4,1,2,66,0,1
133392,-100,4,2,1,66,0,1
133507,-100,4,1,2,66,0,1
133853,-100,4,1,1,72,0,1
134084,-100,4,1,2,69,0,1
134315,-100,4,1,1,66,0,1
134545,-100,4,1,2,66,0,1
135007,-100,4,1,2,72,0,1
135468,-100,4,1,2,66,0,1
135930,-100,4,1,2,72,0,1
136392,-100,4,1,0,43,0,1
137084,-100,4,1,1,40,0,1
137776,-100,4,1,1,37,0,1
138238,-100,4,1,2,27,0,0
152315,-100,4,1,1,72,0,0
153007,-133.333333333333,4,2,1,42,0,0
153238,-133.333333333333,4,2,1,58,0,0
153468,-133.333333333333,4,1,2,54,0,0
153699,-133.333333333333,4,1,1,64,0,0
153930,-133.333333333333,4,1,2,64,0,0
154392,-133.333333333333,4,1,1,64,0,0
155084,-133.333333333333,4,1,1,64,0,0
155315,-133.333333333333,4,1,2,64,0,0
155545,-133.333333333333,4,1,1,64,0,0
157161,-133.333333333333,4,1,2,64,0,0
157392,-133.333333333333,4,1,1,64,0,0
158084,-133.333333333333,4,1,2,64,0,0
158315,-133.333333333333,4,1,1,64,0,0
158545,-133.333333333333,4,1,2,54,0,0
159007,-133.333333333333,4,1,2,44,0,0
159238,-133.333333333333,4,1,1,64,0,0
159468,-133.333333333333,4,2,1,54,0,0
159584,-133.333333333333,4,1,1,64,0,0
159930,-133.333333333333,4,1,2,38,0,0
160161,-133.333333333333,4,1,1,64,0,0
160392,-133.333333333333,4,2,1,37,0,0
160853,-133.333333333333,4,1,1,56,0,0
161776,-133.333333333333,4,1,2,54,0,0
162007,-133.333333333333,4,2,1,54,0,0
162238,-133.333333333333,4,1,1,64,0,0
162699,-133.333333333333,4,1,2,54,0,0
162930,-133.333333333333,4,1,1,62,0,0
163392,-133.333333333333,4,1,1,42,0,0
163622,-133.333333333333,4,1,2,45,0,0
163853,-133.333333333333,4,2,1,62,0,0
164084,-133.333333333333,4,1,2,55,0,0
164776,-133.333333333333,4,2,1,52,0,0
165238,-133.333333333333,4,2,1,53,0,0
165468,-133.333333333333,4,1,2,53,0,0
165699,-133.333333333333,4,1,1,57,0,0
166161,-133.333333333333,4,1,1,61,0,0
166392,-133.333333333333,4,1,2,50,0,0
166622,-133.333333333333,4,1,1,57,0,0
166853,-133.333333333333,4,1,2,51,0,0
167315,-133.333333333333,4,1,2,54,0,0
167776,-100,4,2,2,42,0,0
167892,-100,4,1,1,59,0,0
168238,-100,4,1,2,59,0,0
168468,-100,4,2,2,59,0,0
169161,-100,4,1,2,53,0,0
169392,-100,4,1,1,59,0,0
169622,-100,4,1,2,59,0,0
170315,-100,4,2,1,59,0,0
171007,-100,4,1,2,55,0,0
171238,-100,4,1,1,59,0,0
171468,-100,4,1,2,53,0,0
172161,-100,4,2,1,53,0,0
172853,-100,4,1,2,53,0,0
173084,-100,4,1,1,59,0,0
173315,-100,4,1,1,57,0,0
174007,-100,4,1,1,58,0,0
174122,-100,4,2,1,54,0,0
174699,-100,4,1,2,51,0,0
174930,-100,4,1,1,57,0,0
175161,-100,4,1,2,57,0,0
175392,-100,4,2,1,57,0,0
175622,-100,4,2,2,57,0,0
176084,-100,4,1,2,57,0,0
176315,-100,4,2,1,62,0,0
176545,-100,4,2,2,57,0,0
177007,-100,4,1,2,54,0,0
177238,-100,4,2,2,54,0,0
177930,-100,4,1,2,54,0,0
178161,-100,4,2,1,54,0,0
178392,-100,4,1,2,54,0,0
178622,-100,4,1,2,44,0,0
178853,-100,4,1,2,47,0,0
179315,-100,4,2,1,54,0,0
179545,-100,4,1,1,54,0,0
179776,-100,4,1,2,54,0,0
180238,-100,4,2,1,54,0,0
180699,-100,4,1,2,48,0,0
182315,-100,4,2,0,54,0,0
182776,-100,4,1,2,84,0,0
183930,-100,4,2,2,61,0,0
184392,-100,4,1,2,53,0,0
184622,-100,4,1,2,80,0,0
185776,-100,4,2,2,62,0,0
186238,-100,4,1,2,52,0,0
186699,-100,4,1,2,82,0,0
187622,-83.3333333333333,4,2,2,62,0,0
188084,-100,4,1,2,52,0,0
188545,-100,4,1,2,83,0,0
189468,-100,4,2,2,57,0,0
189930,-100,4,1,2,43,0,0
190392,-100,4,2,2,53,0,0
190853,-100,4,2,1,68,0,0
191315,-100,4,2,2,54,0,0
191776,-200,4,1,2,49,0,0
192238,-200,4,2,2,49,0,0
192468,-200,4,2,1,52,0,0
192699,-100,4,2,2,54,0,0
192930,-100,4,2,2,62,0,0
193161,-100,4,1,2,46,0,0
193392,-100,4,1,1,65,0,0
193622,-100,4,1,1,65,0,0
194084,-100,4,2,2,55,0,0
194545,-100,4,1,2,48,0,0
195007,-100,4,2,2,55,0,0
195468,-200,4,1,2,42,0,0
196622,-200,4,2,2,64,0,0
196738,-200,4,2,2,50,0,0
197084,-200,4,2,2,68,0,0
197315,-83.3333333333333,4,1,2,40,0,1
197776,-83.3333333333333,4,1,2,70,0,1
198007,-83.3333333333333,4,2,2,57,0,1
198699,-83.3333333333333,4,1,2,70,0,1
198930,-83.3333333333333,4,1,1,63,0,1
199161,-83.3333333333333,4,1,2,57,0,1
199622,-83.3333333333333,4,1,2,70,0,1
199853,-83.3333333333333,4,2,1,63,0,1
200545,-83.3333333333333,4,1,2,73,0,1
201007,-83.3333333333333,4,1,2,57,0,1
201238,-83.3333333333333,4,2,2,56,0,1
201468,-83.3333333333333,4,1,2,72,0,1
201699,-83.3333333333333,4,2,2,69,0,1
201815,-83.3333333333333,4,1,2,42,0,1
201930,-83.3333333333333,4,1,2,48,0,1
202045,-83.3333333333333,4,1,2,59,0,1
202161,-83.3333333333333,4,2,2,66,0,1
202392,-83.3333333333333,4,1,2,72,0,1
202622,-83.3333333333333,4,2,2,62,0,1
202738,-83.3333333333333,4,1,2,72,0,1
202853,-83.3333333333333,4,1,2,49,0,1
202968,-83.3333333333333,4,2,2,62,0,1
203315,-83.3333333333333,4,2,2,47,0,1
203430,-83.3333333333333,4,2,2,65,0,1
203661,-83.3333333333333,4,1,2,45,0,1
203776,-83.3333333333333,4,1,2,52,0,1
204007,-83.3333333333333,4,2,2,49,0,1
204238,-83.3333333333333,4,2,2,58,0,1
204468,-83.3333333333333,4,2,2,59,0,1
204699,-83.3333333333333,4,1,2,53,0,1
204930,-83.3333333333333,4,1,1,63,0,1
205161,-83.3333333333333,4,1,2,70,0,1
205392,-83.3333333333333,4,2,2,63,0,1
205622,-83.3333333333333,4,1,2,58,0,1
205853,-83.3333333333333,4,1,1,65,0,1
206084,-83.3333333333333,4,1,2,72,0,1
206545,-83.3333333333333,4,1,2,52,0,1
206776,-83.3333333333333,4,2,1,62,0,1
207007,-83.3333333333333,4,1,2,72,0,1
207238,-83.3333333333333,4,1,1,90,0,1
207468,-83.3333333333333,4,2,1,57,0,1
207930,-83.3333333333333,4,1,2,70,0,1
208161,-83.3333333333333,4,1,1,70,0,1
208392,-83.3333333333333,4,1,2,60,0,1
208622,-83.3333333333333,4,2,2,60,0,1
208853,-83.3333333333333,4,1,2,69,0,1
209084,-83.3333333333333,4,2,2,69,0,1
209315,-83.3333333333333,4,1,2,53,0,1
209545,-83.3333333333333,4,2,2,69,0,1
209776,-83.3333333333333,4,1,2,69,0,1
210007,-83.3333333333333,4,2,1,59,0,1
210122,-83.3333333333333,4,1,2,69,0,1
210238,-83.3333333333333,4,1,2,53,0,1
210468,-83.3333333333333,4,2,2,63,0,1
210699,-83.3333333333333,4,1,2,73,0,1
210930,-83.3333333333333,4,2,1,63,0,1
211045,-83.3333333333333,4,1,2,46,0,1
211161,-83.3333333333333,4,1,2,53,0,1
211392,-83.3333333333333,4,2,2,59,0,1
211507,-83.3333333333333,4,2,2,49,0,1
211622,-83.3333333333333,4,1,2,73,0,1
211853,-83.3333333333333,4,2,2,63,0,1
211968,-83.3333333333333,4,1,2,73,0,1
212084,-100,4,1,2,41,0,1
212545,-83.3333333333333,4,1,2,74,0,1
212776,-83.3333333333333,4,2,2,60,0,1
213007,-83.3333333333333,4,1,2,50,0,1
213238,-83.3333333333333,4,2,1,60,0,1
213468,-83.3333333333333,4,1,2,70,0,1
213699,-83.3333333333333,4,1,1,60,0,1
213930,-83.3333333333333,4,1,2,57,0,1
214161,-83.3333333333333,4,2,2,57,0,1
214392,-83.3333333333333,4,1,2,71,0,1
214622,-83.3333333333333,4,2,2,64,0,1
214853,-83.3333333333333,4,1,2,54,0,1
215084,-83.3333333333333,4,2,1,54,0,1
215199,-83.3333333333333,4,2,2,54,0,1
215315,-83.3333333333333,4,1,2,78,0,1
215430,-83.3333333333333,4,2,2,61,0,1
215661,-83.3333333333333,4,1,2,41,0,1
215776,-83.3333333333333,4,1,2,52,0,1
216238,-83.3333333333333,4,1,2,72,0,1
216699,-83.3333333333333,4,1,2,52,0,1
217161,-83.3333333333333,4,1,2,72,0,1
217392,-83.3333333333333,4,1,1,67,0,1
217622,-83.3333333333333,4,1,2,54,0,1
217853,-83.3333333333333,4,2,2,59,0,1
218084,-83.3333333333333,4,1,2,70,0,1
218199,-83.3333333333333,4,2,2,47,0,1
218315,-83.3333333333333,4,2,2,63,0,1
218430,-83.3333333333333,4,1,2,37,0,1
218545,-83.3333333333333,4,1,2,41,0,1
219007,-83.3333333333333,4,1,2,72,0,1
219238,-83.3333333333333,4,2,2,62,0,1
219468,-83.3333333333333,4,1,2,54,0,1
219699,-83.3333333333333,4,1,1,61,0,1
219930,-83.3333333333333,4,1,2,74,0,1
220161,-83.3333333333333,4,2,2,65,0,1
220392,-83.3333333333333,4,1,2,55,0,1
220622,-83.3333333333333,4,2,2,65,0,1
220853,-83.3333333333333,4,1,2,69,0,1
221315,-83.3333333333333,4,1,2,53,0,1
221776,-83.3333333333333,4,1,2,73,0,1
222007,-83.3333333333333,4,2,2,59,0,1
222122,-83.3333333333333,4,2,2,63,0,1
222238,-83.3333333333333,4,1,2,53,0,1
222699,-83.3333333333333,4,1,2,73,0,1
222930,-83.3333333333333,4,2,2,53,0,1
223045,-83.3333333333333,4,1,2,73,0,1
223161,-83.3333333333333,4,1,2,26,0,1
223622,-83.3333333333333,4,1,2,63,0,1
224084,-83.3333333333333,4,1,2,33,0,1
224545,-83.3333333333333,4,1,2,73,0,1
225007,-83.3333333333333,4,1,2,53,0,1
225122,-83.3333333333333,4,2,2,53,0,1
225238,-83.3333333333333,4,2,2,59,0,1
225468,-83.3333333333333,4,2,2,46,0,1
225584,-83.3333333333333,4,2,2,56,0,1
225699,-83.3333333333333,4,2,2,50,0,1
225930,-83.3333333333333,4,1,2,50,0,1
226161,-83.3333333333333,4,2,2,46,0,1
226392,-83.3333333333333,4,2,2,54,0,1
226849,461.538461538462,4,2,0,100,1,0
226849,-100,4,1,2,30,0,0
227079,-100,4,2,2,70,0,0
232387,-153.846153846154,4,2,2,70,0,0
232849,-153.846153846154,4,2,2,15,0,0
232964,-153.846153846154,4,2,2,70,0,0
233310,-153.846153846154,4,2,2,16,0,0
233425,-153.846153846154,4,2,2,70,0,0
234233,-100,4,2,2,70,0,0
237695,-100,4,2,2,61,0,0
240233,-100,4,2,2,51,0,0
241041,-100,4,2,2,45,0,0
241783,571.428571428571,4,2,0,60,1,0
241783,-200,4,2,2,61,0,0
243170,-200,4,2,2,16,0,0
243515,555.555555555556,4,2,2,63,1,0
244071,576.923076923077,4,2,0,60,1,0
244071,-200,4,2,2,56,0,0
245369,-200,4,2,2,16,0,0
245657,-200,4,2,2,56,0,0
246378,-200,4,2,2,53,0,0
248686,-200,4,2,2,50,0,0
248974,-200,4,2,2,17,0,0
249551,-200,4,2,2,50,0,0
249840,-200,4,2,2,18,0,0
250417,-200,4,2,2,50,0,0
251000,645.161290322581,4,2,0,57,1,0
253590,666.666666666667,4,2,0,48,1,0
256240,750,4,2,0,50,1,0
256240,-200,4,2,2,44,0,0
257723,750,4,2,2,44,1,0
257723,-200,4,2,2,44,0,0
259220,833.333333333333,4,2,2,40,1,0
260073,857.142857142857,4,2,2,40,1,0
260930,923.076923076923,4,2,2,40,1,0
261391,-100,4,2,2,37,0,0
261853,-100,4,2,2,36,0,0
262314,923.076923076923,4,2,2,34,1,0
263237,-100,4,2,1,20,0,0

[Colours]
Combo1 : 247,247,247
Combo2 : 221,123,209
Combo3 : 81,198,232
SliderBorder : 221,221,221

[HitObjects]
176,96,61836,5,4
256,64,61993,1,4
336,96,62151,1,4
160,288,63920,1,0
256,320,64155,1,0
352,288,64392,6,0,B|404:256|408:192|360:152,1,160,4|8
264,148,65084,2,0,B|212:180|208:244|256:284,1,160,8|8
308,218,65776,1,8
96,204,66238,6,0,B|44:172|40:108|88:68,1,160,4|8
184,64,66930,2,0,B|236:96|240:160|192:200,1,160,8|8
140,134,67622,1,8
336,56,68084,5,4
432,64,68315,1,8
496,136,68546,1,8
484,232,68776,1,12
408,296,69007,1,12
312,288,69238,1,8
248,216,69469,1,8
260,120,69699,1,8
336,56,69930,6,0,B|160:64,1,155.999997210503,4|8
180,63,70738,1,8
180,63,70853,1,8
40,160,71315,1,8
160,288,71776,6,0,B|108:256|104:192|152:152,1,160,4|8
248,148,72468,2,0,B|300:180|304:244|256:284,1,160,8|8
204,218,73160,1,8
416,204,73622,6,0,B|468:172|472:108|424:68,1,160,4|8
328,64,74314,2,0,B|276:96|272:160|320:200,1,160,8|8
372,134,75006,1,8
488,320,75468,5,4
400,288,75699,1,8
320,336,75930,1,8
232,304,76161,1,12
152,352,76392,1,12
64,312,76622,1,8
144,248,76853,1,8
48,208,77084,1,8
100,116,77315,6,0,B|260:124,1,155.999997210503,4|8
460,104,78468,1,12
396,36,78699,1,4
304,40,78930,1,8
251,119,79161,6,0,B|184:176|104:128,1,160,4|0
16,280,79853,2,0,B|192:264,1,160,0|0
264,304,80545,2,0,B|303:295|347:308,1,80,0|12
432,344,81007,6,0,B|484:316|492:248|444:204,1,160,12|0
360,160,81699,2,0,B|308:132|300:64|348:20,1,160
400,88,82392,1,0
512,312,82853,6,0,B|352:328,1,160,4|8
232,176,83776,2,0,B|392:160,1,160,4|8
512,312,84699,6,0,B|351:329,1,160.800005750656,4|8
352,327,85507,1,8
352,327,85622,1,10
248,336,85853,1,10
232,320,85968,1,8
216,304,86084,1,8
200,288,86199,1,8
184,272,86315,1,12
168,256,86430,1,8
152,240,86545,6,0,B|120:292|56:296|16:248,1,160,4|8
12,152,87237,2,0,B|44:100|108:96|148:144,1,160,8|8
82,196,87929,1,8
360,240,88392,6,0,B|392:292|456:296|496:248,1,160,4|8
500,152,89084,2,0,B|468:100|404:96|364:144,1,160,8|8
430,196,89776,1,8
288,104,90007,1,8
200,160,90238,6,0,B|224:328,1,160,4|8
48,368,91161,2,0,B|25:209,1,160,4|8
200,160,92084,6,0,B|224:331,1,160.800005750656,4|8
223,319,92892,1,8
223,319,93007,1,10
320,352,93238,1,10
346,353,93353,1,8
372,348,93468,1,8
396,336,93584,1,8
416,317,93699,1,8
432,296,93815,1,8
448,272,93930,6,0,B|495:200|463:116,1,160,4|8
344,88,94622,1,2
344,88,94738,1,2
344,88,94853,6,0,B|264:80,1,80,8|8
224,216,95315,2,0,B|304:208,1,80,2|4
480,296,95776,6,0,B|428:368|328:336,1,160,4|8
217,351,96468,2,0,B|224:312,1,40,8|2
152,296,96699,2,0,B|144:208,1,80,8|8
312,136,97161,2,0,B|320:224,1,80,2|8
424,240,97622,5,4
424,48,98084,1,8
392,336,98545,1,4
392,144,99007,1,8
264,232,99468,2,0,B|104:224,1,160,4|8
32,304,100161,1,8
32,304,100276,1,2
32,304,100392,5,8
16,176,100622,1,8
144,160,100853,1,2
160,288,101084,2,0,B|168:336,1,40,4|8
232,368,101315,6,0,B|317:401|389:352,1,160,4|8
480,296,102007,1,2
480,296,102122,1,2
480,296,102238,6,0,B|488:208,1,80,8|8
384,168,102699,2,0,B|392:80,1,80,2|8
288,40,103161,6,0,B|216:96|256:184,1,160,4|8
304,288,103853,2,0,B|264:296,1,40,8|2
248,368,104084,2,0,B|160:360,1,80,8|8
80,232,104545,2,0,B|159:239,1,80,2|8
304,288,105007,5,4
315,102,105468,1,8
148,185,105930,1,4
323,326,106392,1,8
338,66,106853,5,12
308,45,106968,1,8
272,45,107084,1,2
240,63,107199,1,8
222,94,107314,1,8
223,130,107430,1,8
240,161,107545,1,2
271,180,107661,1,2
307,180,107776,1,8
339,162,107891,1,8
356,130,108007,1,2
360,94,108122,1,8
371,60,108238,1,2
398,34,108353,1,8
432,23,108468,1,2
470,34,108584,1,2
488,64,108699,6,0,B|480:160,1,80,12|2
400,196,109161,1,2
308,164,109392,1,0
288,152,109507,1,2
268,140,109622,1,2
172,160,109853,1,2
104,232,110084,2,2,B|84:300|136:340,1,120,2|0
204,368,110545,6,0,B|296:356,1,80,8|2
350,286,111007,1,2
436,240,111238,1,2
452,256,111353,1,2
468,272,111468,2,0,B|484:176,1,80,0|2
448,100,111930,1,2
360,56,112161,2,0,B|264:68,1,80,2|8
168,40,112622,5,10
140,56,112738,1,8
122,84,112853,1,2
116,117,112968,1,8
127,149,113084,1,10
150,173,113199,1,8
180,184,113315,1,8
298,112,113545,5,10
326,128,113661,1,8
344,156,113776,1,2
350,189,113891,1,8
339,221,114007,1,10
316,245,114122,1,8
286,255,114238,6,2,B|362:311|458:282,1,179.999994635582,8|0
496,216,115045,2,0,B|498:158,1,40,2|8
499,77,115392,1,8
381,49,115622,1,2
479,52,115853,1,0
404,140,116084,6,0,B|328:184|252:136,1,160,8|2
164,84,116776,1,2
164,84,116892,1,2
164,84,117007,1,2
81,129,117238,1,2
100,220,117469,1,2
193,225,117699,1,0
242,145,117930,6,0,B|292:76|380:64,1,160,8|2
476,96,118622,1,2
472,116,118738,1,8
468,136,118853,2,0,B|476:224,1,80,0|2
364,256,119315,2,0,B|368:168,1,80,2|0
252,136,119776,6,2,B|288:216|240:288,1,160,8|2
25,278,120699,2,2,B|89:221|180:252,1,160,8|2
316,56,121622,6,2,B|256:24|192:52,1,120,8|2
172,60,122430,2,0,B|124:56,1,40,0|8
35,155,122776,1,8
63,175,122892,1,0
98,181,123007,1,2
134,173,123122,1,0
169,165,123238,1,0
204,171,123353,1,2
231,192,123468,6,0,B|216:288,1,80,4|2
128,304,123930,1,2
32,332,124161,1,2
16,302,124276,1,10
16,268,124392,1,10
48,176,124622,1,2
136,136,124853,2,0,B|272:128,1,120,2|0
328,152,125315,6,8,B|392:176|448:144,1,120,8|0
504,104,125776,1,2
416,24,126007,2,0,B|424:64,2,40,10|8|8
316,8,126468,1,2
224,48,126699,1,2
196,60,126815,1,8
164,68,126930,1,10
132,68,127045,1,8
100,60,127161,6,0,B|56:136|104:216,1,160,8|2
248,248,127853,1,10
272,240,127968,1,10
296,232,128084,2,0,B|340:156|292:76,1,160,8|2
144,40,128776,1,2
64,112,129007,5,8
64,144,129122,1,0
72,176,129238,1,10
92,204,129353,1,0
120,220,129468,1,2
152,228,129584,1,0
185,226,129699,1,10
216,213,129815,1,8
249,200,129930,5,8
280,187,130046,1,0
313,185,130161,1,10
345,193,130277,1,8
373,209,130392,1,2
393,237,130507,1,0
401,269,130623,1,10
401,301,130738,1,2
388,380,130853,6,0,B|472:372,2,80,8|2|2
304,320,131545,1,2
273,308,131661,1,8
248,288,131776,1,8
185,211,132007,1,2
166,114,132238,1,2
197,21,132468,1,2
285,69,132699,6,0,B|155:62,1,120,8|10
130,60,133161,1,2
51,130,133392,2,0,B|9:133,2,40,2|0|8
105,215,133853,1,2
191,267,134084,1,2
289,284,134315,1,2
373,336,134545,6,0,B|432:264|369:183,1,160,8|2
139,48,135468,2,0,B|80:120|143:201,1,160,8|2
256,192,136392,1,4
256,192,136507,12,4,138238
336,184,152315,5,8
256,248,152545,1,8
176,184,152776,1,10
240,48,153007,6,0,B|288:40|336:32,1,89.9999973177911,4|8
352,56,153468,1,8
480,72,153699,1,2
464,200,153930,1,0
336,184,154161,5,0
256,120,154391,1,2
176,184,154622,1,8
240,336,154853,6,0,B|288:344|336:352,1,89.9999973177911,8|2
352,328,155314,1,8
480,312,155545,1,2
464,184,155776,1,8
336,200,156007,5,8
256,264,156237,1,2
176,200,156468,1,8
76,224,156699,6,0,B|60:160,1,59.9999982118607,8|8
256,264,157161,2,0,B|240:200,1,59.9999982118607,8|2
436,160,157622,6,0,B|452:224,1,59.9999982118607,8|10
256,120,158084,2,0,B|272:184,1,59.9999982118607,0|10
256,264,158545,6,0,B|232:328|160:328,1,119.999996423721,8|8
48,352,159238,1,2
56,320,159353,1,2
64,288,159468,1,8
148,224,159699,1,8
256,224,159930,1,8
348,280,160161,1,10
408,368,160392,6,0,B|472:360|504:296|468:228,1,179.999994635582,4|2
455,215,161199,1,2
440,200,161315,2,0,B|436:164|448:136,1,59.9999982118607,8|10
473,44,161776,1,8
373,50,162007,6,0,B|296:89|196:58,1,179.999994635582,2|8
88,72,162930,1,2
96,96,163045,1,2
104,120,163161,1,8
164,200,163392,1,2
256,240,163622,1,0
364,248,163853,2,0,B|504:232,1,119.999996423721,2|0
483,234,164545,5,8
431,337,164776,2,0,B|385:337,1,30.0000011444092,10|8
316,340,165007,1,0
256,240,165238,1,10
316,340,165468,1,8
256,240,165699,6,0,B|208:288|124:264,1,119.999996423721,2|2
120,264,166276,1,2
96,256,166392,1,8
244,57,166623,1,2
261,38,166738,1,2
280,21,166854,1,8
378,249,167084,1,8
386,273,167199,1,0
391,298,167315,1,8
48,344,167776,6,0,B|168:332,1,120,4|2
200,328,168238,2,0,B|212:284|184:252,1,80,8|2
136,168,168699,2,0,B|108:136|120:92,1,80,0|2
208,48,169161,1,8
304,32,169392,1,2
464,40,169622,6,0,B|344:52,1,120
312,56,170084,2,0,B|300:100|328:132,1,80,8|2
376,216,170545,2,0,B|404:248|392:292,1,80,8|2
304,336,171007,1,8
208,352,171238,1,2
208,352,171468,6,0,B|148:372|88:348,1,120,8|0
56,336,171930,1,8
20,204,172161,2,0,B|104:168|184:212,1,160,10|2
272,256,172853,2,0,B|312:276|352:256,1,80,8|2
440,204,173315,6,0,B|496:280|444:356,1,160,8|8
328,312,174007,1,2
296,288,174122,1,2
272,256,174238,1,2
248,160,174468,1,2
284,68,174699,1,8
372,28,174930,1,2
480,60,175161,6,2,B|320:132|328:20|168:76,2,320,0|8|8
464,164,177238,1,2
453,195,177353,1,0
430,218,177468,1,0
342,260,177699,1,2
244,261,177930,2,0,B|152:247,1,80,8|2
52,166,178392,2,0,B|144:152,1,80,8|8
185,73,178853,6,0,B|234:109|244:165|202:217,1,160,8|10
128,296,179545,1,2
101,321,179661,1,2
68,336,179776,2,0,B|19:300|9:244|51:192,1,160,8|10
256,192,180699,1,8
256,192,180815,12,0,182084
392,24,182545,5,4
500,156,182892,1,2
472,180,183007,2,0,B|440:208|392:196,1,80,0|2
284,168,183468,2,0,B|312:228|280:288,1,120,0|0
256,308,183930,2,0,B|348:292,1,80,8|0
436,344,184392,5,8
284,168,184737,1,2
260,144,184853,2,0,B|236:108|248:64,1,80,0|2
412,84,185315,2,0,B|289:102,1,120,0|0
180,153,185776,2,0,B|100:149,1,80,8|0
20,240,186238,6,0,B|28:300|90:323|144:288,1,160,8|2
244,344,186930,2,0,B|284:328|324:328,1,80,2|0
356,340,187276,2,0,B|448:324,1,80,2|0
464,352,187622,2,0,B|496:312|480:260,1,96.0000022888184,8|0
428,172,188084,6,0,B|380:140|376:72|428:32,1,160,8|2
488,104,188776,1,2
488,104,188892,1,2
488,104,189007,1,0
328,168,189238,1,2
256,24,189468,1,8
320,184,189699,1,0
480,216,189930,6,0,B|448:308|352:288,1,160,8|8
32,168,190853,2,0,B|64:76|160:96,1,160,8|8
242,271,191776,6,2,B|270:107,1,160,2|0
156,95,192930,1,2
128,112,193045,1,0
101,128,193161,1,2
115,257,193392,1,2
242,271,193622,6,0,B|270:107,1,160,8|8
316,296,194545,6,0,B|433:177,1,160,8|8
352,360,195468,6,0,B|515:330,1,160,8|8
448,256,196622,1,2
424,228,196738,1,2
416,192,196853,1,0
432,96,197084,1,2
499,17,197315,6,0,B|397:-4|312:41,1,192.000004577637,12|2
200,107,198007,1,0
197,73,198122,1,2
204,39,198238,1,2
78,81,198468,2,0,B|69:129|92:175,1,96.0000022888184,2|2
264,224,198930,1,2
394,103,199161,6,0,B|455:150|459:218|402:273,1,192.000004577637,8|2
320,336,199853,1,2
282,350,199968,1,8
243,347,200084,1,8
148,304,200315,1,2
108,208,200545,1,2
384,24,201007,5,8
420,40,201122,1,0
448,72,201238,1,2
456,112,201353,1,0
452,148,201468,6,0,B|400:156,1,48.0000011444092,2|0
360,212,201699,2,0,B|308:220,1,48.0000011444092,2|8
260,272,201930,5,8
233,302,202045,1,0
196,316,202160,1,2
154,313,202276,1,0
120,292,202392,6,0,B|104:224,1,48.0000011444092,2|0
48,208,202622,2,0,B|32:140,1,48.0000011444092,0|2
56,88,202853,5,8
92,68,202968,1,0
132,68,203084,1,2
168,88,203199,1,0
200,108,203315,1,8
236,128,203430,1,0
276,128,203546,1,2
312,108,203661,1,8
340,80,203776,5,8
378,59,203892,1,0
419,55,204007,1,10
459,68,204122,1,0
484,105,204238,1,8
488,145,204353,1,0
478,181,204468,1,2
448,207,204584,1,0
382,236,204699,6,0,B|398:338,1,96.0000022888184,8|2
294,373,205161,1,2
188,344,205391,1,2
152,336,205507,1,0
116,328,205622,1,8
40,248,205853,1,2
144,176,206084,2,0,B|100:104|12:120,1,144.000003433228,2|0
40,248,206545,6,0,B|152:224,1,96.0000022888184,8|2
246,197,207007,1,2
356,164,207238,2,0,B|384:252|308:288,1,144.000003433228,4|8
280,300,207699,2,0,B|384:308,2,96.0000022888184,2|2|2
172,366,208392,5,8
142,339,208507,1,0
126,303,208622,1,2
122,263,208738,1,0
130,223,208853,1,2
154,191,208968,1,0
187,169,209084,1,2
227,161,209199,1,0
267,170,209315,6,0,B|327:181,1,48.0000011444092,8|0
366,230,209545,2,0,B|426:219,1,48.0000011444092,2|0
472,265,209776,2,0,B|515:224,3,48.0000011444092,2|0|2|2
496,158,210238,5,8
478,120,210353,1,0
444,93,210468,1,2
404,83,210584,1,0
364,84,210699,1,2
328,100,210815,1,0
301,129,210930,1,2
291,167,211045,1,8
252,229,211161,6,0,B|260:277,1,48.0000011444092,8|0
184,264,211392,2,0,B|192:312,1,48.0000011444092,2|0
112,272,211622,2,0,B|104:224,1,48.0000011444092,2|0
44,307,211853,2,0,B|36:259,1,48.0000011444092,2|2
0,192,212084,6,0,B|16:56,1,120,12|0
44,43,212545,2,0,B|85:68|138:57,1,96.0000022888184,2|2
216,136,213007,2,2,B|288:60|396:104,1,192.000004577637,0|2
392,102,213699,1,2
496,232,213930,6,0,B|388:220,1,96.0000022888184,8|2
384,244,214276,1,0
364,264,214392,2,0,B|320:280|256:264,1,96.0000022888184,2|2
148,220,214853,2,2,B|184:300|124:356,1,144.000003433228,2|0
96,372,215315,2,0,B|36:368,3,48.0000011444092,2|0|2|0
16,348,215776,5,8
148,220,216238,1,2
284,352,216699,1,8
416,224,217161,1,2
416,224,217392,1,2
504,172,217622,5,8
496,136,217738,1,0
472,112,217853,1,2
440,104,217968,1,0
400,105,218084,6,0,B|388:49,3,48.0000011444092,2|0|2|8
334,135,218545,2,0,B|321:67,1,47.9999985351563,10|0
260,124,218776,2,0,B|212:136|160:120,1,96.0000022888184,8|2
60,132,219238,1,2
60,132,219353,1,0
60,132,219468,6,0,B|52:36,1,96.0000022888184,8|2
180,72,219930,2,0,B|172:168,1,96.0000022888184,2|2
204,180,220276,1,0
236,192,220392,1,8
340,232,220622,1,2
448,212,220853,2,0,B|504:276|456:348,1,144.000003433228,2|0
432,360,221315,6,0,B|352:384|320:332|244:364,1,192.000004577637,8|2
132,332,222007,2,0,B|120:384,2,48.0000011444092,2|0|8
65,231,222468,1,0
56,108,222699,1,2
92,116,222815,1,0
128,112,222930,1,2
160,92,223045,1,2
188,64,223161,6,0,B|240:28|316:28|372:72,1,192.000004577637,4|2
349,306,224084,2,0,B|297:342|221:342|165:298,1,192.000004577637,4|2
9,196,225007,6,0,B|21:256,1,48.0000011444092,10|0
87,155,225238,2,0,B|83:216,1,48.0000011444092,2|0
173,141,225468,2,0,B|153:198,1,48.0000011444092,8|0
257,151,225699,2,0,B|223:201,1,48.0000011444092,2|2
292,232,225930,6,0,B|336:260|392:236,1,96.0000022888184,8|8
412,100,226392,2,0,B|368:72|312:96,1,96.0000022888184,8|0
172,148,226849,6,0,B|92:192|12:140,1,160,4|0
98,71,227541,1,0
98,71,228233,1,0
196,44,228695,6,0,B|232:124|328:112,1,160
424,96,229387,1,0
424,96,230079,1,0
496,200,230541,6,0,B|328:192,1,160
276,352,231464,2,0,B|435:359,1,160
496,200,232387,6,0,B|336:192,2,155.999997210503
263,262,234233,6,0,B|312:225|310:161|259:125,1,160
163,130,234925,2,0,B|113:166|115:230|166:266,1,160
213,196,235617,1,0
272,92,236079,5,0
301,283,236772,1,0
272,92,237464,1,0
356,176,237925,5,0
301,282,238387,1,0
184,263,238849,1,0
165,145,239310,1,0
272,92,239772,1,0
256,192,239887,12,0,241783
184,152,242068,5,0
244,240,242354,1,0
176,324,242640,2,0,B|42:314,1,123
184,152,244070,5,0
244,240,244359,1,0
340,280,244647,1,0
388,192,244936,2,0,B|507:199,1,120
507,199,246378,5,0
416,96,246955,1,0
344,208,247532,1,0
252,104,248109,1,0
100,208,248686,6,0,B|148:256|216:224,2,120
44,128,251000,5,0
116,72,251967,1,0
200,116,252935,1,0
272,140,253590,5,0
352,200,254590,1,0
440,152,255590,1,0
496,208,256240,6,0,B|488:300,1,80
364,280,257723,2,0,B|372:372,1,80
264,344,259220,5,0
176,276,259636,1,0
152,172,260073,1,0
200,72,260501,1,0
300,48,260930,1,0
396,96,261391,1,0
404,208,261853,1,0
328,284,262314,1,0
256,192,263237,21,4
