osu file format v12

[General]
AudioFilename: Turn It Up (Higher).mp3
AudioLeadIn: 500
PreviewTime: 64469
Countdown: 0
SampleSet: Soft
StackLeniency: 0.7
Mode: 0
LetterboxInBreaks: 0
WidescreenStoryboard: 0

[Editor]
Bookmarks: 1728,52126,96012,152240
DistanceSpacing: 1
BeatDivisor: 4
GridSize: 4

[Metadata]
Title:Turn It Up (Higher)
TitleUnicode:Turn It Up (Higher)
Artist:Fox Stevenson
ArtistUnicode:Fox Stevenson
Creator:Kyshiro
Version:Fine
Source:
Tags:Stan SB DnB Drum and bass
BeatmapID:298036
BeatmapSetID:115291

[Difficulty]
HPDrainRate:2
CircleSize:3
OverallDifficulty:2
ApproachRate:3
SliderMultiplier:0.8
SliderTickRate:2

[Events]
//Background and Video events
0,0,"dfghjkl.jpg",0,0
//Break Periods
2,42726,50686
2,86612,94572
//Storyboard Layer 0 (Background)
//Storyboard Layer 1 (Fail)
//Storyboard Layer 2 (Pass)
//Storyboard Layer 3 (Foreground)
//Storyboard Sound Samples
//Background Colour Transformations
3,100,163,162,255

[TimingPoints]
12,342.857142857143,4,2,0,25,1,0
1726,-100,4,2,0,25,0,0
8240,-100,4,2,0,45,0,0
20583,-100,4,1,1,60,0,1
31212,-100,4,1,1,60,0,0
31554,-100,4,1,1,60,0,1
42526,-100,4,2,0,60,0,0
52126,-100,4,1,1,50,0,0
62069,-100,4,2,0,60,0,0
64126,-100,4,2,0,60,0,0
64469,-100,4,1,1,60,0,1
75097,-100,4,1,1,60,0,0
75440,-100,4,1,1,60,0,1
86412,-100,4,2,0,60,0,0
96354,-100,4,1,1,50,0,0
105954,-100,4,2,0,60,0,0
108354,-100,4,1,1,60,0,1
118983,-100,4,1,1,60,0,0
119326,-100,4,1,1,60,0,1
130297,-100,4,1,1,50,0,0

[Colours]
Combo1 : 244,198,55
Combo2 : 19,234,67
Combo3 : 49,164,249
Combo4 : 238,53,100

[HitObjects]
42,207,1726,2,0,P|85:251|177:229,2,160,2|2|2,0:0|0:0|0:0,0:0:0:0:
116,177,3440,2,0,L|178:120,1,80,0|0,0:0|0:0,0:0:0:0:
245,160,4126,2,0,B|270:128|326:117|369:147|385:177|385:177|396:199|410:221|446:228,1,240,2|0,0:0|0:0,0:0:0:0:
463,150,5497,6,0,L|472:25,2,120,2|2|2,0:0|0:0|0:0,0:0:0:0:
357,206,7040,2,0,L|348:331,1,120,2|0,0:0|0:0,0:0:0:0:
192,361,8240,5,0,0:0:0:0:
128,312,8583,2,0,P|72:270|86:177,1,160,0|0,0:0|0:0,0:0:0:0:
94,108,9612,2,0,P|150:150|136:243,1,160,4|2,0:0|0:0,0:0:0:0:
205,284,10640,5,8,0:0:0:0:
273,242,10983,2,0,L|297:82,2,160,0|0|2,0:0|0:0|0:0,0:0:0:0:
322,304,12697,1,8,0:0:0:0:
390,262,13040,6,0,P|440:256|475:276,1,80,0|8,0:0|0:0,0:0:0:0:
422,336,13726,2,0,P|367:338|310:252,2,160,2|0|2,0:0|0:0|0:0,0:0:0:0:
465,268,15440,5,8,0:0:0:0:
492,192,15783,2,0,L|472:71,1,120,2|0,0:0|0:0,0:0:0:0:
402,34,16640,1,0,0:0:0:0:
345,90,16983,2,0,B|281:122|249:90|217:58|153:90,1,200,2|2,0:0|0:0,0:0:0:0:
256,192,18183,12,0,19897,0:0:0:0:
16,124,20583,6,0,P|85:97|220:190,1,240,4|8,0:0|0:0,0:0:0:0:
260,244,21954,2,0,L|289:119,2,120,0|0|8,0:0|0:0|0:0,0:0:0:0:
311,305,23326,5,0,0:0:0:0:
254,361,23669,2,0,P|182:380|115:327,2,160,8|8|8,0:0|0:0|0:0,0:0:0:0:
311,305,25383,2,0,P|319:261|310:221,1,80,0|8,0:0|0:0,0:0:0:0:
269,158,26069,6,0,P|311:200|418:201,1,160,0|0,0:0|0:0,0:0:0:0:
482,234,27097,1,8,0:0:0:0:
505,157,27440,2,0,L|512:67,1,80,0|8,0:0|0:0,0:0:0:0:
430,77,28126,2,0,P|386:46|276:60,1,160,0|0,0:0|0:0,0:0:0:0:
213,92,29154,6,0,P|136:107|67:69,2,160,8|8|8,0:0|0:0|0:0,0:0:0:0:
281,133,30869,1,8,0:0:0:0:
355,103,31212,1,8,0:0:0:0:
429,130,31554,6,0,L|465:294,2,160,4|0|0,0:0|0:0|0:0,0:0:0:0:
355,103,33269,1,8,0:0:0:0:
281,133,33612,1,8,0:0:0:0:
223,77,33954,2,0,P|176:102|71:75,1,160,8|8,0:0|0:0,0:0:0:0:
16,133,34983,6,0,L|34:215,1,80,0|8,0:0|0:0,0:0:0:0:
110,232,35669,2,0,P|175:205|258:240,1,160,0|0,0:0|0:0,0:0:0:0:
307,296,36697,1,8,0:0:0:0:
383,272,37040,6,0,P|406:237|403:193,1,80,0|8,0:0|0:0,0:0:0:0:
326,213,37726,2,0,P|346:143|431:124,2,160,0|0|0,0:0|0:0|0:0,0:0:0:0:
257,253,39440,1,8,0:0:0:0:
190,208,39783,6,0,P|174:176|180:131,1,80,0|8,0:0|0:0,0:0:0:0:
182,52,40469,2,0,P|154:117|83:166,1,160,0|0,0:0|0:0,0:0:0:0:
2,160,41497,1,8,0:0:0:0:
35,232,41840,2,0,P|45:272|27:321,1,80,0|8,0:0|0:0,0:0:0:0:
91,365,42526,1,4,0:0:0:0:
107,235,52126,5,0,0:0:0:0:
175,276,52469,2,0,L|302:264,2,120,2|2|4,2:0|2:0|0:0,0:0:0:0:
107,235,53840,6,0,P|82:175|148:99,1,160,8|8,0:0|0:0,0:0:0:0:
162,177,54869,1,0,0:0:0:0:
215,117,55212,2,0,L|227:28,2,80,8|0|8,0:0|0:0|0:0,0:0:0:0:
287,151,56240,6,0,L|265:313,2,160,0|0|0,0:0|0:0|0:0,0:0:0:0:
347,98,57954,1,8,0:0:0:0:
404,153,58297,2,0,P|440:160|486:140,1,80,0|8,0:0|0:0,0:0:0:0:
433,79,58983,6,0,L|298:183,1,160,0|0,0:0|0:0,0:0:0:0:
237,218,60012,1,8,0:0:0:0:
169,175,60354,2,0,P|155:148|160:100,1,80,0|8,0:0|0:0,0:0:0:0:
226,54,61040,2,0,P|240:81|235:129,1,80,0|8,0:0|0:0,0:0:0:0:
301,173,61726,1,0,0:0:0:0:
256,192,62069,12,0,63783,0:0:0:0:
64,103,64469,6,0,P|114:84|207:133,1,160,4|0,0:0|0:0,0:0:0:0:
278,98,65497,1,8,0:0:0:0:
332,156,65840,2,0,L|344:245,1,80,0|8,0:0|0:0,0:0:0:0:
413,272,66526,2,0,L|402:351,1,80,0|8,0:0|0:0,0:0:0:0:
322,340,67212,6,0,P|247:355|179:302,1,160,0|0,0:0|0:0,0:0:0:0:
104,292,68240,1,8,0:0:0:0:
155,230,68583,2,0,P|157:182|139:154,1,80,0|8,0:0|0:0,0:0:0:0:
63,133,69269,2,0,P|118:155|217:115,1,160,0|0,0:0|0:0,0:0:0:0:
285,98,70297,5,8,0:0:0:0:
347,147,70640,2,0,L|373:267,2,120,0|0|8,0:0|0:0|0:0,0:0:0:0:
285,98,72012,2,0,P|246:136|212:141,1,80,0|8,0:0|0:0,0:0:0:0:
213,61,72697,6,0,P|275:18|349:50,1,160,0|0,0:0|0:0,0:0:0:0:
421,77,73726,2,0,L|436:164,2,80,8|0|8,0:0|0:0|0:0,0:0:0:0:
347,47,74754,2,0,P|337:77|295:108,1,80,8|8,0:0|0:0,0:0:0:0:
268,32,75440,6,0,L|217:195,1,160,4|0,0:0|0:0,0:0:0:0:
150,224,76469,1,8,0:0:0:0:
83,178,76812,2,0,P|70:147|85:97,2,80,0|8|0,0:0|0:0|0:0,0:0:0:0:
150,224,77840,6,0,P|176:286|146:386,2,160,8|8|8,0:0|0:0|0:0,0:0:0:0:
201,163,79554,2,0,P|187:125|198:81,1,80,0|8,0:0|0:0,0:0:0:0:
268,119,80240,2,0,P|320:89|426:117,1,160,0|0,0:0|0:0,0:0:0:0:
483,148,81269,5,8,0:0:0:0:
414,188,81612,2,0,L|394:312,2,120,0|0|8,0:0|0:0|0:0,0:0:0:0:
414,107,82983,2,0,P|377:77|340:75,1,80,0|8,0:0|0:0,0:0:0:0:
276,33,83669,6,0,P|228:68|129:68,1,160,0|0,0:0|0:0,0:0:0:0:
64,113,84697,2,0,P|48:151|59:195,2,80,8|0|8,0:0|0:0|0:0,0:0:0:0:
129,159,85726,2,0,P|147:195|188:215,1,80,8|8,0:0|0:0,0:0:0:0:
256,184,86412,1,4,0:0:0:0:
17,98,96012,6,0,L|20:189,1,80,0|0,0:0|0:0,0:0:0:0:
99,167,96697,2,0,L|165:229,1,80,8|8,1:0|1:0,0:0:0:0:
220,171,97383,6,0,P|301:195|369:159,1,160,4|0,0:0|0:0,0:0:0:0:
424,108,98412,1,8,0:0:0:0:
485,158,98754,2,0,B|510:209|485:235|459:261|485:312,2,160,0|0|0,0:0|0:0|0:0,0:0:0:0:
424,108,100469,6,0,P|354:128|281:85,1,160,8|8,0:0|0:0,0:0:0:0:
216,40,101497,2,0,L|185:126,1,80,0|8,0:0|0:0,0:0:0:0:
116,149,102183,2,0,L|147:235,1,80,0|8,0:0|0:0,0:0:0:0:
218,252,102869,6,0,B|174:320|174:320|98:291,1,160,0|0,0:0|0:0,0:0:0:0:
143,224,103897,1,8,0:0:0:0:
205,173,104240,2,0,P|279:198|296:273,1,160,0|0,0:0|0:0,0:0:0:0:
348,332,105269,1,8,0:0:0:0:
411,283,105612,1,0,0:0:0:0:
256,192,105954,12,0,107669,0:0:0:0:
58,143,108354,6,0,B|139:126|139:126|141:90|177:48|223:43|262:66,1,240,4|8,0:0|0:0,0:0:0:0:
297,132,109726,2,0,P|259:143|221:135,1,80,0|8,0:0|0:0,0:0:0:0:
176,202,110412,1,0,0:0:0:0:
244,243,110754,2,0,P|303:234|397:283,1,160,8|8,0:0|0:0,0:0:0:0:
422,350,111783,6,0,L|445:183,1,160,0|0,0:0|0:0,0:0:0:0:
401,123,112812,1,8,0:0:0:0:
337,171,113154,2,0,P|295:178|254:164,1,80,0|8,0:0|0:0,0:0:0:0:
199,114,113840,6,0,P|125:94|41:137,1,160,0|0,0:0|0:0,0:0:0:0:
12,196,114869,1,8,0:0:0:0:
70,250,115212,2,0,P|85:311|66:369,2,120,0|0|8,0:0|0:0|0:0,0:0:0:0:
130,197,116583,6,0,P|189:230|281:211,1,160,0|0,0:0|0:0,0:0:0:0:
337,161,117612,1,8,0:0:0:0:
406,199,117954,2,0,B|423:236|423:236|423:277,1,80,0|8,0:0|0:0,0:0:0:0:
363,329,118640,2,0,B|346:292|346:292|346:251,1,80,8|8,0:0|0:0,0:0:0:0:
276,213,119326,6,0,P|200:231|130:197,1,160,4|0,0:0|0:0,0:0:0:0:
112,118,120354,2,0,P|112:80|86:40,2,80,8|0|8,0:0|0:0|0:0,0:0:0:0:
34,103,121383,1,0,0:0:0:0:
3,177,121726,2,0,L|37:338,1,160,8|8,0:0|0:0,0:0:0:0:
110,303,122754,6,0,P|158:340|252:303,1,160,0|0,0:0|0:0,0:0:0:0:
316,350,123783,1,8,0:0:0:0:
356,281,124126,2,0,P|426:249|491:289,1,160,0|0,0:0|0:0,0:0:0:0:
422,331,125154,6,0,B|423:211|423:211|404:170,1,160,8|8,0:0|0:0,0:0:0:0:
346,120,126183,1,0,0:0:0:0:
300,185,126526,2,0,P|264:203|224:198,2,80,8|0|8,0:0|0:0|0:0,0:0:0:0:
251,121,127554,6,0,P|173:132|143:210,1,160,0|0,0:0|0:0,0:0:0:0:
72,239,128583,1,8,0:0:0:0:
130,294,128926,2,0,L|217:312,1,80,8|8,0:0|0:0,0:0:0:0:
275,266,129612,2,0,L|362:284,1,80,8|8,0:0|0:0,0:0:0:0:
429,258,130297,6,0,P|465:205|442:112,2,160,4|0|0,2:0|0:0|0:0,0:0:0:0:
353,282,132012,2,0,L|196:249,1,160,8|8,0:0|0:0,0:0:0:0:
127,290,133040,1,0,0:0:0:0:
70,232,133383,6,0,P|56:194|65:152,2,80,8|0|8,0:0|0:0|0:0,0:0:0:0:
137,187,134412,2,0,P|182:149|344:192,1,240,0|8,0:0|0:0,0:0:0:0:
400,245,135783,5,4,0:0:0:0:
345,303,136126,2,0,L|249:312,1,80,8|0,0:0|0:0,0:0:0:0:
210,251,136812,1,8,0:0:0:0:
149,303,137154,2,0,P|135:343|152:394,2,80,0|8|0,0:0|0:0|0:0,0:0:0:0:
210,251,138183,1,8,0:0:0:0:
268,196,138526,6,0,P|285:144|257:87,2,120,0|0|8,0:0|0:0|0:0,0:0:0:0:
204,147,139897,2,0,P|153:178|56:155,1,160,0|8,0:0|0:0,0:0:0:0:
38,80,140926,1,8,0:0:0:0:
89,18,141269,6,0,P|118:71|114:107,1,80,0|8,0:0|0:0,0:0:0:0:
179,140,141954,2,0,P|233:105|333:111,1,160,0|0,0:0|0:0,0:0:0:0:
383,164,142983,1,8,0:0:0:0:
459,141,143326,2,0,L|480:55,1,80,0|8,0:0|0:0,0:0:0:0:
397,59,144012,6,0,L|355:231,1,160,0|0,0:0|0:0,0:0:0:0:
288,252,145040,1,8,0:0:0:0:
220,208,145383,2,0,P|183:199|143:210,1,80,0|8,0:0|0:0,0:0:0:0:
77,163,146069,2,0,P|35:175|0:164,1,80,0|8,0:0|0:0,0:0:0:0:
38,93,146754,6,0,L|40:261,1,160,0|0,0:0|0:0,0:0:0:0:
90,315,147783,1,8,0:0:0:0:
151,264,148126,2,0,P|242:244|304:278,1,160,0|0,0:0|0:0,0:0:0:0:
344,338,149154,1,8,0:0:0:0:
412,297,149497,6,0,L|444:177,2,120,0|0|8,0:0|0:0|0:0,0:0:0:0:
344,338,150869,2,0,P|291:263|228:243,1,160,0|8,0:0|0:0,0:0:0:0:
156,276,151897,1,8,0:0:0:0:
94,225,152240,1,4,0:0:0:0:
