osu file format v12

[General]
AudioFilename: Turn It Up (Higher).mp3
AudioLeadIn: 500
PreviewTime: 64469
Countdown: 0
SampleSet: Normal
StackLeniency: 0.7
Mode: 0
LetterboxInBreaks: 0
WidescreenStoryboard: 0

[Editor]
Bookmarks: 1728,52126,96012,152240
DistanceSpacing: 1.1
BeatDivisor: 4
GridSize: 4

[Metadata]
Title:Turn It Up (Higher)
TitleUnicode:Turn It Up (Higher)
Artist:Fox Stevenson
ArtistUnicode:Fox Stevenson
Creator:Kyshiro
Version:Exquisite
Source:
Tags:Stan SB DnB Drum and bass
BeatmapID:298035
BeatmapSetID:115291

[Difficulty]
HPDrainRate:6
CircleSize:4
OverallDifficulty:6
ApproachRate:8
SliderMultiplier:1.4
SliderTickRate:2

[Events]
//Background and Video events
0,0,"dfghjkl.jpg",0,0
//Break Periods
2,42726,51376
2,86612,95262
//Storyboard Layer 0 (Background)
//Storyboard Layer 1 (Fail)
//Storyboard Layer 2 (Pass)
//Storyboard Layer 3 (Foreground)
//Storyboard Sound Samples
//Background Colour Transformations
3,100,163,162,255

[TimingPoints]
12,342.857142857143,4,2,0,25,1,0
1726,-111.111111111111,4,2,0,25,0,0
8240,-100,4,2,0,45,0,0
20240,-100,4,1,1,60,0,0
20583,-90.9090909090909,4,1,1,60,0,1
31212,-90.9090909090909,4,1,1,60,0,0
31383,-90.9090909090909,4,2,0,80,0,0
31554,-90.9090909090909,4,1,1,60,0,1
42526,-100,4,2,0,60,0,0
52126,-100,4,1,1,50,0,0
62069,-111.111111111111,4,2,0,60,0,0
64126,-100,4,1,1,60,0,0
64469,-90.9090909090909,4,1,1,60,0,1
75097,-90.9090909090909,4,1,1,60,0,0
75269,-90.9090909090909,4,2,0,80,0,0
75440,-90.9090909090909,4,1,1,60,0,1
86412,-100,4,2,0,60,0,0
96183,-100,4,1,1,50,0,0
105954,-111.111111111111,4,2,0,60,0,0
108012,-111.111111111111,4,1,1,60,0,0
108354,-90.9090909090909,4,1,1,60,0,1
118983,-90.9090909090909,4,1,1,60,0,0
119154,-90.9090909090909,4,2,0,80,0,0
119326,-90.9090909090909,4,1,1,60,0,1
130297,-100,4,1,1,50,0,0

[Colours]
Combo1 : 244,198,55
Combo2 : 19,234,67
Combo3 : 49,164,249
Combo4 : 238,53,100

[HitObjects]
37,201,1726,2,0,L|107:213,1,62.9999980773926,2|0,0:0|0:0,0:0:0:0:
164,168,2069,2,0,L|304:144,1,125.999996154785,2|0,0:0|0:0,0:0:0:0:
335,87,2583,1,0,0:0:0:0:
402,120,2754,2,0,P|426:160|406:236,1,125.999996154785,2|0,0:0|0:0,0:0:0:0:
348,280,3269,1,0,0:0:0:0:
279,248,3440,2,0,P|242:243|209:256,1,62.9999980773926,2|0,0:0|0:0,0:0:0:0:
253,317,3783,1,0,0:0:0:0:
361,192,4126,6,0,P|234:159|123:217,2,251.999992309571,2|0|2,0:0|0:0|0:0,0:0:0:0:
455,310,5840,1,0,0:0:0:0:
455,310,6012,2,0,L|474:181,1,125.999996154785,2|0,0:0|0:0,0:0:0:0:
437,118,6526,2,0,P|382:132|308:94,1,125.999996154785,2|0,0:0|0:0,0:0:0:0:
256,148,7040,2,0,P|170:110|79:130,1,188.999994232178,2|0,0:0|0:0,0:0:0:0:
239,305,8240,6,0,L|322:291,1,70,0|8,0:0|0:0,0:0:0:0:
383,331,8583,1,0,0:0:0:0:
434,264,8754,1,0,0:0:0:0:
434,264,8840,1,0,0:0:0:0:
434,264,8926,2,0,P|446:214|402:137,1,140,8|0,0:0|0:0,0:0:0:0:
327,107,9440,1,8,0:0:0:0:
262,161,9612,6,0,P|252:194|266:233,1,70,4|0,0:0|0:0,0:0:0:0:
170,157,9954,2,0,P|180:124|166:85,1,70,8|0,0:0|0:0,0:0:0:0:
94,127,10297,1,0,0:0:0:0:
103,210,10469,1,0,0:0:0:0:
181,239,10640,1,8,0:0:0:0:
252,194,10812,2,0,P|318:179|386:219,1,140,0|0,0:0|0:0,0:0:0:0:
428,279,11326,6,0,L|443:357,1,70,8|0,0:0|0:0,0:0:0:0:
325,374,11669,2,0,L|338:305,1,70,0|0,0:0|0:0,0:0:0:0:
264,264,12012,2,0,L|237:126,1,140,8|0,0:0|0:0,0:0:0:0:
161,90,12526,5,0,0:0:0:0:
80,113,12697,2,0,P|58:149|61:184,1,70,8|0,0:0|0:0,0:0:0:0:
122,230,13040,1,0,0:0:0:0:
196,190,13212,1,0,0:0:0:0:
273,220,13383,1,8,0:0:0:0:
347,180,13555,1,0,0:0:0:0:
425,208,13726,6,0,P|467:281|444:343,2,140,0|8|0,0:0|0:0|0:0,0:0:0:0:
347,180,14583,1,0,0:0:0:0:
273,220,14754,2,0,P|288:272|310:286,1,70,8|0,0:0|0:0,0:0:0:0:
382,284,15097,6,0,L|240:340,1,140,2|8,0:0|0:0,0:0:0:0:
177,376,15612,1,0,0:0:0:0:
146,297,15783,2,0,P|129:264|96:245,1,70,2|0,0:0|0:0,0:0:0:0:
20,224,16126,1,8,0:0:0:0:
20,224,16297,2,0,P|74:233|137:174,1,140,2|0,0:0|0:0,0:0:0:0:
194,120,16812,5,8,0:0:0:0:
270,154,16983,2,0,L|345:159,1,70,2|0,0:0|0:0,0:0:0:0:
394,86,17326,2,0,L|319:81,1,70,0|8,0:0|0:0,0:0:0:0:
315,235,17669,2,0,L|390:240,1,70,0|2,0:0|0:0,0:0:0:0:
256,192,17926,12,8,20240,0:0:0:0:
62,244,20583,6,0,P|108:292|199:280,1,154.000004699707,4|8,0:0|0:0,0:0:0:0:
245,221,21097,1,0,0:0:0:0:
237,136,21269,2,0,P|205:104|164:95,1,77.0000023498536,0|0,0:0|0:0,0:0:0:0:
166,179,21612,2,0,L|323:176,1,154.000004699707,8|0,0:0|0:0,0:0:0:0:
393,133,22126,5,0,0:0:0:0:
460,183,22297,1,8,0:0:0:0:
416,255,22469,2,0,P|366:295|272:271,1,154.000004699707,0|0,0:0|0:0,0:0:0:0:
204,233,22983,2,0,P|254:193|348:217,1,154.000004699707,8|0,0:0|0:0,0:0:0:0:
282,280,23497,5,0,0:0:0:0:
207,320,23669,2,0,P|163:311|133:280,1,77.0000023498536,8|0,0:0|0:0,0:0:0:0:
104,213,24012,2,0,P|113:169|144:139,1,77.0000023498536,0|0,0:0|0:0,0:0:0:0:
209,108,24354,2,0,P|253:117|283:148,1,77.0000023498536,8|0,0:0|0:0,0:0:0:0:
346,184,24697,1,0,0:0:0:0:
401,119,24869,5,0,0:0:0:0:
470,166,25040,2,0,L|477:246,1,77.0000023498536,8|0,0:0|0:0,0:0:0:0:
251,353,25554,1,0,0:0:0:0:
251,353,25726,2,0,L|237:193,1,154.000004699707,8|0,0:0|0:0,0:0:0:0:
170,130,26240,5,0,0:0:0:0:
94,165,26412,2,0,P|78:206|84:239,1,77.0000023498536,8|0,0:0|0:0,0:0:0:0:
163,211,26754,2,0,P|209:241|312:217,1,154.000004699707,0|8,0:0|0:0,0:0:0:0:
368,170,27269,1,0,0:0:0:0:
444,205,27440,6,0,L|465:279,1,77.0000023498536,0|0,0:0|0:0,0:0:0:0:
372,255,27783,1,8,0:0:0:0:
368,170,27954,2,0,P|419:126|507:155,1,154.000004699707,0|0,0:0|0:0,0:0:0:0:
444,205,28469,2,0,P|393:249|305:220,1,154.000004699707,8|0,0:0|0:0,0:0:0:0:
235,261,28983,5,0,0:0:0:0:
177,199,29154,2,0,L|168:121,1,77.0000023498536,8|0,0:0|0:0,0:0:0:0:
249,113,29497,2,0,L|327:104,1,77.0000023498536,0|0,0:0|0:0,0:0:0:0:
335,185,29840,2,0,L|344:263,1,77.0000023498536,8|0,0:0|0:0,0:0:0:0:
263,271,30183,6,0,L|184:280,1,77.0000023498536,0|0,0:0|0:0,0:0:0:0:
179,171,30526,2,0,L|197:95,1,77.0000023498536,8|0,0:0|0:0,0:0:0:0:
276,115,30869,2,0,L|352:133,1,77.0000023498536,8|0,0:0|0:0,0:0:0:0:
332,212,31212,2,0,L|314:288,1,77.0000023498536,8|2,0:0|0:0,0:0:0:0:
223,261,31554,6,0,P|139:249|70:301,1,154.000004699707,4|8,0:0|0:0,0:0:0:0:
6,195,32069,1,0,0:0:0:0:
6,195,32240,2,0,P|46:198|88:185,1,77.0000023498536,0|0,0:0|0:0,0:0:0:0:
139,126,32583,1,8,0:0:0:0:
206,177,32754,1,0,0:0:0:0:
272,124,32926,6,0,P|347:90|411:129,1,154.000004699707,0|8,0:0|0:0,0:0:0:0:
408,220,33440,2,0,P|333:254|269:215,1,154.000004699707,0|0,0:0|0:0,0:0:0:0:
340,173,33954,2,0,L|469:74,1,154.000004699707,8|0,0:0|0:0,0:0:0:0:
400,20,34469,5,0,0:0:0:0:
332,71,34640,2,0,P|282:84|248:72,1,77.0000023498536,8|0,0:0|0:0,0:0:0:0:
192,130,34983,2,0,P|154:123|118:136,1,77.0000023498536,0|0,0:0|0:0,0:0:0:0:
74,208,35326,2,0,L|75:293,1,77.0000023498536,8|0,0:0|0:0,0:0:0:0:
144,333,35669,5,0,0:0:0:0:
184,258,35840,1,0,0:0:0:0:
263,226,36012,1,8,0:0:0:0:
346,237,36183,1,0,0:0:0:0:
398,302,36354,2,0,L|409:383,1,77.0000023498536,0|0,0:0|0:0,0:0:0:0:
495,268,36697,2,0,L|470:90,1,154.000004699707,8|0,0:0|0:0,0:0:0:0:
393,70,37212,5,0,0:0:0:0:
332,132,37383,2,0,P|295:146|255:136,1,77.0000023498536,8|0,0:0|0:0,0:0:0:0:
151,209,37726,2,0,P|188:195|228:205,1,77.0000023498536,0|0,0:0|0:0,0:0:0:0:
191,281,38069,1,8,0:0:0:0:
106,278,38240,1,0,0:0:0:0:
66,202,38412,6,0,L|53:120,2,77.0000023498536,0|0|8,0:0|0:0|0:0,0:0:0:0:
151,209,38926,2,0,L|177:373,1,154.000004699707,0|0,0:0|0:0,0:0:0:0:
254,337,39440,2,0,P|301:362|392:331,1,154.000004699707,8|0,0:0|0:0,0:0:0:0:
405,247,39954,5,0,0:0:0:0:
335,198,40126,2,0,P|318:240|324:278,1,77.0000023498536,8|0,0:0|0:0,0:0:0:0:
405,247,40469,2,0,L|436:177,1,77.0000023498536,0|0,0:0|0:0,0:0:0:0:
392,66,40812,2,0,L|368:140,1,77.0000023498536,8|0,0:0|0:0,0:0:0:0:
303,90,41154,6,0,L|309:7,1,77.0000023498536,0|0,0:0|0:0,0:0:0:0:
203,16,41497,2,0,L|209:90,1,77.0000023498536,8|0,0:0|0:0,0:0:0:0:
144,140,41840,2,0,L|120:66,1,77.0000023498536,0|0,0:0|0:0,0:0:0:0:
76,177,42183,2,0,L|107:247,1,77.0000023498536,0|0,0:0|0:0,0:0:0:0:
223,278,42526,1,4,0:0:0:0:
35,185,52126,5,0,3:0:0:0:
105,230,52297,1,0,3:0:0:0:
172,179,52469,1,2,3:0:0:0:
246,217,52640,1,0,3:0:0:0:
246,217,52726,1,0,3:0:0:0:
246,217,52812,2,0,L|268:294,1,70,0|2,3:0|3:0,3:0:0:0:
340,248,53154,2,0,L|362:325,1,70,0|2,3:0|3:0,3:0:0:0:
429,268,53497,6,0,P|443:206|504:155,1,140,4|8,0:0|0:0,0:0:0:0:
486,73,54012,1,0,0:0:0:0:
412,113,54183,2,0,P|372:121|337:103,1,70,0|0,0:0|0:0,0:0:0:0:
274,155,54526,2,0,P|208:132|141:150,1,140,8|0,0:0|0:0,0:0:0:0:
64,116,55040,5,0,0:0:0:0:
20,188,55212,2,0,L|31:269,1,70,8|0,0:0|0:0,0:0:0:0:
110,290,55554,2,0,L|99:209,1,70,0|0,0:0|0:0,0:0:0:0:
141,150,55897,1,8,0:0:0:0:
212,195,56069,1,0,0:0:0:0:
287,157,56240,6,0,P|321:106|298:27,1,140,0|8,0:0|0:0,0:0:0:0:
240,88,56754,1,0,0:0:0:0:
205,165,56926,2,0,L|234:247,1,70,0|0,0:0|0:0,0:0:0:0:
299,275,57269,1,8,0:0:0:0:
362,221,57440,1,0,0:0:0:0:
434,263,57612,6,0,P|446:303|434:344,2,70,0|0|8,0:0|0:0|0:0,0:0:0:0:
362,221,58126,2,0,P|350:181|362:140,2,70,0|0|0,0:0|0:0|0:0,0:0:0:0:
299,275,58640,2,0,P|311:315|299:356,1,70,8|0,0:0|0:0,0:0:0:0:
226,313,58983,6,0,P|168:345|95:325,1,140,0|8,0:0|0:0,0:0:0:0:
75,247,59497,1,0,0:0:0:0:
140,194,59669,2,0,P|158:239|154:268,1,70,0|0,0:0|0:0,0:0:0:0:
75,247,60012,2,0,P|57:202|61:173,1,70,8|0,0:0|0:0,0:0:0:0:
110,115,60354,6,0,P|165:148|246:129,1,140,0|8,0:0|0:0,0:0:0:0:
303,82,60869,1,0,0:0:0:0:
366,136,61040,2,0,L|376:209,1,70,0|0,0:0|0:0,0:0:0:0:
309,276,61383,2,0,L|299:203,1,70,8|0,0:0|0:0,0:0:0:0:
226,248,61726,1,0,0:0:0:0:
256,192,62069,12,8,64126,0:0:0:0:
42,100,64469,6,0,P|119:77|182:123,1,154.000004699707,4|8,0:0|0:0,0:0:0:0:
220,187,64983,1,0,0:0:0:0:
289,138,65154,2,0,P|302:98|290:60,2,77.0000023498536,0|0|8,0:0|0:0|0:0,0:0:0:0:
333,211,65669,2,0,P|308:285|348:348,1,154.000004699707,0|0,0:0|0:0,0:0:0:0:
398,274,66183,6,0,L|419:191,1,77.0000023498536,8|0,0:0|0:0,0:0:0:0:
373,126,66526,1,0,0:0:0:0:
294,158,66697,1,0,0:0:0:0:
224,108,66869,2,0,P|157:81|87:129,1,154.000004699707,8|0,0:0|0:0,0:0:0:0:
163,165,67383,5,0,0:0:0:0:
201,240,67554,2,0,P|202:283|183:318,1,77.0000023498536,8|0,0:0|0:0,0:0:0:0:
118,262,67897,2,0,P|75:263|40:244,1,77.0000023498536,0|0,0:0|0:0,0:0:0:0:
98,181,68240,2,0,P|97:138|116:103,1,77.0000023498536,8|0,0:0|0:0,0:0:0:0:
181,159,68583,6,0,P|240:177|325:140,1,154.000004699707,0|8,0:0|0:0,0:0:0:0:
371,73,69097,1,0,0:0:0:0:
412,146,69269,2,0,P|418:189|435:220,1,77.0000023498536,0|0,0:0|0:0,0:0:0:0:
504,178,69612,2,0,L|451:336,1,154.000004699707,8|0,0:0|0:0,0:0:0:0:
377,358,70126,5,0,0:0:0:0:
331,287,70297,2,0,P|310:246|272:224,1,77.0000023498536,8|0,0:0|0:0,0:0:0:0:
202,208,70640,2,0,P|254:205|297:108,1,154.000004699707,0|8,0:0|0:0,0:0:0:0:
241,55,71154,2,0,P|189:58|146:155,1,154.000004699707,0|0,0:0|0:0,0:0:0:0:
222,131,71669,5,8,0:0:0:0:
278,190,71840,2,0,L|300:275,1,77.0000023498536,0|0,0:0|0:0,0:0:0:0:
233,320,72183,1,0,0:0:0:0:
182,252,72354,2,0,P|158:218|122:201,1,77.0000023498536,8|0,0:0|0:0,0:0:0:0:
105,282,72697,6,0,P|151:329|235:319,1,154.000004699707,0|8,0:0|0:0,0:0:0:0:
294,260,73212,1,0,0:0:0:0:
361,311,73383,2,0,L|386:395,1,77.0000023498536,0|0,0:0|0:0,0:0:0:0:
439,273,73726,2,0,L|414:189,1,77.0000023498536,8|0,0:0|0:0,0:0:0:0:
309,131,74069,6,0,L|334:215,1,77.0000023498536,0|0,0:0|0:0,0:0:0:0:
383,91,74412,2,0,L|358:7,1,77.0000023498536,8|0,0:0|0:0,0:0:0:0:
277,7,74754,1,8,0:0:0:0:
277,7,74840,1,8,0:0:0:0:
277,7,74926,1,2,3:0:0:0:
203,48,75097,2,0,P|186:93|199:137,1,77.0000023498536,8|2,0:0|0:0,0:0:0:0:
105,128,75440,6,0,L|242:200,1,154.000004699707,4|8,0:0|0:0,0:0:0:0:
312,153,75954,1,0,0:0:0:0:
381,201,76126,2,0,P|398:246|391:285,1,77.0000023498536,0|0,0:0|0:0,0:0:0:0:
313,249,76469,1,8,0:0:0:0:
313,249,76640,2,0,P|271:278|176:254,1,154.000004699707,0|0,0:0|0:0,0:0:0:0:
106,198,77154,6,0,P|148:169|243:193,1,154.000004699707,8|0,0:0|0:0,0:0:0:0:
309,139,77669,1,0,0:0:0:0:
380,184,77840,2,0,P|429:199|464:189,1,77.0000023498536,8|0,0:0|0:0,0:0:0:0:
510,131,78183,6,0,L|471:281,1,154.000004699707,0|8,0:0|0:0,0:0:0:0:
397,322,78697,1,0,0:0:0:0:
324,277,78869,2,0,P|279:263|249:275,1,77.0000023498536,0|0,0:0|0:0,0:0:0:0:
182,320,79212,2,0,P|145:329|110:315,1,77.0000023498536,8|0,0:0|0:0,0:0:0:0:
43,367,79554,6,0,L|97:208,1,154.000004699707,0|8,0:0|0:0,0:0:0:0:
152,159,80069,1,0,0:0:0:0:
216,213,80240,2,0,P|259:218|293:199,1,77.0000023498536,0|0,0:0|0:0,0:0:0:0:
238,134,80583,2,0,P|280:91|267:4,1,154.000004699707,8|0,0:0|0:0,0:0:0:0:
204,58,81097,5,0,0:0:0:0:
344,124,81269,2,0,L|434:127,1,77.0000023498536,8|0,0:0|0:0,0:0:0:0:
502,212,81612,2,0,L|412:209,1,77.0000023498536,0|0,0:0|0:0,0:0:0:0:
359,262,81954,1,8,0:0:0:0:
297,202,82126,2,0,P|230:179|161:228,1,154.000004699707,0|0,0:0|0:0,0:0:0:0:
239,261,82640,5,8,0:0:0:0:
298,321,82812,1,0,0:0:0:0:
359,262,82983,2,0,L|372:184,1,77.0000023498536,0|0,0:0|0:0,0:0:0:0:
507,96,83326,2,0,L|494:174,1,77.0000023498536,8|0,0:0|0:0,0:0:0:0:
421,127,83669,6,0,P|369:146|281:102,1,154.000004699707,0|8,0:0|0:0,0:0:0:0:
217,52,84183,1,0,0:0:0:0:
146,98,84354,2,0,P|128:139|141:180,2,77.0000023498536,0|0|8,0:0|0:0|0:0,0:0:0:0:
214,148,84869,1,0,0:0:0:0:
275,205,85040,6,0,P|293:246|280:287,2,77.0000023498536,0|0|8,0:0|0:0|0:0,0:0:0:0:
207,255,85555,1,0,0:0:0:0:
144,311,85726,2,0,P|126:352|139:393,1,77.0000023498536,8|0,0:0|0:0,0:0:0:0:
213,356,86069,1,8,0:0:0:0:
29,193,86412,1,4,0:0:0:0:
167,126,96012,5,0,0:0:0:0:
230,180,96183,1,8,1:0:0:0:
298,132,96354,2,0,P|310:89|297:53,1,70,0|0,0:0|0:0,0:0:0:0:
230,180,96697,2,0,P|218:223|231:259,1,70,8|0,1:0|0:0,0:0:0:0:
296,290,97040,2,0,P|251:327|162:304,1,140,8|4,1:0|0:0,0:0:0:0:
223,246,97554,5,0,0:0:0:0:
300,208,97726,2,0,L|444:232,1,140,8|0,0:0|0:0,0:0:0:0:
496,170,98240,1,0,0:0:0:0:
469,89,98412,2,0,P|432:74|396:84,1,70,8|0,0:0|0:0,0:0:0:0:
331,36,98754,6,0,P|293:67|203:65,1,140,0|8,0:0|0:0,0:0:0:0:
136,16,99269,1,0,0:0:0:0:
83,81,99440,2,0,L|68:155,1,70,0|0,0:0|0:0,0:0:0:0:
143,245,99783,2,0,L|158:171,1,70,8|0,0:0|0:0,0:0:0:0:
61,263,100126,6,0,P|90:311|175:322,1,140,0|8,0:0|0:0,0:0:0:0:
246,293,100640,1,0,0:0:0:0:
246,293,100726,1,0,0:0:0:0:
246,293,100812,2,0,P|295:288|325:302,1,70,0|0,0:0|0:0,0:0:0:0:
277,370,101154,1,8,0:0:0:0:
197,359,101325,1,0,0:0:0:0:
163,286,101497,6,0,L|175:201,1,70,0|0,0:0|0:3,0:0:0:0:
256,206,101840,2,0,L|244:120,1,70,8|0,0:0|0:3,0:0:0:0:
173,56,102183,2,0,L|161:141,1,70,0|0,0:0|0:0,0:0:0:0:
81,136,102526,2,0,L|92:221,1,70,8|0,0:0|0:0,0:0:0:0:
168,236,102869,6,0,P|239:224|299:274,1,140,0|8,0:0|0:0,0:0:0:0:
218,307,103383,1,0,0:0:0:0:
134,315,103554,2,0,L|58:304,1,70,0|0,0:0|0:0,0:0:0:0:
20,233,103897,1,8,0:0:0:0:
47,153,104069,1,0,0:0:0:0:
128,135,104240,6,0,P|164:168|254:154,1,140,0|8,0:0|0:0,0:0:0:0:
320,116,104754,2,0,P|284:83|194:97,1,140,0|0,0:0|0:0,0:0:0:0:
249,158,105269,1,8,0:0:0:0:
323,197,105440,1,0,0:0:0:0:
394,152,105612,1,0,0:0:0:0:
256,192,105954,12,8,108012,0:0:0:0:
294,89,108354,6,0,P|366:79|425:137,1,154.000004699707,4|8,0:0|0:0,0:0:0:0:
342,160,108869,1,0,0:0:0:0:
257,165,109040,2,0,L|159:147,1,77.0000023498536,0|0,0:0|0:0,0:0:0:0:
110,103,109383,1,8,0:0:0:0:
46,158,109554,2,0,P|28:195|83:293,1,154.000004699707,0|0,0:0|0:0,0:0:0:0:
113,211,110069,5,8,0:0:0:0:
175,268,110240,1,0,0:0:0:0:
241,214,110412,2,0,P|254:169|247:140,1,77.0000023498536,0|0,0:0|0:0,0:0:0:0:
175,268,110754,2,0,P|230:298|311:260,1,154.000004699707,8|0,0:0|0:0,0:0:0:0:
376,211,111269,5,0,0:0:0:0:
452,246,111440,2,0,L|469:333,1,77.0000023498536,8|0,0:0|0:0,0:0:0:0:
376,211,111783,2,0,L|359:124,1,77.0000023498536,0|0,0:0|0:0,0:0:0:0:
302,74,112126,1,8,0:0:0:0:
234,124,112297,1,0,0:0:0:0:
164,75,112469,6,0,P|159:31|177:-3,1,77.0000023498536,0|0,0:0|0:0,0:0:0:0:
234,125,112812,2,0,P|239:169|221:203,1,77.0000023498536,8|0,0:0|0:0,0:0:0:0:
151,239,113154,2,0,P|190:274|284:258,1,154.000004699707,0|8,0:0|0:0,0:0:0:0:
349,203,113669,1,0,0:0:0:0:
423,243,113840,6,0,L|452:324,1,77.0000023498536,0|0,0:0|0:0,0:0:0:0:
382,369,114183,1,8,0:0:0:0:
310,323,114354,1,0,0:0:0:0:
241,373,114526,2,0,P|189:373|161:354,2,77.0000023498536,0|0|8,0:0|0:0|0:0,0:0:0:0:
219,290,115040,2,0,P|197:247|254:147,1,154.000004699707,0|0,0:0|0:0,0:0:0:0:
285,230,115554,5,8,0:0:0:0:
324,154,115726,1,0,0:0:0:0:
283,79,115897,1,0,0:0:0:0:
198,80,116069,1,0,0:0:0:0:
156,152,116240,2,0,P|138:191|105:211,1,77.0000023498536,8|0,0:0|0:0,0:0:0:0:
74,132,116583,6,0,P|124:76|199:81,1,154.000004699707,0|8,0:0|0:0,0:0:0:0:
273,41,117097,1,0,0:0:0:0:
326,106,117269,2,0,P|371:115|412:100,1,77.0000023498536,0|0,0:0|0:0,0:0:0:0:
492,183,117612,2,0,P|447:174|406:189,1,77.0000023498536,8|0,0:0|0:0,0:0:0:0:
268,200,117954,6,0,P|313:209|354:194,1,77.0000023498536,0|0,0:0|0:0,0:0:0:0:
434,277,118297,2,0,P|389:268|348:283,1,77.0000023498536,8|0,0:0|0:0,0:0:0:0:
285,317,118640,1,8,0:0:0:0:
285,317,118726,1,8,0:0:0:0:
285,317,118812,2,0,P|247:325|210:316,2,77.0000023498536,0|8|2,0:0|0:0|0:0,0:0:0:0:
250,239,119326,6,0,P|197:208|185:121,1,154.000004699707,4|8,0:0|0:0,0:0:0:0:
251,69,119840,1,0,0:0:0:0:
319,119,120012,2,0,P|360:132|402:118,2,77.0000023498536,0|0|8,0:0|0:0|0:0,0:0:0:0:
363,46,120526,2,0,P|431:50|476:124,1,154.000004699707,0|0,0:0|0:0,0:0:0:0:
435,191,121040,6,0,L|454:271,1,77.0000023498536,8|0,0:0|0:0,0:0:0:0:
378,357,121383,2,0,L|359:277,1,77.0000023498536,0|0,0:0|0:0,0:0:0:0:
290,233,121726,2,0,P|258:267|148:260,1,154.000004699707,8|0,0:0|0:0,0:0:0:0:
102,200,122240,5,0,0:0:0:0:
105,115,122412,2,0,P|128:79|165:62,1,77.0000023498536,8|0,0:0|0:0,0:0:0:0:
311,44,122754,2,0,P|288:80|251:97,1,77.0000023498536,0|0,0:0|0:0,0:0:0:0:
175,155,123097,1,8,0:0:0:0:
251,193,123269,1,0,0:0:0:0:
332,169,123440,6,0,P|389:148|470:202,2,154.000004699707,0|8|0,0:0|0:0|0:0,0:0:0:0:
304,249,124297,1,0,0:0:0:0:
369,306,124469,2,0,P|389:271|388:234,1,77.0000023498536,8|0,0:0|0:0,0:0:0:0:
304,249,124812,6,0,P|272:203|163:181,1,154.000004699707,0|8,0:0|0:0,0:0:0:0:
121,236,125326,1,0,0:0:0:0:
53,185,125497,2,0,P|39:147|56:98,2,77.0000023498536,0|0|8,0:0|0:0|0:0,0:0:0:0:
121,236,126012,1,0,0:0:0:0:
121,236,126183,6,0,P|143:298|98:370,1,154.000004699707,0|8,0:0|0:0,0:0:0:0:
57,294,126697,1,0,0:0:0:0:
206,240,126869,2,0,L|287:256,1,77.0000023498536,0|0,0:0|0:0,0:0:0:0:
357,157,127212,2,0,L|276:173,1,77.0000023498536,8|0,0:0|0:0,0:0:0:0:
395,232,127554,6,0,P|439:179|419:100,1,154.000004699707,0|8,0:0|0:0,0:0:0:0:
355,46,128069,1,0,0:0:0:0:
294,104,128240,2,0,P|243:116|214:103,2,77.0000023498536,0|0|8,0:0|0:0|0:0,0:0:0:0:
255,27,128754,1,0,0:0:0:0:
172,45,128926,6,0,L|138:117,2,77.0000023498536,8|0|8,0:0|0:0|0:0,0:0:0:0:
87,44,129440,1,0,0:0:0:0:
56,123,129612,2,0,P|72:169|98:188,1,77.0000023498536,8|0,0:0|0:0,0:0:0:0:
157,241,129954,1,8,0:0:0:0:
223,188,130126,1,0,0:0:0:0:
301,218,130297,6,0,P|330:272|307:345,1,140,4|8,2:0|0:0,0:0:0:0:
245,286,130812,1,0,0:0:0:0:
214,208,130983,2,0,L|219:129,1,70,0|0,0:0|0:0,0:0:0:0:
301,52,131326,2,0,L|296:131,1,70,8|0,0:0|0:0,0:0:0:0:
211,66,131669,6,0,P|157:57|91:109,1,140,0|8,0:0|0:0,0:0:0:0:
94,190,132183,2,0,P|144:235|212:229,1,140,0|0,0:0|0:0,0:0:0:0:
172,149,132697,1,8,0:0:0:0:
92,105,132869,1,0,0:0:0:0:
16,155,133040,6,0,L|5:232,2,70,0|0|8,0:0|0:0|0:0,0:0:0:0:
92,105,133554,2,0,P|156:123|223:87,1,140,0|0,0:0|0:0,0:0:0:0:
294,130,134069,1,8,0:0:0:0:
368,90,134240,1,0,0:0:0:0:
434,141,134412,6,0,P|447:187|437:219,1,70,0|0,0:0|0:0,0:0:0:0:
374,281,134754,2,0,P|361:235|371:203,1,70,8|0,0:0|0:0,0:0:0:0:
355,172,135012,2,0,P|313:190|251:175,1,105,8|0,0:0|0:0,0:0:0:0:
147,271,135440,2,0,P|189:253|274:292,1,140,8|4,0:0|0:0,0:0:0:0:
202,336,135954,5,0,0:0:0:0:
119,351,136126,2,0,L|78:205,1,140,8|0,0:0|0:0,0:0:0:0:
125,144,136640,1,0,0:0:0:0:
190,197,136812,2,0,P|228:207|266:192,1,70,8|0,0:0|0:0,0:0:0:0:
331,161,137154,6,0,P|364:152|397:162,1,70,0|0,0:0|0:0,0:0:0:0:
462,216,137497,2,0,L|470:290,2,70,8|0|0,0:0|0:0|0:0,0:0:0:0:
506,143,138012,2,0,L|498:69,2,70,0|8|0,0:0|0:0|0:0,0:0:0:0:
423,124,138526,6,0,P|384:154|292:135,1,140,0|8,0:0|0:0,0:0:0:0:
229,92,139040,2,0,P|268:62|360:81,1,140,0|0,0:0|0:0,0:0:0:0:
359,159,139554,1,8,0:0:0:0:
318,232,139726,1,0,0:0:0:0:
234,232,139897,6,0,L|150:209,1,70,0|0,0:0|0:0,0:0:0:0:
100,317,140240,2,0,L|184:294,1,70,8|0,0:0|0:0,0:0:0:0:
237,345,140583,1,8,0:0:0:0:
237,345,140669,1,8,0:0:0:0:
237,345,140754,1,0,0:0:0:0:
306,297,140926,2,0,P|384:280|447:323,1,140,8|0,0:0|0:0,0:0:0:0:
511,205,141440,5,0,0:0:0:0:
427,215,141612,2,0,L|288:188,1,140,8|0,0:0|0:0,0:0:0:0:
228,129,142126,1,0,0:0:0:0:
156,173,142297,2,0,P|137:218|146:251,1,70,8|0,0:0|0:0,0:0:0:0:
228,129,142640,6,0,P|247:84|238:51,2,70,0|0|8,0:0|0:0|0:0,0:0:0:0:
159,79,143154,2,0,P|108:43|21:69,1,140,0|0,0:0|0:0,0:0:0:0:
86,126,143669,2,0,P|50:177|76:264,1,140,8|0,0:0|0:0,0:0:0:0:
133,199,144183,5,0,0:0:0:0:
199,249,144354,2,0,L|212:320,1,70,8|0,0:0|0:0,0:0:0:0:
315,384,144697,2,0,L|302:313,1,70,0|0,0:0|0:0,0:0:0:0:
370,210,145040,2,0,L|383:281,1,70,8|0,0:0|0:0,0:0:0:0:
454,179,145383,6,0,P|419:135|335:127,1,140,0|8,0:0|0:0,0:0:0:0:
268,80,145897,2,0,P|213:115|131:94,1,140,0|0,0:0|0:0,0:0:0:0:
75,50,146412,1,8,0:0:0:0:
8,100,146583,1,0,0:0:0:0:
56,168,146754,6,0,P|70:206|63:234,1,70,0|0,0:0|0:0,0:0:0:0:
151,203,147097,2,0,P|202:157|291:153,1,140,8|0,0:0|0:0,0:0:0:0:
330,208,147612,1,0,0:0:0:0:
412,192,147783,2,0,P|434:165|439:126,1,70,8|0,0:0|0:0,0:0:0:0:
330,208,148126,6,0,P|308:235|303:274,1,70,0|0,0:0|0:0,0:0:0:0:
386,269,148469,1,8,0:0:0:0:
350,344,148640,2,0,P|283:357|215:292,1,140,0|0,0:0|0:0,0:0:0:0:
175,251,149154,1,8,0:0:0:0:
99,289,149326,1,0,0:0:0:0:
42,227,149497,2,0,L|31:152,1,70,0|0,0:0|0:0,0:0:0:0:
59,78,149840,5,8,0:0:0:0:
131,35,150012,1,0,0:0:0:0:
204,76,150183,2,0,P|229:118|224:155,1,70,0|0,0:0|0:0,0:0:0:0:
303,186,150526,5,8,0:0:0:0:
231,229,150698,1,0,0:0:0:0:
158,188,150869,2,0,P|133:146|138:109,1,70,0|0,0:0|0:0,0:0:0:0:
204,75,151212,5,8,0:0:0:0:
284,99,151384,1,0,0:0:0:0:
355,56,151554,2,0,L|368:20,2,35,8|8|0,0:0|0:0|0:0,0:0:0:0:
415,114,151897,2,0,L|389:186,1,70,8|0,0:0|0:0,0:0:0:0:
461,278,152240,1,4,0:0:0:0:
