osu file format v12

[General]
AudioFilename: Turn It Up (Higher).mp3
AudioLeadIn: 500
PreviewTime: 64469
Countdown: 0
SampleSet: Soft
StackLeniency: 0.7
Mode: 0
LetterboxInBreaks: 0
WidescreenStoryboard: 0

[Editor]
Bookmarks: 1728,152240
DistanceSpacing: 1
BeatDivisor: 4
GridSize: 4

[Metadata]
Title:Turn It Up (Higher)
TitleUnicode:Turn It Up (Higher)
Artist:Fox Stevenson
ArtistUnicode:Fox Stevenson
Creator:Kyshiro
Version:Epic
Source:
Tags:Stan SB DnB Drum and bass
BeatmapID:298034
BeatmapSetID:115291

[Difficulty]
HPDrainRate:7
CircleSize:4
OverallDifficulty:8
ApproachRate:9
SliderMultiplier:1.6
SliderTickRate:2

[Events]
//Background and Video events
0,0,"dfghjkl.jpg",0,0
//Break Periods
//Storyboard Layer 0 (Background)
//Storyboard Layer 1 (Fail)
//Storyboard Layer 2 (Pass)
//Storyboard Layer 3 (Foreground)
//Storyboard Sound Samples
//Background Colour Transformations
3,100,163,162,255

[TimingPoints]
12,342.857142857143,4,2,0,25,1,0
1726,-133.333333333333,4,2,0,25,0,0
8240,-100,4,2,0,45,0,0
20240,-74.0740740740741,4,1,1,55,0,0
20412,-74.0740740740741,4,1,1,5,0,0
20583,-83.3333333333333,4,1,1,60,0,1
31212,-83.3333333333333,4,1,1,60,0,0
31383,-83.3333333333333,4,2,0,80,0,0
31554,-83.3333333333333,4,1,1,60,0,1
42526,-100,4,2,0,45,0,0
52126,-100,4,3,0,75,0,0
53497,-100,4,1,1,50,0,0
62069,-133.333333333333,4,2,0,60,0,0
64126,-100,4,1,1,60,0,0
64469,-83.3333333333333,4,1,1,60,0,1
75097,-83.3333333333333,4,1,1,60,0,0
75269,-83.3333333333333,4,2,0,80,0,0
75440,-83.3333333333333,4,1,1,60,0,1
86412,-100,4,2,0,45,0,0
96183,-100,4,2,1,60,0,0
97383,-100,4,1,1,50,0,0
105954,-133.333333333333,4,2,0,60,0,0
108012,-133.333333333333,4,1,1,60,0,0
108354,-83.3333333333333,4,1,1,60,0,1
118983,-83.3333333333333,4,1,1,60,0,0
119154,-83.3333333333333,4,2,0,80,0,0
119326,-83.3333333333333,4,1,1,60,0,1
130297,-100,4,1,1,50,0,0

[Colours]
Combo1 : 244,198,55
Combo2 : 19,234,67
Combo3 : 49,164,249
Combo4 : 238,53,100

[HitObjects]
80,152,1726,2,0,L|96:220,1,60.0000022888184,2|0,0:0|0:0,0:0:0:0:
172,176,2069,2,0,P|232:216|284:200,1,120.000004577637,2|0,0:0|0:0,0:0:0:0:
344,160,2583,1,0,0:0:0:0:
420,196,2754,2,0,L|448:320,1,120.000004577637,2|0,0:0|0:0,0:0:0:0:
380,364,3269,1,0,0:0:0:0:
304,328,3440,2,0,P|296:296|304:264,1,60.0000022888184,2|0,0:0|0:0,0:0:0:0:
216,196,3783,2,0,P|224:228|216:260,1,60.0000022888184
132,168,4126,6,0,P|200:108|304:194,2,240.000009155274,2|0|2,0:0|0:0|0:0,0:0:0:0:
250,287,5840,1,0,0:0:0:0:
250,287,6012,2,0,L|377:295,1,120.000004577637,2|0,0:0|0:0,0:0:0:0:
445,257,6526,2,0,P|466:213|409:101,2,180.000006866455,2|2|0,0:0|0:0|0:0,0:0:0:0:
209,129,8240,5,0,0:0:0:0:
126,178,8412,1,8,0:0:0:0:
44,127,8583,1,0,0:0:0:0:
44,127,8669,1,0,0:0:0:0:
44,127,8754,2,0,P|33:88|50:45,1,80,0|8,0:0|0:0,0:0:0:0:
126,178,9097,1,0,0:0:0:0:
126,178,9183,1,0,0:0:0:0:
126,178,9269,2,0,P|137:217|120:260,1,80,0|8,0:0|0:0,0:0:0:0:
209,129,9612,6,0,P|277:104|359:162,1,160,4|8,0:0|0:0,0:0:0:0:
273,203,10126,1,0,0:0:0:0:
193,255,10297,2,0,L|104:248,1,80
273,203,10640,1,8,0:0:0:0:
336,275,10812,2,0,P|348:319|331:364,1,80
260,297,11154,6,0,L|423:246,1,160
242,372,11669,2,0,P|207:353|186:317,1,80
230,197,12012,1,8,0:0:0:0:
223,157,12097,1,0,0:0:0:0:
208,120,12183,1,0,0:0:0:0:
183,88,12269,1,0,0:0:0:0:
152,64,12354,6,0,P|114:46|66:51,1,80
98,140,12697,1,8,0:0:0:0:
146,251,12869,1,0,0:0:0:0:
223,157,13040,2,0,L|240:77,1,80
356,234,13383,2,0,L|339:314,1,80,8|0,0:0|0:0,0:0:0:0:
307,163,13726,6,0,P|364:149|439:215,1,160,0|8,0:0|0:0,0:0:0:0:
249,252,14240,1,0,0:0:0:0:
249,252,14326,1,0,0:0:0:0:
249,252,14412,2,0,L|169:235,1,80
55,331,14754,2,0,L|135:314,1,80,8|0,0:0|0:0,0:0:0:0:
218,360,15097,5,2,0:0:0:0:
301,311,15269,1,0,0:0:0:0:
382,360,15440,1,8,0:0:0:0:
465,311,15612,1,0,0:0:0:0:
386,257,15783,2,0,L|307:237,1,80,2|0,0:0|0:0,0:0:0:0:
108,271,16126,2,0,L|187:291,1,80,8|0,0:0|0:0,0:0:0:0:
301,151,16469,6,0,L|222:131,1,80,2|0,0:0|0:0,0:0:0:0:
23,165,16812,2,0,L|102:185,1,80,8|0,0:0|0:0,0:0:0:0:
200,265,17154,1,2,0:0:0:0:
287,223,17326,1,0,0:0:0:0:
366,276,17497,2,0,P|378:323|368:362,1,80,8|0,0:0|0:0,0:0:0:0:
282,316,17840,5,2,0:0:0:0:
255,345,17926,1,0,0:0:0:0:
218,361,18012,1,2,0:0:0:0:
178,360,18097,1,0,0:0:0:0:
142,344,18183,1,2,0:0:0:0:
115,315,18269,1,0,0:0:0:0:
103,277,18354,1,2,0:0:0:0:
106,238,18440,1,0,0:0:0:0:
125,203,18526,2,0,L|178:186,3,40,2|0|2|0,0:0|0:0|0:0|0:0,0:0:0:0:
192,99,18869,2,0,L|139:116,3,40,2|0|2|0,0:0|0:0|0:0|0:0,0:0:0:0:
243,166,19212,6,0,L|295:148,3,40,2|0|2|0,0:0|0:0|0:0|0:0,0:0:0:0:
346,91,19554,2,0,P|361:68|363:48,1,40,2|0,0:0|0:0,0:0:0:0:
384,149,19726,2,0,P|408:137|420:120,1,40,2|0,0:0|0:0,0:0:0:0:
388,219,19897,2,0,P|415:220|434:212,1,40,2|0,0:0|0:0,0:0:0:0:
357,282,20069,2,0,P|380:297|400:299,1,40,2|0,0:0|0:0,0:0:0:0:
293,319,20240,6,0,P|247:289|192:284,1,108.000000411987,8|0,1:0|0:0,0:0:0:0:
54,198,20583,6,0,P|110:217|222:157,1,191.999994140625,4|8,0:0|0:0,0:0:0:0:
119,98,21097,1,0,0:0:0:0:
119,98,21183,1,0,0:0:0:0:
119,98,21269,2,0,L|13:105,1,95.9999970703126
221,159,21612,2,0,L|327:152,1,95.9999970703126,8|0,0:0|0:0,0:0:0:0:
194,84,21954,6,0,P|144:147|211:237,1,191.999994140625,0|8,0:0|0:0,0:0:0:0:
47,354,22469,2,0,P|97:291|30:201,1,191.999994140625
18,279,22983,2,0,L|214:275,1,191.999994140625,8|0,0:0|0:0,0:0:0:0:
308,335,23497,5,0,0:0:0:0:
308,335,23583,1,0,0:0:0:0:
308,335,23669,2,0,P|367:321|405:337,1,95.9999970703126,8|0,0:0|0:0,0:0:0:0:
486,244,24012,2,0,P|427:258|389:242,1,95.9999970703126
440,169,24354,1,8,0:0:0:0:
335,297,24526,1,0,0:0:0:0:
256,154,24697,6,0,P|259:102|299:61,1,95.9999970703126
349,140,25040,1,8,0:0:0:0:
256,282,25212,1,0,0:0:0:0:
180,131,25383,1,0,0:0:0:0:
343,237,25554,1,0,0:0:0:0:
174,228,25726,1,8,0:0:0:0:
267,86,25897,1,0,0:0:0:0:
256,282,26069,6,0,P|180:326|89:276,1,191.999994140625,0|8,0:0|0:0,0:0:0:0:
255,183,26583,1,0,0:0:0:0:
255,183,26669,1,0,0:0:0:0:
255,183,26754,2,0,L|359:173,1,95.9999970703126
174,228,27097,2,0,L|70:238,1,95.9999970703126,8|0,0:0|0:0,0:0:0:0:
0,98,27440,5,0,0:0:0:0:
74,158,27612,1,0,0:0:0:0:
168,141,27783,1,8,0:0:0:0:
209,54,27954,2,0,P|275:27|375:93,1,191.999994140625
168,141,28469,2,0,P|120:96|114:63,1,95.9999970703126,8|0,0:0|0:0,0:0:0:0:
280,130,28812,5,0,0:0:0:0:
326,213,28983,1,0,0:0:0:0:
269,290,29154,2,0,L|171:284,1,95.9999970703126,8|0,0:0|0:0,0:0:0:0:
280,130,29497,2,0,L|378:136,1,95.9999970703126
326,213,29840,2,0,L|228:207,1,95.9999970703126,8|0,0:0|0:0,0:0:0:0:
337,53,30183,6,0,L|435:59,1,95.9999970703126
269,290,30526,2,0,L|171:284,1,95.9999970703126,8|0,0:0|0:0,0:0:0:0:
243,138,30869,1,0,0:0:0:0:
261,134,30954,1,8,0:0:0:0:
280,130,31040,2,0,L|378:136,1,95.9999970703126,0|8,0:0|0:0,0:0:0:0:
282,225,31383,1,2,0:0:0:0:
163,187,31554,6,0,P|149:117|238:44,1,191.999994140625,4|8,0:0|0:0,0:0:0:0:
282,225,32069,1,0,0:0:0:0:
282,225,32154,1,0,0:0:0:0:
282,225,32240,2,0,P|335:235|374:212,1,95.9999970703126
163,187,32583,2,0,P|110:177|71:200,1,95.9999970703126,8|0,0:0|0:0,0:0:0:0:
347,290,32926,5,0,0:0:0:0:
413,142,33097,1,0,0:0:0:0:
246,164,33269,1,8,0:0:0:0:
423,237,33440,1,0,0:0:0:0:
320,104,33612,1,0,0:0:0:0:
262,253,33783,1,0,0:0:0:0:
413,142,33954,2,0,P|426:85|410:50,1,95.9999970703126,8|0,0:0|0:0,0:0:0:0:
297,6,34297,6,0,P|216:48|106:23,1,191.999994140625,0|8,0:0|0:0,0:0:0:0:
20,91,34812,1,0,0:0:0:0:
120,144,34983,2,0,P|151:192|151:236,1,95.9999970703126
255,281,35326,2,0,P|256:243|287:195,1,95.9999970703126,8|0,0:0|0:0,0:0:0:0:
341,298,35669,6,0,P|298:358|188:339,1,191.999994140625,0|8,0:0|0:0,0:0:0:0:
154,232,36183,1,0,0:0:0:0:
258,188,36354,2,0,P|266:242|251:289,1,95.9999970703126
154,232,36697,2,0,P|146:178|161:129,1,95.9999970703126,8|0,0:0|0:0,0:0:0:0:
253,76,37040,6,0,P|314:129|421:113,1,191.999994140625,0|8,0:0|0:0,0:0:0:0:
354,18,37554,1,0,0:0:0:0:
222,154,37726,2,0,L|150:230,1,95.9999970703126
450,289,38069,2,0,L|416:193,1,95.9999970703126,8|0,0:0|0:0,0:0:0:0:
242,257,38412,5,0,0:0:0:0:
353,282,38583,1,0,0:0:0:0:
321,171,38754,1,8,0:0:0:0:
207,148,38926,2,0,P|142:204|145:314,1,191.999994140625
321,171,39440,2,0,P|386:115|383:5,1,191.999994140625,8|0,0:0|0:0,0:0:0:0:
281,60,39954,5,0,0:0:0:0:
418,194,40126,2,0,L|512:173,1,95.9999970703126,8|0,0:0|0:0,0:0:0:0:
281,60,40469,2,0,L|187:81,1,95.9999970703126
153,291,40812,1,8,0:0:0:0:
244,261,40983,1,0,0:0:0:0:
244,165,41154,5,0,0:0:0:0:
152,135,41326,1,0,0:0:0:0:
244,261,41497,2,0,P|293:249|327:213,1,95.9999970703126,8|0,0:0|0:0,0:0:0:0:
96,213,41840,1,0,0:0:0:0:
96,213,41926,1,0,0:0:0:0:
96,213,42012,1,0,0:0:0:0:
244,165,42183,2,0,L|332:112,1,95.9999970703126,8|0,0:0|0:0,0:0:0:0:
501,113,42526,6,0,P|474:185|388:212,1,160,4|8,0:0|0:0,0:0:0:0:
337,285,43040,1,0,0:0:0:0:
258,229,43212,1,2,0:0:0:0:
182,288,43383,1,0,0:0:0:0:
182,288,43469,1,0,0:0:0:0:
182,288,43554,2,0,P|174:342|190:374,1,80,8|0,0:0|0:0,0:0:0:0:
258,229,43897,6,0,P|266:175|250:143,1,80
111,202,44240,2,0,L|193:194,1,80,8|0,0:0|0:0,0:0:0:0:
325,108,44583,2,0,L|161:124,1,160,2|8,0:0|0:0,0:0:0:0:
72,98,45097,1,0,0:0:0:0:
72,98,45183,1,0,0:0:0:0:
72,98,45269,2,0,P|51:62|52:21,1,80
145,41,45612,5,8,0:0:0:0:
225,92,45783,1,2,0:0:0:0:
240,128,45869,1,0,0:0:0:0:
239,168,45954,1,2,0:0:0:0:
221,203,46040,1,0,0:0:0:0:
190,228,46126,1,0,0:0:0:0:
142,143,46297,1,8,0:0:0:0:
308,85,46469,1,0,0:0:0:0:
275,257,46640,6,0,P|291:297|327:322,1,80
372,238,46983,1,8,0:0:0:0:
190,228,47154,1,0,0:0:0:0:
190,228,47240,1,0,0:0:0:0:
190,228,47326,2,0,L|105:246,1,80,2|0,0:0|0:0,0:0:0:0:
295,254,47669,2,0,L|380:236,1,80,8|0,0:0|0:0,0:0:0:0:
190,228,48012,6,0,L|24:262,1,160,0|8,0:0|0:0,0:0:0:0:
3,351,48526,1,0,0:0:0:0:
94,380,48697,1,2,0:0:0:0:
187,357,48869,1,0,0:0:0:0:
187,357,48954,1,0,0:0:0:0:
187,357,49040,2,0,P|225:312|231:282,1,80,8|0,0:0|0:0,0:0:0:0:
257,200,49383,6,0,P|268:301|324:335,1,160,0|8,0:0|0:0,0:0:0:0:
345,241,49897,2,0,P|334:140|278:106,1,160
196,128,50412,2,0,L|111:127,1,80,8|0,0:0|0:0,0:0:0:0:
48,70,50754,5,0,0:0:0:0:
131,207,50926,1,0,0:0:0:0:
131,207,51012,1,0,0:0:0:0:
131,207,51097,2,0,P|141:256|131:295,1,80,8|0,0:0|0:0,0:0:0:0:
225,197,51440,1,2,0:0:0:0:
245,163,51526,1,0,0:0:0:0:
278,140,51612,1,2,0:0:0:0:
316,131,51697,1,0,0:0:0:0:
356,138,51783,1,8,0:0:0:0:
317,226,51954,1,0,0:0:0:0:
183,117,52126,6,0,P|180:69|195:38,1,80
317,226,52469,1,2,0:0:0:0:
265,306,52640,1,0,0:0:0:0:
230,324,52726,1,0,0:0:0:0:
190,327,52812,1,0,0:0:0:0:
152,316,52897,1,0,0:0:0:0:
121,290,52983,1,2,0:0:0:0:
205,228,53154,2,0,L|246:210,1,40,0|2,0:0|0:0,0:0:0:0:
134,177,53326,2,0,L|93:195,1,40,0|2,0:0|0:0,0:0:0:0:
205,228,53497,6,0,P|221:175|162:95,1,160,4|8,0:0|0:0,0:0:0:0:
73,60,54012,1,0,0:0:0:0:
73,60,54097,1,0,0:0:0:0:
73,60,54183,2,0,L|242:41,1,160,0|8,0:0|0:0,0:0:0:0:
319,1,54697,1,0,0:0:0:0:
393,62,54869,6,0,P|407:105|398:147,1,80
309,222,55212,2,0,P|295:179|304:137,1,80,8|0,0:0|0:0,0:0:0:0:
391,246,55554,1,0,0:0:0:0:
371,280,55640,1,0,0:0:0:0:
337,301,55726,1,0,0:0:0:0:
298,305,55812,1,0,0:0:0:0:
261,291,55897,1,8,0:0:0:0:
193,222,56069,1,0,0:0:0:0:
110,270,56240,6,0,P|94:317|109:366,1,80
193,222,56583,2,0,P|209:175|194:126,1,80,8|0,0:0|0:0,0:0:0:0:
111,171,56926,1,0,0:0:0:0:
291,209,57097,1,0,0:0:0:0:
291,209,57183,1,0,0:0:0:0:
291,209,57269,2,0,L|378:191,1,80,8|0,0:0|0:0,0:0:0:0:
427,115,57612,5,0,0:0:0:0:
338,2,57783,1,0,0:0:0:0:
283,134,57954,1,8,0:0:0:0:
415,32,58126,1,0,0:0:0:0:
272,52,58297,1,0,0:0:0:0:
359,166,58469,1,0,0:0:0:0:
272,52,58640,2,0,P|232:37|185:47,1,80,8|0,0:0|0:0,0:0:0:0:
94,170,58983,6,0,P|157:176|225:114,1,160,0|8,0:0|0:0,0:0:0:0:
134,81,59497,1,0,0:0:0:0:
134,81,59583,1,0,0:0:0:0:
134,81,59669,2,0,L|45:78,1,80
251,209,60012,2,0,L|340:212,1,80,8|0,0:0|0:0,0:0:0:0:
511,241,60354,6,0,P|462:296|377:284,1,160,0|8,0:0|0:0,0:0:0:0:
294,329,60869,1,0,0:0:0:0:
294,329,60954,1,0,0:0:0:0:
294,329,61040,2,0,P|238:315|204:330,1,80
48,227,61383,1,8,0:0:0:0:
43,324,61554,1,0,0:0:0:0:
129,282,61726,1,0,0:0:0:0:
311,219,62069,6,0,L|382:223,1,60.0000022888184,2|0,0:0|0:0,0:0:0:0:
312,142,62412,2,0,L|170:134,1,120.000004577637,2|2,0:0|0:0,0:0:0:0:
110,154,62926,1,0,0:0:0:0:
67,225,63097,2,0,P|63:270|77:294,1,60.0000022888184,2|0,0:0|0:0,0:0:0:0:
140,326,63440,1,2,0:0:0:0:
202,269,63612,1,0,0:0:0:0:
268,320,63783,2,0,P|280:354|272:382,1,60.0000022888184,2|0,0:0|0:0,0:0:0:0:
203,269,64126,6,0,P|187:225|197:189,1,80,8|0,0:0|0:0,0:0:0:0:
285,154,64469,6,0,P|191:170|118:102,1,191.999994140625,4|8,0:0|0:0,0:0:0:0:
224,56,64983,2,0,P|318:40|391:108,1,191.999994140625
385,214,65497,1,8,0:0:0:0:
285,154,65669,5,0,0:0:0:0:
285,154,65754,1,0,0:0:0:0:
285,154,65840,2,0,P|267:113|281:64,1,95.9999970703126
385,214,66183,2,0,P|403:255|389:304,1,95.9999970703126,8|0,0:0|0:0,0:0:0:0:
232,243,66526,2,0,L|328:261,1,95.9999970703126
349,110,66869,2,0,L|157:74,1,191.999994140625,8|0,0:0|0:0,0:0:0:0:
59,131,67383,5,0,0:0:0:0:
59,131,67469,1,0,0:0:0:0:
59,131,67554,2,0,P|48:191|71:230,1,95.9999970703126,8|0,0:0|0:0,0:0:0:0:
245,260,67897,1,0,0:0:0:0:
130,173,68069,1,0,0:0:0:0:
112,315,68240,1,8,0:0:0:0:
212,183,68412,1,0,0:0:0:0:
80,239,68583,6,0,P|35:283|31:319,1,95.9999970703126
196,326,68926,2,0,P|256:343|289:328,1,95.9999970703126,8|0,0:0|0:0,0:0:0:0:
212,183,69269,2,0,P|198:127|66:122,1,191.999994140625,0|8,0:0|0:0,0:0:0:0:
245,260,69783,5,0,0:0:0:0:
245,260,69869,1,0,0:0:0:0:
245,260,69954,2,0,L|340:268,1,95.9999970703126
196,326,70297,2,0,L|101:318,1,95.9999970703126,8|0,0:0|0:0,0:0:0:0:
11,176,70640,1,0,0:0:0:0:
92,219,70812,1,0,0:0:0:0:
172,174,70983,1,8,0:0:0:0:
178,82,71154,1,0,0:0:0:0:
104,27,71326,6,0,L|3:18,1,95.9999970703126,0|0,0:0|0:0,0:0:0:0:
173,174,71669,2,0,L|274:183,1,95.9999970703126,8|0,0:0|0:0,0:0:0:0:
277,87,72012,1,0,0:0:0:0:
220,261,72183,1,0,0:0:0:0:
398,225,72354,2,0,P|418:178|408:135,1,95.9999970703126,8|0,0:0|0:0,0:0:0:0:
381,43,72697,6,0,P|415:142|505:174,1,191.999994140625,0|8,0:0|0:0,0:0:0:0:
446,314,73212,1,0,0:0:0:0:
326,351,73383,2,0,L|220:340,1,95.9999970703126
116,189,73726,2,0,L|222:200,1,95.9999970703126,8|0,0:0|0:0,0:0:0:0:
349,74,74069,6,0,L|253:64,1,95.9999970703126
369,217,74412,2,0,L|464:226,1,95.9999970703126,8|0,0:0|0:0,0:0:0:0:
295,150,74754,1,8,0:0:0:0:
273,192,74840,1,8,0:0:0:0:
273,240,74926,1,2,3:0:0:0:
295,282,75012,1,0,0:0:0:0:
333,311,75097,2,0,P|383:317|432:292,1,95.9999970703126,8|2,0:0|0:0,0:0:0:0:
273,192,75440,6,0,P|189:178|110:247,1,191.999994140625,4|8,0:0|0:0,0:0:0:0:
74,331,75954,1,0,0:0:0:0:
19,251,76126,2,0,L|8:153,1,95.9999970703126
92,31,76469,1,8,0:0:0:0:
162,95,76640,1,0,0:0:0:0:
257,103,76812,5,0,0:0:0:0:
338,53,76983,2,0,P|401:34|503:104,1,191.999994140625
372,229,77497,2,0,P|372:180|403:142,1,95.9999970703126
466,214,77840,2,0,L|276:244,1,191.999994140625,8|0,0:0|0:0,0:0:0:0:
187,206,78354,5,0,0:0:0:0:
187,206,78440,1,0,0:0:0:0:
187,206,78526,2,0,P|162:162|166:118,1,95.9999970703126,8|0,0:0|0:0,0:0:0:0:
100,226,78869,2,0,P|104:270|79:314,1,95.9999970703126
14,251,79212,1,8,0:0:0:0:
151,351,79383,1,0,0:0:0:0:
301,266,79554,6,0,L|338:171,1,95.9999970703126
185,87,79897,2,0,L|219:176,1,95.9999970703126,8|0,0:0|0:0,0:0:0:0:
245,33,80240,2,0,P|169:10|105:91,1,191.999994140625,0|8,0:0|0:0,0:0:0:0:
219,176,80754,1,0,0:0:0:0:
309,141,80926,6,0,P|339:103|336:54,1,95.9999970703126
220,176,81269,2,0,P|192:214|193:263,1,95.9999970703126,8|0,0:0|0:0,0:0:0:0:
286,242,81612,2,0,L|413:226,1,95.9999970703126
430,147,81954,1,8,0:0:0:0:
333,142,82126,6,0,L|132:167,1,191.999994140625
51,133,82640,2,0,P|29:83|40:39,1,95.9999970703126,8|0,0:0|0:0,0:0:0:0:
142,166,82983,2,0,P|164:216|153:260,1,95.9999970703126
74,222,83326,1,8,0:0:0:0:
114,76,83497,1,0,0:0:0:0:
253,142,83669,6,0,P|330:152|401:68,1,191.999994140625,0|8,0:0|0:0,0:0:0:0:
304,60,84183,1,0,0:0:0:0:
312,232,84354,2,0,L|315:329,1,95.9999970703126
512,235,84697,2,0,L|438:174,1,95.9999970703126,8|0,0:0|0:0,0:0:0:0:
74,174,85040,6,0,L|0:235,1,95.9999970703126
197,327,85383,2,0,L|200:232,1,95.9999970703126,8|0,0:0|0:0,0:0:0:0:
95,344,85726,1,8,0:0:0:0:
142,349,85812,1,8,0:0:0:0:
190,354,85897,1,0,0:0:0:0:
238,359,85983,1,0,0:0:0:0:
285,364,86069,2,0,P|332:340|349:294,1,95.9999970703126,8|0,0:0|0:0,0:0:0:0:
407,225,86412,6,0,P|325:208|262:260,1,160,4|8,0:0|0:0,0:0:0:0:
348,301,86926,1,0,0:0:0:0:
443,314,87097,2,0,L|512:250,1,80,2|0,0:0|0:0,0:0:0:0:
407,225,87440,2,0,L|462:45,1,160,8|0,0:0|0:0,0:0:0:0:
376,15,87954,5,0,0:0:0:0:
290,59,88126,2,0,P|271:103|285:143,1,80,8|0,0:0|0:0,0:0:0:0:
260,246,88469,2,0,P|232:189|136:171,1,160,2|8,0:0|0:0,0:0:0:0:
168,261,88983,1,0,0:0:0:0:
242,320,89154,6,0,L|328:322,1,80
168,261,89497,2,0,L|82:259,1,80,8|0,0:0|0:0,0:0:0:0:
9,145,89840,1,2,0:0:0:0:
96,184,90012,1,0,0:0:0:0:
188,159,90183,1,8,0:0:0:0:
236,76,90354,1,0,0:0:0:0:
164,35,90526,6,0,L|306:114,1,160,0|8,0:0|0:0,0:0:0:0:
377,174,91040,1,0,0:0:0:0:
447,108,91212,2,0,P|455:58|431:22,1,80,2|0,0:0|0:0,0:0:0:0:
377,174,91554,2,0,P|369:224|393:260,1,80,8|0,0:0|0:0,0:0:0:0:
476,262,91897,6,0,P|430:331|347:339,1,160,0|8,0:0|0:0,0:0:0:0:
296,267,92412,1,0,0:0:0:0:
210,309,92583,2,0,P|192:348|196:384,1,80,2|0,0:0|0:0,0:0:0:0:
129,281,92926,2,0,P|123:218|30:166,1,160,8|0,0:0|0:0,0:0:0:0:
37,261,93440,5,0,0:0:0:0:
210,309,93612,1,8,0:0:0:0:
280,244,93783,2,0,P|295:204|290:164,1,80,0|2,0:0|0:0,0:0:0:0:
200,198,94126,1,0,0:0:0:0:
225,105,94297,2,0,L|384:166,1,160,8|0,0:0|0:0,0:0:0:0:
461,119,94812,5,0,0:0:0:0:
501,205,94983,2,0,P|501:258|479:285,1,80,8|0,0:0|0:0,0:0:0:0:
319,308,95326,1,2,0:0:0:0:
245,246,95497,1,0,0:0:0:0:
163,296,95669,2,0,P|149:338|160:378,1,80,8|0,0:0|0:0,0:0:0:0:
245,246,96012,5,0,0:0:0:0:
159,203,96183,2,0,P|106:217|81:251,2,80,8|0|0,1:0|0:0|0:0,0:0:0:0:
275,147,96697,2,0,L|367:163,1,80,8|0,1:0|0:0,0:0:0:0:
160,203,97040,2,0,L|68:187,1,80,8|0,1:0|0:0,0:0:0:0:
193,132,97383,6,0,P|238:205|196:273,1,160,4|8,0:0|0:0,0:0:0:0:
314,211,97897,1,0,0:0:0:0:
314,211,97983,1,0,0:0:0:0:
314,211,98069,2,0,P|371:201|405:218,1,80
356,298,98412,1,8,0:0:0:0:
264,325,98583,1,0,0:0:0:0:
183,273,98754,6,0,L|160:191,1,80
266,116,99097,2,0,L|244:193,1,80,8|0,0:0|0:0,0:0:0:0:
208,60,99440,1,0,0:0:0:0:
241,39,99525,1,0,0:0:0:0:
281,36,99611,1,0,0:0:0:0:
317,53,99697,1,0,0:0:0:0:
341,84,99783,2,0,P|348:136|332:165,1,80,8|0,0:0|0:0,0:0:0:0:
432,163,100126,6,0,L|285:228,1,160,0|8,0:0|0:0,0:0:0:0:
189,217,100640,1,0,0:0:0:0:
189,217,100726,1,0,0:0:0:0:
189,217,100812,2,0,P|166:177|172:134,1,80
118,81,101154,1,8,0:0:0:0:
244,164,101326,1,0,0:0:0:0:
252,16,101497,5,0,0:0:0:0:
156,159,101669,1,0,0:3:0:0:
291,91,101841,1,8,0:0:0:0:
166,10,102012,1,0,0:3:0:0:
291,91,102183,2,0,P|344:99|377:79,1,80
118,81,102526,2,0,P|65:73|32:93,1,80,8|0,0:0|0:0,0:0:0:0:
177,175,102869,6,0,L|223:18,1,160,0|8,0:0|0:0,0:0:0:0:
95,164,103383,1,0,0:0:0:0:
95,164,103469,1,0,0:0:0:0:
95,164,103554,2,0,L|72:242,1,80
205,317,103897,1,8,0:0:0:0:
286,265,104069,1,0,0:0:0:0:
372,305,104240,6,0,P|392:355|386:382,1,80
293,357,104583,1,8,0:0:0:0:
286,265,104754,2,0,P|332:218|435:233,1,160
293,357,105269,2,0,L|202:341,1,80,8|0,0:0|0:0,0:0:0:0:
159,264,105612,1,0,0:0:0:0:
348,104,105954,6,0,P|360:142|352:171,1,60.0000022888184,2|0,0:0|0:0,0:0:0:0:
422,201,106297,2,0,L|287:220,1,120.000004577637,2|2,0:0|0:0,0:0:0:0:
238,163,106812,1,0,0:0:0:0:
175,218,106983,2,0,P|164:258|175:287,1,60.0000022888184,2|0,0:0|0:0,0:0:0:0:
243,313,107326,2,0,L|308:308,1,60.0000022888184,2|0,0:0|0:0,0:0:0:0:
94,275,107669,2,0,L|29:280,1,60.0000022888184,2|0,0:0|0:0,0:0:0:0:
0,180,108012,1,8,0:0:0:0:
256,34,108354,6,0,P|301:80|271:205,1,191.999994140625,4|8,0:0|0:0,0:0:0:0:
217,123,108869,1,0,0:0:0:0:
387,181,109040,2,0,L|498:170,1,95.9999970703126
459,264,109383,1,8,0:0:0:0:
363,263,109554,2,0,P|309:217|345:105,1,191.999994140625
170,9,110069,6,0,P|224:55|188:167,1,191.999994140625,8|0,0:0|0:0,0:0:0:0:
32,203,110583,1,0,0:0:0:0:
54,111,110754,2,0,L|158:89,1,95.9999970703126,8|0,0:0|0:0,0:0:0:0:
275,192,111097,5,0,0:0:0:0:
348,253,111269,1,0,0:0:0:0:
439,220,111441,1,8,0:0:0:0:
455,125,111611,1,0,0:0:0:0:
378,66,111783,2,0,L|282:73,1,95.9999970703126
163,278,112126,2,0,L|259:271,1,95.9999970703126,8|0,0:0|0:0,0:0:0:0:
414,163,112469,6,0,L|318:170,1,95.9999970703126
199,375,112812,2,0,L|295:368,1,95.9999970703126,8|0,0:0|0:0,0:0:0:0:
462,284,113154,1,0,0:0:0:0:
378,331,113326,1,0,0:0:0:0:
301,273,113497,2,0,P|293:223|319:181,1,95.9999970703126,8|0,0:0|0:0,0:0:0:0:
404,151,113840,6,0,L|199:159,1,191.999994140625,0|8,0:0|0:0,0:0:0:0:
119,133,114354,1,0,0:0:0:0:
119,133,114440,1,0,0:0:0:0:
119,133,114526,2,0,P|101:78|114:39,1,95.9999970703126
199,82,114869,1,8,0:0:0:0:
206,176,115040,2,0,P|147:226|45:196,1,191.999994140625
119,133,115554,5,8,0:0:0:0:
221,270,115726,2,0,L|282:351,1,95.9999970703126
10,375,116069,2,0,L|54:277,1,95.9999970703126,0|8,0:0|0:0,0:0:0:0:
127,202,116412,1,0,0:0:0:0:
221,270,116583,6,0,P|278:280|325:252,1,95.9999970703126
262,181,116926,1,8,0:0:0:0:
185,335,117097,1,0,0:0:0:0:
358,326,117269,1,0,0:0:0:0:
178,236,117440,1,0,0:0:0:0:
273,380,117611,1,8,0:0:0:0:
352,225,117783,1,0,0:0:0:0:
185,334,117954,6,0,P|139:330|98:295,1,95.9999970703126
352,226,118297,2,0,P|398:230|439:265,1,95.9999970703126,8|0,0:0|0:0,0:0:0:0:
259,278,118640,1,8,0:0:0:0:
232,238,118725,1,8,0:0:0:0:
223,191,118811,1,0,0:0:0:0:
234,145,118897,1,0,0:0:0:0:
262,106,118983,2,0,P|308:83|361:87,1,95.9999970703126,8|2,0:0|0:0,0:0:0:0:
232,238,119326,6,0,P|174:266|63:215,1,191.999994140625,4|8,0:0|0:0,0:0:0:0:
159,151,119840,1,0,0:0:0:0:
274,141,120012,2,0,L|352:209,1,95.9999970703126
421,116,120354,1,8,0:0:0:0:
332,41,120526,2,0,P|257:26|167:96,1,191.999994140625
346,204,121040,6,0,P|404:211|448:189,1,95.9999970703126,8|0,0:0|0:0,0:0:0:0:
215,144,121383,2,0,P|157:137|113:159,1,95.9999970703126
228,251,121726,2,0,L|338:86,1,191.999994140625,8|0,0:0|0:0,0:0:0:0:
492,65,122240,5,0,0:0:0:0:
492,65,122326,1,0,0:0:0:0:
492,65,122412,1,8,0:0:0:0:
512,157,122583,1,0,0:0:0:0:
478,245,122754,1,0,0:0:0:0:
400,299,122926,1,0,0:0:0:0:
306,300,123097,2,0,L|206:275,1,95.9999970703126,8|0,0:0|0:0,0:0:0:0:
145,102,123440,6,0,L|245:127,1,95.9999970703126
393,232,123783,2,0,L|293:207,1,95.9999970703126,8|0,0:0|0:0,0:0:0:0:
232,34,124126,2,0,L|332:59,1,95.9999970703126
192,210,124469,1,8,0:0:0:0:
147,227,124554,1,0,0:0:0:0:
100,223,124640,1,0,0:0:0:0:
59,199,124726,1,0,0:0:0:0:
32,159,124812,6,0,P|29:107|53:62,1,95.9999970703126
291,165,125154,1,8,0:0:0:0:
245,8,125326,1,0,0:0:0:0:
132,127,125497,1,0,0:0:0:0:
313,73,125669,1,0,0:0:0:0:
154,34,125841,1,8,0:0:0:0:
291,165,126012,6,0,P|379:141|405:51,1,191.999994140625,0|0,0:0|0:0,0:0:0:0:
104,74,126526,1,8,0:0:0:0:
64,160,126697,1,0,0:0:0:0:
74,254,126868,1,0,0:0:0:0:
132,329,127040,1,0,0:0:0:0:
220,364,127211,1,8,0:0:0:0:
314,347,127383,1,0,0:0:0:0:
389,285,127554,6,0,P|400:236|376:193,1,95.9999970703126
123,99,127897,2,0,P|112:148|136:191,1,95.9999970703126,8|0,0:0|0:0,0:0:0:0:
349,59,128240,2,0,P|300:48|257:72,1,95.9999970703126
163,325,128583,2,0,P|212:336|255:312,1,95.9999970703126,8|0,0:0|0:0,0:0:0:0:
357,155,128926,6,0,L|349:55,1,95.9999970703126
293,293,129269,2,0,L|388:285,1,95.9999970703126
155,229,129612,2,0,L|162:324,1,95.9999970703126
219,91,129955,2,0,L|123:98,1,95.9999970703126
155,229,130297,6,0,P|217:267|298:242,1,160
367,150,130812,1,0,0:0:0:0:
367,150,130897,1,0,0:0:0:0:
367,150,130983,2,0,P|371:106|357:74,1,80
249,144,131326,2,0,P|245:188|258:219,1,80
339,270,131669,6,0,P|283:311|190:285,1,160,0|8,0:0|0:0,0:0:0:0:
129,227,132183,1,0,0:0:0:0:
58,292,132354,2,0,L|46:372,1,80
129,227,132697,2,0,L|141:147,1,80,8|0,0:0|0:0,0:0:0:0:
214,86,133040,5,0,0:0:0:0:
280,155,133212,2,0,P|337:182|422:143,1,160
512,268,133726,2,0,P|455:241|370:280,1,160,0|8,0:0|0:0,0:0:0:0:
285,234,134240,1,0,0:0:0:0:
218,304,134412,5,0,0:0:0:0:
139,249,134583,1,0,0:0:0:0:
139,249,134669,1,0,0:0:0:0:
139,249,134754,2,0,P|126:197|140:166,1,80,8|0,0:0|0:0,0:0:0:0:
146,157,135012,2,0,P|155:118|141:81,1,80,8|0,0:0|0:0,0:0:0:0:
126,67,135269,1,0,0:0:0:0:
209,20,135440,2,0,L|304:32,1,80,8|0,0:0|0:0,0:0:0:0:
225,108,135783,6,0,L|35:84,1,160,4|8,0:0|0:0,0:0:0:0:
2,212,136297,1,0,0:0:0:0:
80,267,136469,2,0,P|125:270|157:244,1,80
245,276,136812,2,0,P|311:234|389:243,1,160,8|0,0:0|0:0,0:0:0:0:
337,342,137326,5,0,0:0:0:0:
248,378,137497,1,8,0:0:0:0:
159,339,137669,1,0,0:0:0:0:
142,244,137840,2,0,L|168:163,1,80
298,95,138183,2,0,L|272:176,1,80,8|0,0:0|0:0,0:0:0:0:
221,37,138526,6,0,P|271:6|367:31,1,160,0|8,0:0|0:0,0:0:0:0:
214,131,139040,1,0,0:0:0:0:
214,131,139126,1,0,0:0:0:0:
214,131,139212,2,0,L|123:122,1,80
298,95,139554,2,0,L|389:104,1,80,8|0,0:0|0:0,0:0:0:0:
495,249,139897,5,0,0:0:0:0:
408,207,140069,1,0,0:0:0:0:
326,256,140240,2,0,P|326:307|346:336,1,80,8|0,0:0|0:0,0:0:0:0:
229,206,140583,1,8,0:0:0:0:
229,206,140669,1,8,0:0:0:0:
229,206,140754,2,0,P|229:155|209:126,1,80,0|8,0:0|0:0,0:0:0:0:
121,106,141097,5,0,0:0:0:0:
121,106,141183,1,0,0:0:0:0:
121,106,141269,2,0,L|298:82,1,160,0|8,0:0|0:0,0:0:0:0:
357,28,141783,1,0,0:0:0:0:
424,95,141954,2,0,P|434:142|415:181,1,80
508,214,142297,2,0,P|417:215|374:268,1,160,8|0,0:0|0:0,0:0:0:0:
296,319,142812,5,0,0:0:0:0:
222,257,142983,2,0,L|205:170,1,80,8|0,0:0|0:0,0:0:0:0:
292,39,143326,1,0,0:0:0:0:
363,103,143497,1,0,0:0:0:0:
285,160,143669,2,0,P|174:164|137:128,1,160,8|0,0:0|0:0,0:0:0:0:
79,62,144183,5,0,0:0:0:0:
20,138,144354,2,0,L|12:229,1,80,8|0,0:0|0:0,0:0:0:0:
114,285,144697,2,0,L|122:194,1,80
28,310,145040,1,8,0:0:0:0:
102,371,145212,1,0,0:0:0:0:
190,334,145383,6,0,P|225:273|191:186,1,160,0|8,0:0|0:0,0:0:0:0:
303,36,145897,2,0,P|268:97|302:184,1,160
365,111,146412,2,0,L|455:91,1,80,8|0,0:0|0:0,0:0:0:0:
201,46,146754,6,0,L|111:66,1,80
31,194,147097,1,8,0:0:0:0:
100,260,147269,1,0,0:0:0:0:
180,207,147440,2,0,P|192:161|180:122,1,80
100,260,147783,2,0,P|88:306|100:345,1,80,8|0,0:0|0:0,0:0:0:0:
185,301,148126,6,0,P|239:335|334:302,1,160,0|8,0:0|0:0,0:0:0:0:
258,242,148640,2,0,P|330:214|399:251,1,160
512,136,149154,1,8,0:0:0:0:
425,175,149326,1,0,0:0:0:0:
347,119,149497,6,0,P|333:74|349:32,1,80
432,75,149840,1,8,0:0:0:0:
273,170,150012,1,0,0:0:0:0:
273,170,150097,1,0,0:0:0:0:
273,170,150183,2,0,L|177:164,1,80
85,111,150526,2,0,L|79:207,1,80,8|0,0:0|0:0,0:0:0:0:
31,301,150869,6,0,L|127:307,1,80
219,360,151212,2,0,L|225:264,1,80,8|0,0:0|0:0,0:0:0:0:
307,233,151554,1,8,0:0:0:0:
307,233,151640,1,8,0:0:0:0:
307,233,151726,1,0,0:0:0:0:
386,286,151897,1,8,0:0:0:0:
460,225,152069,1,0,0:0:0:0:
380,172,152240,1,4,0:0:0:0:
