osu file format v13

[General]
AudioFilename: Shorter.mp3
AudioLeadIn: 0
PreviewTime: 66291
Countdown: 0
SampleSet: Soft
StackLeniency: 0.7
Mode: 0
LetterboxInBreaks: 0
WidescreenStoryboard: 0

[Editor]
Bookmarks: 60429
DistanceSpacing: 1
BeatDivisor: 8
GridSize: 4
TimelineZoom: 3.699999

[Metadata]
Title:All This Time
TitleUnicode:All This Time
Artist:Fox Stevenson
ArtistUnicode:Fox Stevenson
Creator:Cartographer
Version:Insane
Source:
Tags:
BeatmapID:474007
BeatmapSetID:199892

[Difficulty]
HPDrainRate:7
CircleSize:4
OverallDifficulty:7
ApproachRate:9
SliderMultiplier:1.6
SliderTickRate:2

[Events]
//Background and Video events
0,0,"11228285455_2e8df0f96e_k.jpg",0,0
//Break Periods
//Storyboard Layer 0 (Background)
//Storyboard Layer 1 (Fail)
//Storyboard Layer 2 (Pass)
//Storyboard Layer 3 (Foreground)
//Storyboard Sound Samples
//Background Colour Transformations
3,100,163,162,255

[TimingPoints]
85,344.827586206897,4,2,0,60,1,0
22153,-153.846153846153,4,2,0,60,0,0
44222,-117.647058823529,4,2,0,60,0,0
64567,-90.9090909090909,4,2,0,60,0,0
66291,-83.3333333333333,4,2,0,60,0,1
85602,-83.3333333333333,4,2,0,60,0,0
88360,-83.3333333333333,4,2,0,60,0,1
107671,-83.3333333333333,4,2,0,60,0,0
110429,-117.647058823529,4,2,0,20,0,0
120774,-117.647058823529,4,2,0,10,0,0

[HitObjects]
428,244,22153,6,0,L|324:253,1,103.999995239258
276,348,22843,2,0,P|220:260|272:160,1,207.999990478516
202,82,23705,2,0,L|151:72,1,51.999997619629
307,80,24050,1,0,0:0:0:0:
413,82,24222,2,0,L|464:72,1,51.999997619629
358,172,24567,1,0,0:0:0:0:
307,264,24740,1,0,0:0:0:0:
358,355,24912,1,0,0:0:0:0:
250,175,25257,1,0,0:0:0:0:
331,106,25602,2,0,P|237:69|154:124,1,207.999990478516
116,302,27153,6,0,P|165:316|214:301,1,103.999995239258
320,302,27671,1,0,0:0:0:0:
200,130,28016,1,0,0:0:0:0:
118,197,28360,2,0,P|211:232|294:177,1,207.999990478516
348,27,29567,1,0,0:0:0:0:
430,94,29740,2,0,P|337:130|254:75,1,207.999990478516
60,340,32671,5,0,0:0:0:0:
137,269,32843,1,0,0:0:0:0:
145,167,33016,1,0,0:0:0:0:
195,75,33188,2,0,P|145:60|96:75,1,103.999995239258
6,125,33705,1,0,0:0:0:0:
63,272,33878,2,0,L|167:263,1,103.999995239258
252,201,34395,2,0,L|262:150,1,51.999997619629
337,263,34740,2,0,P|352:313|337:362,1,103.999995239258
182,335,35257,1,0,0:0:0:0:
108,261,35429,1,0,0:0:0:0:
182,186,35602,1,0,0:0:0:0:
108,112,35774,1,0,0:0:0:0:
182,37,35947,2,0,L|233:27,1,51.999997619629
378,63,36291,2,0,L|327:73,1,51.999997619629
225,100,36636,2,0,P|175:186|216:278,1,207.999990478516
437,289,38188,5,0,0:0:0:0:
437,185,38360,2,0,P|451:135|436:86,2,103.999995239258,0|0|0,0:0|0:0|0:0,0:0:0:0:
254,289,39395,2,0,P|163:330|76:280,1,207.999990478516
256,193,41119,1,0,0:0:0:0:
256,192,41291,12,0,42498,0:0:0:0:
106,192,42843,5,8,0:0:0:0:
132,187,42929,1,0,0:0:0:0:
158,193,43016,1,0,0:0:0:0:
182,204,43102,1,0,0:0:0:0:
208,210,43189,1,8,0:0:0:0:
234,205,43275,1,8,0:0:0:0:
257,192,43361,5,0,0:0:0:0:
278,176,43447,1,0,0:0:0:0:
302,164,43534,1,8,0:0:0:0:
328,159,43620,1,0,0:0:0:0:
353,168,43706,1,0,0:0:0:0:
374,184,43792,1,0,0:0:0:0:
398,195,43878,5,0,0:0:0:0:
398,194,44222,2,0,P|376:131|398:68,1,136.000002593994
259,75,44740,2,0,L|247:8,1,68.0000012969971
122,66,45085,2,0,P|144:129|122:192,1,136.000002593994
312,271,45602,1,0,0:0:0:0:
434,335,45775,1,0,0:0:0:0:
488,209,45947,1,0,0:0:0:0:
366,144,46119,2,0,P|303:166|240:144,1,136.000002593994
160,256,46636,2,0,L|172:323,1,68.0000012969971
144,118,46981,2,0,P|81:96|18:118,1,136.000002593994
78,243,47498,6,0,P|141:265|204:243,1,136.000002593994
388,38,48188,2,0,L|400:105,1,68.0000012969971
385,306,48533,2,0,L|373:239,1,68.0000012969971
270,148,48878,2,0,P|206:125|143:147,1,136.000002593994
51,248,49395,2,0,L|26:106,1,136.000002593994
257,90,50257,5,0,0:0:0:0:
405,321,50602,1,0,0:0:0:0:
315,196,50947,2,0,L|382:184,1,68.0000012969971
109,204,51291,2,0,L|42:192,1,68.0000012969971
213,293,51636,1,0,0:0:0:0:
318,204,51809,1,0,0:0:0:0:
215,114,51981,2,0,L|227:47,1,68.0000012969971
119,300,52498,6,0,P|178:333|243:323,1,136.000002593994
333,217,53016,2,0,L|345:150,1,68.0000012969971
427,317,53360,2,0,L|415:384,1,68.0000012969971
427,179,53705,2,0,L|494:191,1,68.0000012969971
327,273,54049,2,0,L|260:261,1,68.0000012969971,0|0,0:0|0:0,0:0:0:0:
93,343,54395,2,0,L|160:355,1,68.0000012969971,0|0,0:0|0:0,0:0:0:0:
298,355,54740,1,0,0:0:0:0:
435,343,54912,1,0,0:0:0:0:
226,177,55257,6,0,L|203:44,1,136.000002593994
252,314,55774,1,0,0:0:0:0:
358,226,55947,2,0,L|425:238,1,68.0000012969971
511,131,56291,1,0,0:0:0:0:
313,322,56464,2,0,P|250:343|188:320,1,136.000002593994
52,346,56981,1,0,0:0:0:0:
98,217,57153,2,0,L|86:150,1,68.0000012969971
222,173,57498,1,0,0:0:0:0:
353,216,57671,2,0,L|341:283,1,68.0000012969971
441,103,58016,6,0,P|382:70|316:81,1,136.000002593994
180,95,58533,2,0,L|168:28,1,68.0000012969971
33,220,58878,2,0,L|100:208,1,68.0000012969971
426,287,59222,2,0,L|359:299,1,68.0000012969971
245,222,59567,1,0,0:0:0:0:
321,107,59740,1,0,0:0:0:0:
205,34,59912,2,0,P|142:12|79:34,1,136.000002593994
171,213,60429,2,0,L|159:146,1,68.0000012969971
274,303,60774,5,8,0:0:0:0:
324,175,60947,1,0,0:0:0:0:
454,218,61119,1,0,0:0:0:0:
211,94,61291,1,0,0:0:0:0:
96,18,61464,5,8,0:0:0:0:
88,155,61636,1,0,0:0:0:0:
259,270,61809,1,0,0:0:0:0:
267,133,61981,1,0,0:0:0:0:
437,19,62153,5,8,0:0:0:0:
429,156,62325,1,8,0:0:0:0:
435,294,62498,2,0,L|368:282,1,68.0000012969971,0|0,0:0|0:0,0:0:0:0:
211,57,62843,2,0,L|278:69,1,68.0000012969971,8|0,0:0|0:0,0:0:0:0:
399,5,63188,1,0,0:0:0:0:
394,142,63360,1,0,0:0:0:0:
352,322,63533,5,8,0:0:0:0:
318,293,63619,1,0,0:0:0:0:
274,284,63705,1,0,0:0:0:0:
234,290,63791,1,0,0:0:0:0:
194,311,63878,1,8,0:0:0:0:
150,320,63964,1,0,0:0:0:0:
106,311,64050,1,0,0:0:0:0:
72,282,64136,1,0,0:0:0:0:
47,245,64222,5,8,0:0:0:0:
38,201,64308,1,0,0:0:0:0:
47,157,64394,1,0,0:0:0:0:
76,123,64480,1,0,0:0:0:0:
113,97,64567,2,0,L|150:74,3,44.0000013427735,8|0|0|0,0:0|0:0|0:0|0:0,0:0:0:0:
240,66,64912,6,0,L|278:43,3,44.0000013427735,8|0|0|0,0:0|0:0|0:0|0:0,0:0:0:0:
211,151,65257,2,0,L|172:173,3,44.0000013427735,8|0|0|0,0:0|0:0|0:0|0:0,0:0:0:0:
299,141,65602,6,0,L|338:119,3,44.0000013427735,8|0|0|0,0:0|0:0|0:0|0:0,0:0:0:0:
240,227,65947,1,4,0:0:0:0:
111,322,66291,6,0,P|70:238|111:155,1,191.999994140625,0|0,0:0|0:0,0:3:0:0:
271,267,66809,2,0,L|369:248,1,95.9999970703126
158,239,67153,2,0,P|199:156|159:73,1,191.999994140625,0|0,0:0|0:0,0:3:0:0:
48,234,67671,1,0,0:0:0:0:
48,234,67843,1,0,0:0:0:0:
212,338,68016,1,0,0:0:0:0:
378,239,68188,2,0,P|337:156|377:73,1,191.999994140625,0|0,0:0|0:0,0:3:0:0:
477,239,68705,2,0,L|458:333,1,95.9999970703126
222,165,69050,6,0,P|138:123|55:164,1,191.999994140625,0|0,0:0|0:0,0:3:0:0:
228,253,69567,2,0,L|322:234,1,95.9999970703126
499,152,69912,2,0,L|405:133,1,95.9999970703126
224,61,70257,1,0,0:0:0:0:
224,61,70429,1,0,0:0:0:0:
152,241,70602,1,0,0:0:0:0:
32,88,70774,1,0,0:0:0:0:
69,283,70947,2,0,P|151:324|235:284,1,191.999994140625,0|0,0:0|0:0,0:3:0:0:
352,127,71464,2,0,L|333:33,1,95.9999970703126
442,194,71809,6,0,P|482:277|441:360,1,191.999994140625,0|0,0:0|0:0,0:3:0:0:
266,277,72326,2,0,L|172:296,1,95.9999970703126
354,228,72671,2,0,P|313:145|353:62,1,191.999994140625,0|0,0:0|0:0,0:3:0:0:
464,223,73189,1,0,0:0:0:0:
464,223,73361,1,0,0:0:0:0:
300,328,73533,1,0,0:0:0:0:
136,223,73705,2,0,P|95:139|135:56,1,191.999994140625,0|0,0:0|0:0,0:3:0:0:
256,209,74222,2,0,L|256:305,1,95.9999970703126
376,222,74567,6,0,P|416:139|376:56,2,191.999994140625,0|0|0,0:0|0:0|0:3,0:3:0:0:
191,162,75429,1,0,0:0:0:0:
191,162,75602,2,0,P|143:158|105:185,1,95.9999970703126
291,244,75947,2,0,P|338:247|376:220,1,95.9999970703126
191,274,76291,1,0,0:0:0:0:
92,210,76464,2,0,P|53:183|6:187,2,95.9999970703126,0|0|0,0:0|0:0|0:0,0:0:0:0:
291,338,76981,1,0,0:0:0:0:
172,111,77326,6,0,P|255:70|338:111,1,191.999994140625,0|0,0:0|0:0,0:3:0:0:
468,258,77844,2,0,L|486:163,1,95.9999970703126
339,289,78188,2,0,P|255:330|172:289,1,191.999994140625,0|0,0:0|0:0,0:3:0:0:
255,113,78705,1,0,0:0:0:0:
255,113,78878,1,0,0:0:0:0:
256,306,79050,1,0,0:0:0:0:
73,211,79222,2,0,P|32:128|73:45,1,191.999994140625,0|0,0:0|0:0,0:3:0:0:
200,192,79740,2,0,L|296:192,1,95.9999970703126
423,43,80085,6,0,P|464:126|424:210,1,191.999994140625,0|0,0:0|0:0,0:3:0:0:
259,107,80602,2,0,L|353:126,1,95.9999970703126
178,208,80947,2,0,L|82:208,1,95.9999970703126
260,309,81291,2,0,L|354:290,2,95.9999970703126,0|0|0,0:0|0:0|0:0,0:0:0:0:
332,129,81809,1,0,0:0:0:0:
157,212,81981,2,0,P|116:128|156:45,1,191.999994140625,0|0,0:0|0:0,0:3:0:0:
332,129,82498,1,0,0:0:0:0:
340,306,82843,6,0,P|256:346|173:306,1,191.999994140625,0|0,0:0|0:0,0:3:0:0:
181,113,83360,2,0,L|162:19,1,95.9999970703126
332,113,83705,2,0,L|351:19,1,95.9999970703126
470,173,84050,2,0,P|429:256|469:339,1,191.999994140625,0|0,0:0|0:0,0:3:0:0:
358,180,84567,1,0,0:0:0:0:
167,216,84740,2,0,L|73:197,1,95.9999970703126
250,115,85085,2,0,L|344:96,2,95.9999970703126,0|0|0,0:0|0:0|0:0,0:0:0:0:
256,192,85602,12,0,86636,0:0:0:0:
279,252,87153,6,0,L|260:346,1,95.9999970703126
178,169,87498,2,0,L|159:75,2,95.9999970703126,0|0|0,0:0|0:0|0:0,0:0:0:0:
301,124,88016,1,0,0:0:0:0:
301,124,88188,1,0,0:0:0:0:
180,275,88360,6,0,P|96:315|13:275,1,191.999994140625,0|0,0:0|0:0,0:3:0:0:
97,98,88878,2,0,L|97:-2,1,95.9999970703126
96,195,89222,2,0,P|179:156|263:196,1,191.999994140625,0|0,0:0|0:0,0:3:0:0:
446,126,89740,1,0,0:0:0:0:
446,126,89912,1,0,0:0:0:0:
483,317,90085,1,0,0:0:0:0:
300,253,90257,2,0,P|259:170|299:87,1,191.999994140625,0|0,0:0|0:0,0:3:0:0:
124,170,90774,2,0,L|24:170,1,95.9999970703126
204,87,91119,6,0,P|245:170|205:253,1,191.999994140625,0|0,0:0|0:0,0:3:0:0:
348,122,91636,2,0,L|442:103,1,95.9999970703126
348,273,91981,2,0,L|442:292,1,95.9999970703126
272,198,92326,1,0,0:0:0:0:
272,198,92498,1,0,0:0:0:0:
102,294,92671,1,0,0:0:0:0:
102,100,92843,1,0,0:0:0:0:
272,198,93016,2,0,P|354:239|438:199,1,191.999994140625,0|0,0:0|0:0,0:3:0:0:
268,292,93533,2,0,L|174:311,1,95.9999970703126
190,117,93878,6,0,P|273:76|356:118,1,191.999994140625,0|0,0:0|0:0,0:3:0:0:
190,220,94395,2,0,L|96:201,1,95.9999970703126
272,157,94740,2,0,P|313:240|273:323,1,191.999994140625,0|0,0:0|0:0,0:3:0:0:
378,160,95257,1,0,0:0:0:0:
378,160,95429,1,0,0:0:0:0:
486,322,95602,1,0,0:0:0:0:
461,105,95774,2,0,P|377:64|294:105,1,191.999994140625,0|0,0:0|0:0,0:3:0:0:
120,191,96291,2,0,L|20:191,1,95.9999970703126
194,285,96636,6,0,P|277:325|360:285,2,191.999994140625,0|0|0,0:0|0:0|0:3,0:3:0:0:
278,110,97498,1,0,0:0:0:0:
278,110,97671,2,0,P|322:94|366:109,1,95.9999970703126
186,182,98016,2,0,P|141:197|97:182,1,95.9999970703126
294,226,98360,1,0,0:0:0:0:
186,64,98533,2,0,P|141:48|97:64,2,95.9999970703126,0|0|0,0:0|0:0|0:0,0:0:0:0:
294,226,99050,1,0,0:0:0:0:
401,322,99395,6,0,P|442:238|401:155,1,191.999994140625,0|0,0:0|0:0,0:3:0:0:
241,267,99913,2,0,L|143:248,1,95.9999970703126
354,239,100257,2,0,P|313:156|353:73,1,191.999994140625,0|0,0:0|0:0,0:3:0:0:
464,234,100775,1,0,0:0:0:0:
464,234,100947,1,0,0:0:0:0:
300,338,101120,1,0,0:0:0:0:
134,239,101292,2,0,P|175:156|135:73,1,191.999994140625,0|0,0:0|0:0,0:3:0:0:
35,239,101809,2,0,L|54:333,1,95.9999970703126
290,165,102154,6,0,P|374:123|457:164,1,191.999994140625,0|0,0:0|0:0,0:3:0:0:
284,253,102671,2,0,L|190:234,1,95.9999970703126
13,152,103016,2,0,L|107:133,1,95.9999970703126
288,61,103361,1,0,0:0:0:0:
288,61,103533,1,0,0:0:0:0:
360,241,103706,1,0,0:0:0:0:
480,88,103878,1,0,0:0:0:0:
443,283,104051,2,0,P|361:324|277:284,1,191.999994140625,0|0,0:0|0:0,0:3:0:0:
160,127,104568,2,0,L|179:33,1,95.9999970703126
70,194,104913,6,0,P|30:277|71:360,1,191.999994140625,0|0,0:0|0:0,0:3:0:0:
246,277,105430,2,0,L|340:296,1,95.9999970703126
158,228,105775,2,0,P|199:145|159:62,1,191.999994140625,0|0,0:0|0:0,0:3:0:0:
48,223,106293,1,0,0:0:0:0:
48,223,106465,1,0,0:0:0:0:
212,328,106637,1,0,0:0:0:0:
376,223,106809,2,0,P|417:139|377:56,1,191.999994140625,0|0,0:0|0:0,0:3:0:0:
256,209,107326,2,0,L|256:305,1,95.9999970703126
341,130,107671,6,0,P|257:89|174:129,1,191.999994140625,0|0,0:0|0:0,0:3:0:0:
79,299,108188,1,8,0:0:0:0:
84,273,108274,1,0,0:0:0:0:
78,247,108361,1,0,0:0:0:0:
67,223,108447,1,0,0:0:0:0:
64,197,108533,2,0,L|78:102,1,95.9999970703126,2|0,0:0|0:0,0:0:0:0:
256,23,108878,1,0,0:0:0:0:
422,122,109050,5,0,0:0:0:0:
433,146,109136,1,0,0:0:0:0:
439,172,109223,1,0,0:0:0:0:
434,198,109309,1,8,0:0:0:0:
438,224,109395,2,0,L|389:252,1,47.9999985351563
393,327,109567,2,0,L|441:355,1,47.9999985351563
316,283,109740,2,0,P|271:268|226:283,2,95.9999970703126,0|0|4,0:0|0:0|0:0,0:0:0:0:
51,339,110429,6,0,P|76:283|50:216,1,136.000002593994,0|0,0:0|0:0,0:3:0:0:
187,193,110947,2,0,L|268:214,1,68.0000012969971
381,162,111291,1,0,0:0:0:0:
381,162,111636,2,0,L|315:144,1,68.0000012969971
233,255,111981,1,0,0:0:0:0:
179,128,112153,1,0,0:0:0:0:
55,67,112326,2,0,P|30:123|56:190,1,136.000002593994,0|0,0:0|0:0,0:3:0:0:
180,128,112843,1,0,0:0:0:0:
179,128,113188,5,0,0:0:0:0:
305,67,113705,2,0,P|330:123|304:190,1,136.000002593994,0|0,0:0|0:0,0:3:0:0:
94,277,114395,2,0,L|159:294,1,68.0000012969971
297,277,114740,1,0,0:0:0:0:
433,295,114913,1,0,0:0:0:0:
380,169,115085,2,0,P|405:113|379:46,1,136.000002593994,0|0,0:0|0:0,0:3:0:0:
434,295,115602,1,0,0:0:0:0:
434,295,115947,5,0,0:0:0:0:
494,168,116464,2,0,P|438:143|371:169,1,136.000002593994,0|0,0:0|0:0,0:3:0:0:
135,309,117153,2,0,L|200:291,1,68.0000012969971
338,309,117498,1,0,0:0:0:0:
475,291,117671,1,0,0:0:0:0:
392,183,117843,2,0,L|326:165,1,68.0000012969971
189,183,118188,1,0,0:0:0:0:
189,183,118360,1,0,0:0:0:0:
256,192,118705,12,0,120774,0:0:0:0:
