osu file format v14

[General]
AudioFilename: Fox Stevenson - All In [Throwdown EP].mp3
AudioLeadIn: 0
PreviewTime: 186772
Countdown: 0
SampleSet: Normal
StackLeniency: 0.7
Mode: 0
LetterboxInBreaks: 0
WidescreenStoryboard: 0

[Editor]
DistanceSpacing: 0.6
BeatDivisor: 4
GridSize: 32
TimelineZoom: 1

[Metadata]
Title:All In
TitleUnicode:All In
Artist:Fox Stevenson
ArtistUnicode:Fox Stevenson
Creator:Kyshiro
Version:Alive
Source:
Tags:
BeatmapID:692168
BeatmapSetID:309637

[Difficulty]
HPDrainRate:7
CircleSize:4
OverallDifficulty:8
ApproachRate:9
SliderMultiplier:1.7
SliderTickRate:1

[Events]
//Background and Video events
0,0,"wallpaper-1872857.jpg",0,0
//Break Periods
2,77258,87429
2,165029,169715
//Storyboard Layer 0 (Background)
//Storyboard Layer 1 (Fail)
//Storyboard Layer 2 (Pass)
//Storyboard Layer 3 (Foreground)
//Storyboard Sound Samples

[TimingPoints]
258,342.857142857143,4,1,0,40,1,0
258,-142.857142857143,4,1,0,20,0,0
11201,-125,4,1,0,40,0,0
33144,-100,4,1,0,40,0,0
88001,-125,4,1,0,40,0,0
98630,-100,4,1,0,40,0,0
98972,-90.9090909090909,4,1,0,40,0,0
101372,-133.333333333333,4,1,0,40,0,0
101887,-90.9090909090909,4,1,0,40,0,0
106858,-133.333333333333,4,1,0,40,0,0
107201,-90.9090909090909,4,1,0,40,0,0
112344,-133.333333333333,4,1,0,40,0,0
112858,-90.9090909090909,4,1,0,40,0,0
117830,-133.333333333333,4,1,0,40,0,0
118344,-90.9090909090909,4,1,0,40,0,0
119544,-111.111111111111,4,1,0,40,0,0
121258,-90.9090909090909,4,1,0,40,0,0
123315,-133.333333333333,4,1,0,40,0,0
123830,-90.9090909090909,4,1,0,40,0,0
128829,-133.333333333333,4,1,0,40,0,0
129515,-90.9090909090909,4,1,0,40,0,0
134315,-133.333333333333,4,1,0,40,0,0
135000,-90.9090909090909,4,1,0,40,0,0
139800,-133.333333333333,4,1,0,40,0,0
140486,-90.9090909090909,4,1,0,40,0,0
141515,-133.333333333333,4,1,0,40,0,0
143743,-200,4,2,0,40,0,0

[HitObjects]
49,173,258,6,0,P|97:185|161:146,1,118.999996368408
92,104,772,1,0,0:0:0:0:
229,80,943,2,0,L|161:71,1,59.4999981842042
287,151,1286,2,0,L|355:142,1,59.4999981842042
437,184,1629,6,0,P|455:227|439:302,2,118.999996368408
427,84,2486,1,0,0:0:0:0:
362,244,2658,2,0,L|337:307,1,59.4999981842042
246,109,3000,6,0,L|267:236,2,118.999996368408
347,150,3858,1,0,0:0:0:0:
169,186,4029,2,0,P|134:189|106:185,1,59.4999981842042
216,266,4372,6,0,P|181:292|100:310,2,118.999996368408
53,248,5229,1,0,0:0:0:0:
258,188,5400,1,0,0:0:0:0:
275,191,5486,1,0,0:0:0:0:
292,195,5572,1,0,0:0:0:0:
183,113,5743,6,0,L|309:102,1,118.999996368408
234,27,6258,1,0,0:0:0:0:
377,15,6429,2,0,L|302:26,1,59.4999981842042
124,104,6772,2,0,L|199:115,1,59.4999981842042
360,163,7115,6,0,P|281:164|245:200,2,118.999996368408
448,100,7972,1,0,0:0:0:0:
321,238,8143,2,0,L|330:307,1,59.4999981842042
226,162,8486,2,0,L|217:231,1,59.4999981842042
205,308,8829,1,0,0:0:0:0:
11,93,9172,6,0,P|48:79|133:112,1,118.999996368408
63,168,9686,1,0,0:0:0:0:
185,39,9858,2,0,L|306:50,2,118.999996368408
393,58,10715,1,0,0:0:0:0:
254,183,10886,1,0,0:0:0:0:
272,183,10972,1,0,0:0:0:0:
290,183,11058,1,0,0:0:0:0:
59,112,11229,6,0,P|112:156|181:158,1,136
352,124,11743,1,0,0:0:0:0:
246,61,11915,2,0,L|172:63,1,68
280,217,12258,1,0,0:0:0:0:
380,232,12429,1,0,0:0:0:0:
316,311,12600,6,0,L|161:302,1,136
33,190,13115,1,0,0:0:0:0:
124,145,13286,2,0,L|194:138,1,68
348,224,13629,2,0,L|280:217,1,68
376,85,13972,6,0,P|440:73|499:115,2,136
268,25,14829,1,0,0:0:0:0:
195,124,15000,2,0,L|210:203,1,68
433,280,15343,2,0,P|450:224|415:141,1,136
343,332,15858,1,0,0:0:0:0:
251,279,16029,2,0,P|180:266|113:294,1,136
96,304,16458,1,0,0:0:0:0:
96,304,16543,1,0,0:0:0:0:
106,183,16715,6,0,P|160:190|197:181,1,68
397,89,17058,2,0,P|343:82|306:91,1,68
212,92,17400,2,0,L|298:206,1,136
399,264,17915,1,0,0:0:0:0:
492,185,18086,6,0,P|499:148|490:105,1,68
399,264,18429,2,0,P|394:297|401:330,1,68
385,165,18772,2,0,P|327:146|240:166,1,136
157,233,19286,1,0,0:0:0:0:
80,137,19458,6,0,L|65:67,1,68
336,187,19800,2,0,L|325:265,1,68
185,255,20143,2,0,L|175:187,1,68
446,70,20486,2,0,L|432:139,1,68
189,69,20829,6,0,P|257:45|316:66,1,136
460,290,21343,1,0,0:0:0:0:
381,195,21515,2,0,P|380:153|395:115,1,68
460,290,21858,1,0,0:0:0:0:
464,316,21943,1,0,0:0:0:0:
459,342,22029,1,0,0:0:0:0:
316,375,22200,6,0,L|169:364,1,136
282,228,22715,1,0,0:0:0:0:
171,176,22886,2,0,L|85:188,1,68
186,289,23229,1,0,0:0:0:0:
282,228,23400,6,0,P|293:171|263:98,1,136
164,65,23915,1,0,0:0:0:0:
368,82,24086,1,0,0:0:0:0:
164,65,24258,2,0,L|83:70,1,68
29,282,24600,1,0,0:0:0:0:
137,340,24772,1,0,0:0:0:0:
225,263,24943,6,0,P|292:246|366:279,1,136
285,357,25458,1,0,0:0:0:0:
137,340,25629,2,0,L|122:267,1,68
0,112,25972,1,0,0:0:0:0:
98,184,26143,2,0,L|244:154,1,136
351,109,26658,6,0,P|366:66|362:33,1,68
161,275,27000,2,0,P|146:318|150:351,1,68
212,145,27343,1,0,0:0:0:0:
188,131,27429,1,0,0:0:0:0:
161,125,27515,1,0,0:0:0:0:
300,239,27686,6,0,P|337:256|381:260,1,68
497,338,28029,2,0,L|338:358,1,136
249,234,28543,1,0,0:0:0:0:
150,306,28715,2,0,L|160:380,1,68
290,150,29058,6,0,P|223:143|165:189,1,136
0,38,29572,1,0,0:0:0:0:
94,97,29743,2,0,P|127:102|167:93,1,68
346,50,30086,2,0,P|300:38|259:42,1,68
290,150,30429,6,0,L|324:301,1,136
262,371,30943,1,0,0:0:0:0:
388,199,31115,2,0,L|398:126,1,68
212,243,31458,2,0,L|202:316,1,68
292,150,31800,6,0,P|219:121|152:140,1,136
17,306,32315,1,0,0:0:0:0:
82,202,32487,2,0,L|64:129,1,68
159,285,32829,1,0,0:0:0:0:
140,305,32915,1,0,0:0:0:0:
122,325,33000,1,0,0:0:0:0:
191,181,33172,6,0,P|251:156|345:206,1,170
406,318,33686,1,0,0:0:0:0:
490,211,33858,2,0,P|494:156|480:121,1,85
316,53,34200,2,0,L|406:47,1,85
286,152,34543,6,0,L|106:140,1,170
0,79,35058,1,0,0:0:0:0:
35,234,35229,2,0,P|75:221|193:279,1,170
89,350,35743,1,0,0:0:0:0:
269,319,35915,6,0,P|282:274|275:234,1,85
87,30,36258,2,0,P|81:71|94:112,1,85
229,121,36600,2,0,L|404:102,1,170,0|0,0:0|0:0,0:0:0:0:
480,279,37115,1,0,0:0:0:0:
353,328,37286,6,0,L|265:318,1,85,0|0,0:0|0:0,0:0:0:0:
229,121,37629,2,0,L|264:201,1,85,0|0,0:0|0:0,0:0:0:0:
118,334,37972,2,0,L|169:262,1,85,0|0,0:0|0:0,0:0:0:0:
93,49,38315,1,0,0:0:0:0:
2,150,38486,1,0,0:0:0:0:
136,173,38658,6,0,P|224:141|302:160,1,170
421,212,39172,1,0,0:0:0:0:
501,70,39343,2,0,P|450:85|403:79,1,85
286,50,39686,1,0,0:0:0:0:
319,155,39858,1,0,0:0:0:0:
286,260,40029,1,0,0:0:0:0:
333,359,40200,1,0,0:0:0:0:
264,259,40372,6,0,P|201:246|135:268,1,127.5
123,275,40715,2,0,L|62:194,1,85
334,63,41058,2,0,P|350:108|342:147,1,85
168,143,41400,2,0,P|162:102|178:63,1,85
440,207,41743,2,0,L|389:275,1,85
176,224,42086,2,0,P|256:198|336:225,1,170
256,332,42600,1,0,0:0:0:0:
151,146,42772,5,0,0:0:0:0:
361,146,42943,1,0,0:0:0:0:
148,270,43115,1,0,0:0:0:0:
257,86,43287,1,0,0:0:0:0:
362,267,43458,1,0,0:0:0:0:
256,210,43629,1,0,0:0:0:0:
256,210,43715,1,0,0:0:0:0:
256,210,43800,1,0,0:0:0:0:
361,146,43972,1,0,0:0:0:0:
362,267,44144,6,0,P|281:255|212:311,1,170
96,144,44658,1,0,0:0:0:0:
18,244,44829,2,0,P|16:298|37:339,1,85
96,144,45172,2,0,P|100:102|86:62,1,85
135,253,45515,6,0,P|180:265|283:197,1,170
416,326,46029,1,0,0:0:0:0:
512,280,46200,2,0,P|449:225|367:231,1,170
183,164,46715,1,0,0:0:0:0:
283,86,46886,6,0,L|374:74,1,85
183,164,47229,2,0,L|98:152,1,85
16,311,47572,1,0,0:0:0:0:
115,291,47743,1,0,0:0:0:0:
215,271,47915,1,0,0:0:0:0:
314,251,48086,1,0,0:0:0:0:
413,275,48258,6,0,P|434:315|429:364,1,85
215,271,48600,2,0,P|211:231|231:189,1,85
298,357,48943,2,0,L|121:345,1,170
19,108,49458,1,0,0:0:0:0:
124,37,49629,6,0,P|200:21|270:82,1,170
310,261,50143,1,0,0:0:0:0:
203,192,50315,2,0,B|181:155|181:155|181:104,1,85
310,261,50658,2,0,B|310:302|310:302|288:339,1,85,0|0,0:0|0:0,0:0:0:0:
47,209,51000,5,0,0:0:0:0:
149,132,51172,1,0,0:0:0:0:
249,209,51343,2,0,P|299:224|379:202,1,127.5
393,190,51686,2,0,P|411:145|406:96,1,85
102,109,52029,2,0,P|102:151|119:190,1,85
408,302,52372,6,0,L|317:274,1,85
104,302,52715,2,0,L|195:274,1,85
328,80,53058,2,0,P|236:44|184:80,1,170
409,147,53572,1,0,0:0:0:0:
256,133,53743,6,0,P|248:189|268:221,1,85
126,342,54086,2,0,P|140:302|130:262,1,85
272,326,54429,2,0,L|355:313,1,85
386,305,54686,1,0,0:0:0:0:
386,305,54772,1,0,0:0:0:0:
185,208,54943,1,0,0:0:0:0:
312,59,55115,6,0,P|347:121|306:208,1,170
96,124,55629,2,0,B|143:111|143:111|170:138|209:150|255:132,1,170
212,45,56143,2,0,L|120:29,1,85
237,222,56486,6,0,L|329:206,1,85
160,194,56829,1,0,0:0:0:0:
400,226,57000,1,0,0:0:0:0:
251,324,57172,2,0,P|204:326|166:310,1,85
2,211,57515,2,0,P|41:196|83:199,1,85
326,173,57858,6,0,P|272:186|192:108,1,170
367,96,58372,2,0,P|405:136|377:244,1,170
278,100,58886,2,0,P|293:46|401:16,1,170
271,252,59400,5,0,0:0:0:0:
271,252,59486,1,0,0:0:0:0:
271,252,59572,2,0,L|176:241,1,85
14,77,59915,1,0,0:0:0:0:
119,22,60086,1,0,0:0:0:0:
216,90,60258,2,0,P|225:139|210:178,1,85
391,330,60600,6,0,P|361:283|365:164,1,170
492,48,61115,2,0,L|479:143,1,85
286,303,61458,1,0,0:0:0:0:
213,208,61629,2,0,L|226:113,1,85
3,250,61972,6,0,P|65:291|155:265,1,170
170,42,62486,1,0,0:0:0:0:
68,110,62658,2,0,L|86:198,1,85
426,193,63000,2,0,L|444:110,1,85
189,140,63343,5,0,0:0:0:0:
311,247,63515,1,0,0:0:0:0:
201,247,63686,1,0,0:0:0:0:
323,140,63858,1,0,0:0:0:0:
206,51,64029,2,0,P|152:42|112:52,1,85
323,140,64372,2,0,P|377:149|417:139,1,85
210,159,64715,6,0,P|170:210|189:322,1,170
269,250,65229,1,0,0:0:0:0:
126,136,65400,1,0,0:0:0:0:
100,314,65572,1,0,0:0:0:0:
230,151,65743,1,0,0:0:0:0:
60,218,65914,1,0,0:0:0:0:
202,332,66086,6,0,L|296:328,1,85
486,214,66429,1,0,0:0:0:0:
415,118,66600,2,0,P|334:95|250:139,1,170
344,213,67115,1,0,0:0:0:0:
150,172,67286,6,0,B|124:138|124:138|124:94,1,85
228,256,67629,2,0,B|228:298|228:298|202:332,1,85
29,241,67972,1,0,0:0:0:0:
150,274,68143,2,0,P|228:255|311:296,1,170
410,125,68658,1,0,0:0:0:0:
476,223,68829,6,0,L|458:308,1,85
299,164,69172,1,0,0:0:0:0:
315,46,69343,2,0,P|360:12|409:7,1,85
299,164,69686,1,0,0:0:0:0:
199,97,69858,1,0,0:0:0:0:
283,180,70029,6,0,P|301:248|302:273,1,85
141,318,70372,1,0,0:0:0:0:
64,168,70543,2,0,P|69:125|82:85,1,85
309,52,70886,1,0,0:0:0:0:
357,161,71058,1,0,0:0:0:0:
155,161,71229,1,0,0:0:0:0:
203,52,71401,1,0,0:0:0:0:
257,243,71572,6,0,P|199:283|102:281,1,170
357,161,72086,2,0,L|445:166,1,85
246,126,72429,1,0,0:0:0:0:
350,260,72600,2,0,L|410:338,1,85
149,193,72943,6,0,P|130:143|133:100,1,85
381,112,73286,2,0,P|380:154|363:193,1,85
159,363,73629,2,0,L|182:282,1,85
329,280,73972,2,0,L|352:363,1,85
190,33,74315,6,0,P|159:88|214:179,1,170
407,125,74829,2,0,B|331:94|331:94|292:115|246:101,1,170
334,191,75343,2,0,P|336:243|324:278,1,85
282,22,75686,5,0,0:0:0:0:
189,168,75858,2,0,P|133:189|87:186,1,85
19,38,76200,2,0,L|187:72,1,170
409,54,76715,2,0,L|326:71,1,85
256,236,77058,1,0,0:0:0:0:
41,163,88029,6,0,P|113:143|181:179,1,136
103,246,88543,1,0,0:0:0:0:
247,105,88715,2,0,L|323:101,1,68
466,202,89058,2,0,L|390:198,1,68
290,311,89400,6,0,P|227:332|153:316,1,136
10,101,89915,1,0,0:0:0:0:
103,162,90086,2,0,L|119:235,1,68
17,342,90429,2,0,L|31:275,1,68
173,111,90772,6,0,P|230:94|285:115,1,102
291,123,91115,1,0,0:0:0:0:
336,206,91286,1,0,0:0:0:0:
344,41,91458,1,0,0:0:0:0:
383,127,91629,1,0,0:0:0:0:
336,206,91800,2,0,P|284:214|255:208,1,68
383,128,92143,6,0,P|423:182|409:257,1,136
193,299,92658,1,0,0:0:0:0:
320,341,92829,2,0,L|392:334,1,68
250,196,93172,2,0,L|178:203,1,68
21,68,93515,5,0,0:0:0:0:
126,42,93686,1,0,0:0:0:0:
25,83,93858,1,0,0:0:0:0:
140,121,94029,1,0,0:0:0:0:
19,101,94200,1,0,0:0:0:0:
113,199,94372,1,0,0:0:0:0:
4,117,94543,1,0,0:0:0:0:
46,262,94715,1,0,0:0:0:0:
197,188,94886,6,0,P|224:143|225:116,1,68
369,33,95229,2,0,P|376:65|397:92,1,68,0|0,0:0|0:0,0:0:0:0:
250,37,95572,2,0,L|175:27,1,68
333,187,95915,2,0,L|408:177,1,68
488,340,96258,5,0,0:0:0:0:
456,352,96343,1,0,0:0:0:0:
422,357,96429,1,0,0:0:0:0:
387,354,96515,1,0,0:0:0:0:
354,344,96600,1,0,0:0:0:0:
323,327,96686,1,0,0:0:0:0:
299,301,96772,1,0,0:0:0:0:
281,271,96858,1,0,0:0:0:0:
272,238,96943,2,0,P|269:213|269:197,1,34
211,109,97115,2,0,P|210:126|208:143,1,34
162,247,97286,2,0,P|159:222|159:206,1,34
101,118,97458,2,0,P|100:134|97:151,1,34
33,242,97629,6,0,L|47:310,2,68,0|0|0,0:0|0:0|0:0,0:0:0:0:
108,363,98143,2,0,P|162:375|226:333,1,136
308,182,98658,6,0,P|306:227|327:270,1,85
378,85,99000,6,0,P|336:65|207:114,1,187.000005706787
218,321,99515,2,0,B|299:274|299:274|308:176,1,187.000005706787
201,209,100029,1,0,0:0:0:0:
419,211,100200,6,0,L|407:111,1,93.5000028533936
376,290,100543,1,0,0:0:0:0:
306,47,100715,1,0,0:0:0:0:
138,139,100886,2,0,P|182:120|295:192,1,187.000005706787
103,230,101400,2,0,L|36:223,1,63.7500024318696
22,220,101915,5,0,0:0:0:0:
155,321,102086,1,0,0:0:0:0:
161,39,102258,2,0,L|127:234,1,187.000005706787
56,81,102772,1,0,0:0:0:0:
235,178,102943,6,0,P|282:178|324:156,2,93.5000028533936
397,54,103458,1,0,0:0:0:0:
450,174,103629,2,0,B|444:216|463:247|463:247|443:281|443:281|459:313|452:353,1,187.000005706787
232,322,104143,2,0,P|286:301|366:336,1,140.25000428009
361,313,104486,6,0,L|341:122,1,187.000005706787
217,209,105000,2,0,B|213:176|213:176|235:149|235:149|230:104|230:104|252:76|252:76|251:36,1,187.000005706787
276,272,105515,1,0,0:0:0:0:
129,159,105686,6,0,P|89:135|42:128,2,93.5000028533936
50,237,106200,1,0,0:0:0:0:
181,88,106372,2,0,P|242:109|362:59,1,187.000005706787
452,188,106886,2,0,P|458:148|453:118,1,63.7500024318696
447,107,107400,5,0,0:0:0:0:
330,227,107572,2,0,P|329:277|350:318,1,93.5000028533936
212,171,107915,2,0,P|231:129|229:82,1,93.5000028533936
25,242,108258,1,0,0:0:0:0:
124,266,108429,1,0,0:0:0:0:
223,290,108600,6,0,L|326:281,1,93.5000028533936
156,354,108943,1,0,0:0:0:0:
188,185,109115,2,0,L|94:176,1,93.5000028533936
53,332,109458,1,0,0:0:0:0:
278,209,109629,2,0,B|294:167|294:167|294:119,1,93.5000028533936
292,92,109886,5,0,0:0:0:0:
292,92,109972,2,0,P|347:119|456:61,1,187.000005706787
214,26,110486,2,0,B|193:54|191:84|191:84|144:79|101:104|81:145,1,187.000005706787
29,36,111000,1,0,0:0:0:0:
180,190,111172,6,0,P|183:247|167:282,2,93.5000028533936
82,223,111686,1,0,0:0:0:0:
246,319,111858,2,0,P|312:302|428:336,1,187.000005706787
141,348,112372,2,0,L|73:340,1,63.7500024318696
55,337,112886,5,0,0:0:0:0:
237,225,113058,1,0,0:0:0:0:
58,141,113229,2,0,L|151:128,2,93.5000028533936
221,27,113743,1,0,0:0:0:0:
470,99,113915,2,0,P|410:77|299:129,1,187.000005706787
221,27,114429,5,0,0:0:0:0:
399,201,114600,2,0,B|400:240|400:240|423:268|423:268|418:313|418:313|437:340|437:340|438:375,1,187.000005706787
291,242,115115,2,0,P|282:182|296:148,1,93.5000028533936
335,339,115458,6,0,P|289:363|152:318,1,187.000005706787
101,169,115972,2,0,L|64:357,1,187.000005706787
6,188,116486,1,0,0:0:0:0:
190,147,116658,6,0,P|256:139|287:152,1,93.5000028533936
126,78,117000,1,0,0:0:0:0:
234,232,117172,1,0,0:0:0:0:
367,110,117343,2,0,L|389:205,1,93.5000028533936
464,93,117686,1,0,0:0:0:0:
479,277,117858,2,0,L|492:204,1,63.7500024318696
476,300,118372,5,0,0:0:0:0:
306,348,118543,1,0,0:0:0:0:
374,267,118715,1,0,0:0:0:0:
220,297,118886,2,0,L|104:282,1,93.5000028533936
13,136,119229,1,0,0:0:0:0:
196,105,119400,1,0,0:0:0:0:
92,47,119572,6,0,L|107:133,2,76.4999976654053
222,199,120086,2,0,P|222:146|260:50,1,152.999995330811
114,218,120600,2,0,P|68:227|32:221,1,76.4999976654053
8,206,120858,1,0,0:0:0:0:
8,206,120943,1,0,0:0:0:0:
373,65,121286,5,0,0:0:0:0:
456,136,121458,2,0,L|432:324,1,187.000005706787
226,185,121972,1,0,0:0:0:0:
341,229,122143,6,0,L|333:126,2,93.5000028533936
241,84,122658,1,0,0:0:0:0:
140,154,122829,2,0,P|116:229|162:328,1,187.000005706787
128,44,123343,2,0,P|87:32|61:30,1,63.7500024318696
274,290,124029,5,0,0:0:0:0:
361,173,124200,2,0,L|396:362,1,187.000005706787
484,251,124715,1,0,0:0:0:0:
274,290,124886,6,0,P|218:290|182:274,2,93.5000028533936
102,328,125400,1,0,0:0:0:0:
248,176,125572,2,0,P|162:163|80:227,1,187.000005706787
358,212,126086,2,0,P|382:163|383:113,1,93.5000028533936
163,164,126429,6,0,L|185:369,1,187.000005706787
52,190,126943,2,0,L|66:94,2,93.5000028533936
187,48,127458,1,0,0:0:0:0:
297,118,127629,6,0,P|408:112|467:193,1,187.000005706787
223,202,128143,1,0,0:0:0:0:
358,212,128315,2,0,L|344:322,1,93.5000028533936
191,104,128658,1,0,0:0:0:0:
252,296,128829,2,0,L|267:359,1,63.7500024318696
260,38,129515,5,0,0:0:0:0:
71,128,129686,2,0,P|143:112|237:186,1,187.000005706787
118,312,130200,2,0,P|118:246|137:218,1,93.5000028533936
335,102,130543,5,0,0:0:0:0:
171,138,130715,1,0,0:0:0:0:
424,169,130886,1,0,0:0:0:0:
268,187,131058,1,0,0:0:0:0:
262,214,131143,1,0,0:0:0:0:
256,241,131229,1,0,0:0:0:0:
250,268,131315,1,0,0:0:0:0:
245,295,131400,1,0,0:0:0:0:
239,322,131486,1,0,0:0:0:0:
233,349,131572,2,0,P|199:297|170:274,1,93.5000028533936
426,104,131915,6,0,P|365:156|345:268,1,187.000005706787
207,109,132429,2,0,P|181:68|144:38,2,93.5000028533936
322,30,132943,1,0,0:0:0:0:
250,198,133115,6,0,P|163:227|74:193,1,187.000005706787
359,108,133629,1,0,0:0:0:0:
441,232,133800,2,0,L|466:136,2,93.5000028533936
344,330,134315,2,0,L|336:253,1,63.7500024318696
207,55,135000,5,0,0:0:0:0:
3,128,135172,2,0,P|92:165|174:128,1,187.000005706787
89,48,135686,1,0,0:0:0:0:
279,213,135858,6,0,P|271:163|241:118,2,93.5000028533936
370,52,136372,1,0,0:0:0:0:
448,168,136543,2,0,L|422:354,1,187.000005706787
296,130,137058,2,0,L|309:228,1,93.5000028533936
79,225,137400,6,0,P|169:233|231:319,1,187.000005706787
1,161,137915,2,0,P|56:125|103:124,2,93.5000028533936
113,342,138429,1,0,0:0:0:0:
254,219,138600,6,0,B|215:217|187:243|187:243|138:207|75:225,1,187.000005706787
253,318,139115,1,0,0:0:0:0:
208,59,139286,2,0,L|179:156,2,93.5000028533936
374,213,139800,2,0,P|364:168|352:139,1,63.7500024318696
102,227,140486,5,0,0:0:0:0:
223,144,140658,2,0,L|35:121,1,187.000005706787
209,248,141172,2,0,L|304:236,1,93.5000028533936
419,63,141515,6,0,P|438:115|407:193,1,127.500004863739
236,179,142029,2,0,P|271:136|354:124,1,127.500004863739
429,275,142543,2,0,P|374:265|331:219,1,95.6250036478044
327,214,142886,1,0,0:0:0:0:
111,306,143743,5,0,0:0:0:0:
38,233,143915,2,0,L|30:132,2,85
226,187,144943,2,0,P|235:119|115:93,1,212.5
166,145,145972,6,0,L|172:247,1,85
177,313,146486,1,0,0:0:0:0:
281,193,146658,2,0,L|274:248,1,42.5
380,125,147000,2,0,L|386:227,2,85
441,268,148372,6,0,B|399:309|316:309|316:226|233:226|192:268,1,255
251,329,149572,1,0,0:0:0:0:
384,209,149743,2,0,L|380:125,2,85
287,37,150772,2,0,L|278:83,1,42.5
261,158,151115,6,0,L|243:250,2,85
65,105,152143,1,0,0:0:0:0:
222,272,152486,2,0,P|246:196|96:210,1,297.5
173,213,153858,6,0,P|228:193|379:223,1,212.5
451,177,154886,2,0,P|458:148|444:92,2,85
280,149,155915,2,0,L|378:138,1,85
251,310,156600,6,0,B|213:306|199:276|199:276|131:293|76:228|102:162|140:137|184:136,1,297.5
181,208,157972,2,0,P|229:179|202:73,2,170
439,110,160372,6,0,L|433:162,1,42.5
320,66,160715,2,0,L|326:118,1,42.5
220,112,161058,2,0,L|208:216,2,85
145,54,161915,1,0,0:0:0:0:
91,187,162086,6,0,L|79:138,1,42.5
157,234,162429,2,0,L|179:188,1,42.5
183,307,162772,2,0,L|275:266,1,85
484,133,163458,6,0,B|447:175|396:183|351:168|325:130|319:107|319:107|305:62|258:46|222:64|204:97,1,340
149,275,170315,5,0,0:0:0:0:
