osu file format v14

[General]
AudioFilename: Four Year Strong - Men Are From Mars, Women Are From Hell.mp3
AudioLeadIn: 0
PreviewTime: -1
Countdown: 1
SampleSet: Normal
StackLeniency: 0.7
Mode: 0
LetterboxInBreaks: 1
WidescreenStoryboard: 0

[Editor]
DistanceSpacing: 1.1
BeatDivisor: 16
GridSize: 8
TimelineZoom: 1.4

[Metadata]
Title:Men Are From Mars, Women are from Hell
TitleUnicode:Men Are From Mars, Women are from Hell
Artist:Four Year Strong
ArtistUnicode:Four Year Strong
Creator:HaGi55
Version:Insane
Source:
Tags:
BeatmapID:711483
BeatmapSetID:319689

[Difficulty]
HPDrainRate:5
CircleSize:3
OverallDifficulty:5
ApproachRate:5
SliderMultiplier:1.6
SliderTickRate:3

[Events]
//Background and Video events
0,0,"tumblr_nm6vloT4SE1r5vablo1_500.jpg",0,0
//Break Periods
//Storyboard Layer 0 (Background)
//Storyboard Layer 1 (Fail)
//Storyboard Layer 2 (Pass)
//Storyboard Layer 3 (Foreground)
//Storyboard Sound Samples

[TimingPoints]
4,638.297872340426,3,1,0,100,1,0

[Colours]
Combo1 : 0,0,128
Combo2 : 255,255,255
Combo3 : 0,128,128
Combo4 : 239,171,171

[HitObjects]
0,40,283,5,0,1:1:0:0:
56,40,442,1,0,1:1:0:0:
120,40,602,1,0,1:1:0:0:
56,136,761,5,0,1:1:0:0:
112,136,921,1,2,1:1:0:0:
168,136,1081,1,0,1:1:0:0:
112,240,1240,5,0,1:1:0:0:
168,240,1400,1,0,0:0:0:0:
224,240,1559,1,0,1:1:0:0:
336,240,1719,5,0,0:0:0:0:
392,240,1894,1,0,1:1:0:0:
448,240,2054,1,0,1:1:0:0:
328,144,2214,5,2,1:1:0:0:
272,144,2373,1,0,0:0:0:0:
216,144,2533,1,0,1:1:0:0:
312,48,2676,2,0,L|368:48|368:48,1,50
362,48,3035,5,0,0:0:0:0:
192,48,3195,2,0,L|136:48,1,50
40,80,3554,1,0,0:0:0:0:
56,160,3714,1,0,0:0:0:0:
112,224,3873,1,0,0:0:0:0:
216,64,4033,1,0,0:0:0:0:
232,176,4192,1,0,0:0:0:0:
56,160,4352,5,0,0:0:0:0:
40,64,4512,1,0,0:0:0:0:
128,64,4671,1,0,0:0:0:0:
216,64,4831,1,0,0:0:0:0:
312,88,4990,1,0,0:0:0:0:
376,152,5150,1,0,0:0:0:0:
384,240,5309,1,0,0:0:0:0:
288,280,5469,6,0,L|264:248,1,40
160,272,5788,1,0,0:0:0:0:
200,144,5948,2,0,L|240:120,1,40
320,80,6267,1,0,0:0:0:0:
416,32,6426,1,0,0:0:0:0:
376,152,6586,1,0,0:0:0:0:
456,96,6745,1,0,0:0:0:0:
248,176,6905,1,0,0:0:0:0:
384,104,7065,2,0,L|368:64,1,40
248,72,7384,1,0,0:0:0:0:
152,56,7543,5,0,0:0:0:0:
288,32,7703,1,0,0:0:0:0:
152,56,7863,1,0,0:0:0:0:
56,96,8021,1,0,0:0:0:0:
56,192,8181,1,0,0:0:0:0:
152,232,8340,1,0,0:0:0:0:
248,176,8499,1,0,0:0:0:0:
152,136,8659,5,0,0:0:0:0:
248,176,8819,1,0,0:0:0:0:
56,96,8978,1,0,0:0:0:0:
152,56,9139,1,0,0:0:0:0:
288,32,9299,1,0,0:0:0:0:
152,232,9458,1,0,0:0:0:0:
56,192,9618,1,0,0:0:0:0:
152,136,9778,5,0,0:0:0:0:
248,96,9937,1,0,0:0:0:0:
56,192,10097,1,0,0:0:0:0:
336,72,10256,2,0,L|432:64,1,90
424,184,10775,2,0,L|392:216,1,40
296,208,11094,2,0,L|256:232,1,40
168,264,11413,1,0,0:0:0:0:
344,160,11573,5,0,0:0:0:0:
425,64,11732,1,0,0:0:0:0:
248,96,11892,1,0,0:0:0:0:
104,184,12052,1,0,0:0:0:0:
80,64,12211,1,0,0:0:0:0:
248,96,12371,1,0,0:0:0:0:
425,64,12530,1,0,0:0:0:0:
248,144,12690,1,0,0:0:0:0:
336,56,12849,5,0,0:0:0:0:
336,176,13009,1,0,0:0:0:0:
232,232,13169,2,0,L|256:272,1,40
144,240,13487,2,0,L|120:200,1,40
168,80,13806,1,0,0:0:0:0:
48,264,13966,1,0,0:0:0:0:
48,120,14125,2,0,L|128:112,1,80
336,56,14604,5,0,0:0:0:0:
336,176,14763,1,0,0:0:0:0:
