osu file format v5

[General]
AudioFilename: 03 abandon ship or abandon all hope.mp3
AudioLeadIn: 0
PreviewTime: -1
Countdown: 0
SampleSet: Normal
StackLeniency: 0.7
Mode: 0
LetterboxInBreaks: 1
EditorBookmarks: 15308,46514,56728,100986,194528
EditorDistanceSpacing: 0.800000011920929

[Metadata]
Title:Abandon Ship Or Abandon All Hope
Artist:Four Year Strong
Creator:650poik
Version:Insane
Source:
Tags:

[Difficulty]
HPDrainRate:7
CircleSize:5
OverallDifficulty:8
SliderMultiplier:2.1
SliderTickRate:2

[Events]
//Background and Video events
//Break Periods
2,46714,53870
2,56280,56302
2,79463,79648
2,112859,113361
2,134744,139144
2,173653,178377
//Storyboard Layer 0 (Background)
//Storyboard Layer 1 (Failing)
//Storyboard Layer 2 (Passing)
//Storyboard Layer 3 (Foreground)
//Storyboard Sound Samples
//Background Colour Transformations
3,100,163,162,255

[TimingPoints]
1119,324.324324324324,4,2,0,100,1,0
15388,324.324324324324,4,1,0,100,1,0
20575,324.324324324324,4,2,0,100,1,0
26087,324.324324324324,4,1,0,100,1,0
56890,324.324324324324,4,1,0,100,1,1
62077,324.324324324324,4,1,0,100,1,0
77642,324.324324324324,4,2,0,100,1,0
80235,324.324324324324,4,1,0,100,1,0
113948,324.324324324324,4,1,0,100,1,1
119142,324.324324324324,4,1,0,100,1,0
139261,324.324324324324,4,2,0,77,1,0
144778,324.318750013512,4,1,0,100,1,0
162948,324.324324324324,4,2,0,100,1,0
173965,324.318750013512,4,1,0,100,1,0
194406,324.328750013512,4,2,0,100,1,0

[HitObjects]
48,96,1279,1,0
80,96,1360,1,0
112,96,1441,1,0
144,208,1928,1,0
176,208,2009,1,0
208,208,2090,1,0
200,136,2576,1,0
232,136,2657,1,0
264,136,2738,1,0
128,272,3225,1,0
160,272,3306,1,0
192,272,3387,1,0
168,200,3873,1,0
200,200,3955,1,0
232,200,4036,1,0
272,264,4199,5,4
312,224,4362,2,6,B|328:152|304:112|192:104|192:104|240:48|296:32,1,315
360,88,5171,1,0
416,152,5333,2,0,B|416:216|416:216|384:264,1,105,8|2
344,312,5657,1,2
264,344,5819,2,2,B|208:336|160:304|240:288|232:264|208:224|120:224,1,210,2|4
126,269,6468,1,4
126,298,6549,1,4
126,331,6630,1,8
48,136,7116,6,4,B|96:88,1,52.5
85,98,7279,1,8
136,72,7441,1,0
232,56,7765,1,0
288,48,7927,2,0,B|312:32|344:24|400:56,1,105,8|0
432,72,8251,2,0,B|440:136|440:136|432:152|432:152|408:192,1,105
384,208,8576,1,8
336,248,8738,6,0,B|280:272|280:272|224:264|224:264|216:248|208:232|192:232|176:240|144:280,1,210
120,296,9224,1,8
152,328,9386,1,0
192,336,9549,2,2,B|248:336,2,52.5
280,336,9873,1,8
336,336,10035,2,0,B|384:304|408:240|400:184|368:144,1,210
336,128,10521,1,8
288,120,10684,2,0,B|176:120,1,105
136,120,11008,1,0
104,160,11170,1,8
112,208,11332,1,0
208,120,11656,5,0
208,152,11738,1,0
208,184,11819,1,8
264,64,12305,6,2,B|328:64,2,52.5,0|0|0
232,72,12548,1,0
256,104,12629,2,0,B|296:152|296:152|304:176|296:208|280:248|288:256|288:256|336:272,1,210
360,256,13116,1,8
392,224,13278,1,0
408,184,13440,2,0,B|456:152|456:152|408:128,1,105
384,120,13764,1,8
344,136,13926,1,0
280,144,14089,5,8
232,144,14251,1,0
184,144,14413,1,0
184,88,14575,2,0,B|304:88,1,105,0|8
232,32,14902,1,4
64,40,15227,1,2
104,152,15548,5,0
144,176,15710,2,0,B|216:176|232:184|256:208|248:232|216:248|120:240,1,210,0|8
104,264,16196,1,0
200,304,16521,1,0
256,240,16845,1,0
280,208,16926,1,0
304,176,17007,2,0,B|336:120|352:112|376:128|392:152|400:192|392:240|392:240|392:264,1,210,0|8
456,248,17494,1,0
456,208,17575,1,0
456,168,17656,2,0,B|456:104,1,52.5
456,88,17818,2,0,B|424:40|424:40|368:32|320:72|312:88|312:88|264:88,1,210
232,96,18304,2,0,B|176:80|176:80|104:120,1,105
96,128,18629,1,8
104,168,18791,2,0,B|168:256,1,105
200,232,19117,2,0,B|224:192|224:192|256:176|288:168|352:176|400:208,1,210
352,248,19603,1,0
312,280,19765,1,0
368,296,19927,1,8
320,328,20089,1,0
368,344,20252,2,0,B|432:360|432:360|456:320,1,90,8|0
456,280,20575,6,0,B|488:224|488:224|456:192|456:192|400:184|400:184|384:128,1,210
368,112,21223,1,8
320,120,21385,1,0
352,168,21709,2,0,B|384:216|384:216|376:248|376:248|344:272|344:272|296:280|296:280|248:264,1,210
266,270,22115,1,0
266,270,22196,1,0
264,216,22358,1,0
240,168,22520,1,8
192,144,22682,2,0,B|168:176|168:184|224:200|224:360,1,210
160,344,23331,5,0
144,296,23493,1,0
128,248,23655,1,0
112,200,23817,1,8
104,152,23979,2,0,B|96:112|112:96|144:48|208:32|240:120,1,210
184,136,24628,1,0
176,184,24790,1,0
224,176,24952,1,0
208,224,25114,1,8
216,272,25276,1,0
256,240,25438,1,8
256,288,25600,2,0,B|240:304|264:352|352:344|400:304|424:248,1,210
480,224,26087,6,0,B|496:200|480:160|440:128|416:256|304:184,1,210
248,184,26735,1,0
296,128,26897,2,0,B|328:96|320:64|288:32|232:24|192:48|216:104,1,210
164,151,27383,1,0
80,128,27546,1,0
89,212,27708,1,2
126,290,27870,2,2,B|158:330|158:330|214:330,1,105
292,330,28194,1,2
369,302,28356,5,2
256,128,28680,1,10
440,72,29005,1,2
56,56,29329,1,10
96,232,29653,1,2
280,280,29977,1,10
351,255,30140,1,10
456,88,30464,1,10
264,88,30788,6,0,B|208:64|176:72|144:96|160:128|184:184|296:200|368:256|360:312|384:376|192:320,1,525,4|2
168,248,31761,1,8
88,280,31923,1,0
40,216,32085,2,0,B|24:160|24:120|56:64|152:56,1,210,2|0
120,160,32734,1,2
192,88,33058,1,0
344,88,33382,1,2
408,120,33544,5,2
408,264,33868,1,10
352,312,34032,1,2
192,304,34357,1,2
272,176,34681,1,2
152,96,35005,1,2
32,200,35330,1,2
80,344,35654,1,2
232,216,36138,5,2
328,88,36462,1,8
392,136,36625,1,0
440,216,36787,2,2,B|328:248,1,105,2|2
448,312,37111,1,8
232,216,37435,5,2
128,88,37759,1,8
64,136,37922,1,0
32,216,38084,2,2,B|136:240,1,105,2|2
64,312,38408,1,8
160,312,38570,1,0
240,304,38732,6,2,B|280:264|328:312,1,90
408,336,39056,1,8
440,248,39219,1,0
440,248,39300,1,0
440,248,39384,1,2
368,248,39543,1,2
368,168,39705,1,8
440,168,39867,1,0
288,168,40029,5,2
208,168,40191,1,2
208,240,40353,1,8
288,240,40516,1,0
288,240,40597,1,0
288,240,40678,1,2
248,312,40840,1,2
176,344,41002,1,8
96,328,41164,1,0
48,264,41326,2,4,B|16:168|16:168|64:64,1,210,4|12
144,96,42299,5,4
384,32,42623,1,6
376,256,43110,1,4
120,320,43434,1,6
256,192,43596,12,0,46514
152,216,54620,5,4
208,128,54783,1,4
312,128,54945,1,4
256,216,55107,1,4
360,216,55269,1,4
56,48,55593,1,4
424,48,55917,1,4
424,152,56080,1,4
56,136,57052,5,0
144,96,57214,1,8
224,144,57377,1,0
144,192,57539,1,8
224,232,57701,1,0
144,280,57863,1,8
224,328,58025,1,0
304,280,58187,1,8
312,192,58349,2,0,B|352:128|352:128|416:144,1,105,2|8
448,200,58674,1,0
456,296,58836,1,8
392,368,58998,1,0
360,280,59160,1,8
304,360,59322,1,0
264,272,59484,1,8
320,200,59646,1,0
416,200,59808,1,8
448,112,59971,1,0
360,80,60133,1,8
264,88,60295,1,2
208,168,60457,1,8
160,248,60619,1,0
176,344,60781,2,8,B|112:328|56:296|40:240|40:192|80:136|144:120,1,315,0|0
216,88,61430,2,0,B|224:56|184:32|128:16|112:16|88:32|32:80,1,210,8|0
136,104,61916,1,0
424,72,62402,5,2
96,56,62727,1,10
224,184,63051,1,2
304,152,63213,1,2
424,296,63537,1,10
360,352,63699,1,0
272,360,63862,1,2
192,328,64024,1,8
72,120,64348,1,0
152,96,64510,1,0
344,80,64833,6,0,B|456:80,1,105,0|8
424,160,65158,5,0
344,184,65321,1,8
264,208,65483,1,0
272,264,65807,2,0,B|344:240|376:224|448:208|480:248,1,210,0|8
440,320,66293,1,0
358,339,66455,1,0
277,351,66617,1,0
193,342,66779,1,0
114,311,66941,1,0
60,245,67104,6,0,B|12:197|12:197|20:133|52:101|52:101|108:93,1,210
172,95,67590,1,8
360,80,67915,1,0
427,130,68077,1,0
435,213,68239,1,8
288,256,68563,1,0
231,194,68725,1,0
142,172,68887,1,8
61,196,69049,1,0
30,274,69212,1,0
93,328,69374,1,0
172,252,69698,2,0,B|260:276|316:284|348:316|364:340|428:364|468:340,1,315,0|8
465,256,70346,1,0
472,56,70671,1,0
256,56,70995,1,0
48,88,71319,5,2
122,126,71481,1,10
48,168,71643,1,2
120,216,71806,1,10
192,168,71968,1,2
264,216,72130,1,10
192,264,72292,1,6
256,192,72373,12,0,72778
256,192,73103,5,2
256,192,73427,1,2
256,192,73589,1,2
256,192,73913,1,2
256,192,74237,1,2
320,136,74400,1,0
376,80,74560,1,0
456,40,74886,2,0,B|456:368,1,315
376,328,75534,1,0
64,328,76183,5,0
64,240,76345,1,0
256,328,76831,1,0
256,240,76994,1,0
424,240,77318,1,4
424,328,77480,1,4
344,280,77966,5,0
432,80,78290,2,0,B|320:80,1,105
248,80,78776,1,0
248,248,79101,1,4
248,248,79182,1,0
248,248,79263,1,0
448,264,80398,5,2
448,176,80560,1,8
280,176,80884,1,0
448,352,81208,2,0,B|312:352,1,105,8|0
224,352,81694,1,2
136,352,81856,1,8
32,176,82180,2,0,B|32:64,1,105
112,176,82505,2,0,B|112:64,1,105,8|0
328,72,82991,1,0
400,24,83153,1,10
448,88,83315,2,0,B|384:184,1,105,0|2
344,240,83639,1,0
280,288,83801,1,10
200,304,83963,2,0,B|192:320|192:352|152:368|104:368|40:352|48:264,1,210,0|0
120,256,84450,1,10
48,208,84612,1,0
48,120,84774,1,2
184,88,85098,1,10
184,88,85260,1,0
256,192,85341,12,0,86233
424,72,86557,5,2
456,224,86882,1,2
344,336,87206,1,2
176,352,87530,1,2
64,264,87854,2,2,B|40:240|24:208|32:160|32:136|56:112|120:120,1,210
232,160,88341,1,8
304,160,88503,1,0
376,160,88665,2,2,B|376:280,4,105
376,72,89476,1,8
304,32,89638,1,8
216,32,89800,1,4
144,72,89962,1,4
96,192,90286,1,4
256,192,90610,5,0
408,192,90935,1,0
416,336,91259,2,0,B|408:312|368:280|320:272|256:288|240:304|232:368,1,210,10|0
72,352,91907,2,0,B|32:328|8:280|8:240|40:192|80:176,1,210
136,144,92394,1,0
264,40,92718,5,0
344,56,92880,2,0,B|440:104,1,105
488,168,93204,1,2
448,240,93367,2,0,B|344:312,1,105
288,344,93691,1,0
200,352,93853,2,0,B|200:368|192:368|184:376|144:384|88:360|56:328|112:256,1,210,10|0
160,192,94339,1,2
184,80,94664,1,2
224,80,94745,1,2
264,80,94826,1,8
344,80,94988,1,0
432,80,95150,2,2,B|432:200,3,105
432,216,95719,1,0
432,256,95800,1,0
256,192,96123,1,0
32,160,96447,6,0,B|32:232|40:240|80:256,1,105,10|0
144,288,96771,1,0
264,320,97095,1,2
384,288,97420,1,0
408,208,97582,1,2
392,128,97744,1,10
328,72,97906,1,6
246,52,98068,1,4
169,77,98230,1,4
256,192,98311,12,0,100986
40,80,101473,5,0
97,237,101797,2,0,B|137:197|145:197|185:245,1,105
242,295,102121,1,0
360,200,102446,1,10
448,48,102770,5,0
360,48,102932,1,0
272,48,103094,1,0
424,176,103418,1,2
256,296,103905,1,2
176,272,104067,1,0
120,208,104229,1,10
128,120,104391,1,0
296,104,104715,1,2
320,184,104877,1,0
288,264,105040,1,8
136,136,105364,5,2
72,192,105526,2,2,B|64:216|80:248|120:288|168:328|224:336,1,210,8|10
288,304,106012,2,0,B|312:320|320:328|360:344|416:336|464:328|496:304|512:256|512:216|512:176,1,315,2|0
440,144,106661,1,2
368,104,106823,1,10
368,184,106985,1,2
296,144,107147,1,2
184,216,107471,1,2
328,296,107796,1,2
256,192,107877,12,0,108606
72,88,109093,5,0
152,88,109255,1,0
232,88,109417,1,2
272,88,109498,1,2
312,88,109579,1,8
392,96,109741,2,0,B|376:176|336:216|272:240|216:248,1,210,2|8
216,240,110146,1,2
176,240,110228,1,8
88,240,110390,1,0
88,152,110552,1,2
96,328,110876,2,0,B|120:304|144:296|200:344,2,105,10|0|10
288,320,111525,5,10
360,280,111687,1,0
360,192,111849,1,0
360,104,112011,1,10
360,104,112092,1,8
360,104,112173,1,0
272,104,112335,1,6
184,104,112497,1,4
228,175,112659,1,14
56,128,114111,5,2
56,128,114273,1,8
160,128,114436,1,0
160,128,114598,1,8
104,216,114760,1,0
104,216,114922,1,8
200,264,115084,1,0
200,264,115246,1,8
256,176,115408,2,0,B|296:112|296:112|360:128,1,105,2|8
328,120,115733,1,0
328,224,115895,1,8
328,224,116057,1,0
408,288,116219,1,8
408,288,116381,1,0
304,320,116543,1,8
304,320,116705,1,2
200,336,116867,1,8
200,336,117030,1,0
208,232,117192,1,8
112,280,117354,1,0
32,208,117516,1,8
112,136,117678,1,2
184,208,117840,2,8,B|272:216|216:184|200:128|200:80|240:24|360:24,1,315,0|0
344,128,118489,2,0,B|528:192|488:168|432:152|488:248|520:272|488:288,1,210,8|0
392,280,118975,1,0
88,56,119467,5,2
384,72,119792,1,10
120,176,120116,1,2
192,216,120278,1,2
424,304,120602,1,14
352,347,120764,1,0
268,356,120926,1,2
185,339,121089,1,12
352,240,121413,1,0
283,192,121575,1,0
48,144,121899,1,8
85,68,122061,1,2
161,33,122223,1,0
243,51,122386,1,10
313,96,122548,1,0
168,136,122872,1,0
120,240,123196,5,8
144,272,123277,1,0
176,288,123358,1,2
216,288,123439,1,0
248,296,123520,2,0,B|296:256,3,52.5
280,320,123845,1,2
304,344,123926,1,0
336,360,124007,1,0
368,360,124088,1,0
400,352,124169,1,0
472,288,124493,5,0
420,221,124655,1,10
358,163,124817,1,0
274,149,124980,2,0,B|250:141|242:141|218:141|186:141|138:141|106:149|58:173,1,210,2|8
61,251,125466,1,2
256,256,125790,2,0,B|224:360,1,105,0|8
304,328,126114,1,2
336,256,126277,1,2
296,184,126439,1,2
216,192,126763,2,0,B|208:208|184:208|168:176|160:104|200:64|264:48|336:40|344:168,1,315,4|8
424,152,127411,1,2
328,32,127736,1,2
176,56,128060,1,2
72,152,128384,6,0,B|48:160|40:176|48:216|88:232,1,105,4|8
136,296,128708,1,0
208,344,128871,1,10
288,344,129033,1,0
352,296,129195,1,10
424,248,129357,2,0,B|448:216|432:200|400:184|376:152|376:112|424:96|456:64,1,210,4|0
368,48,129843,5,2
80,64,130168,1,10
320,208,130492,1,6
240,232,130654,1,6
64,344,130978,1,10
232,56,131302,1,0
304,96,131465,6,0,B|304:144|312:152|400:120,1,105,8|0
456,40,131951,2,0,B|456:360,1,315
368,344,132599,1,8
248,344,132924,1,0
48,344,133248,1,8
56,256,133410,2,0,B|56:192|56:152|136:136|208:144|232:208|216:264|216:264|256:256,1,315,4|2
320,256,134059,1,8
432,80,134383,1,4
432,80,134545,1,4
456,72,139909,5,6
368,72,140072,1,0
280,72,140234,1,0
208,112,140396,1,2
280,152,140558,1,8
208,200,140720,1,0
280,240,140882,1,0
208,280,141044,1,2
128,240,141206,5,2
128,152,141369,1,0
128,64,141531,1,2
56,112,141693,1,2
56,192,141855,1,8
56,272,142017,1,2
128,320,142179,1,0
208,352,142341,1,2
288,320,142503,5,2
352,264,142665,1,0
272,232,142827,1,0
280,144,142989,1,2
352,184,143151,1,8
352,96,143314,1,0
280,56,143476,1,0
208,96,143638,1,2
200,176,143800,5,8
272,224,143962,1,2
344,176,144124,1,2
272,128,144286,1,2
272,176,144450,1,4
40,64,145102,6,0,B|80:120|96:120|128:32,2,105,2|0|2
40,176,145750,1,8
40,288,146075,1,0
144,288,146399,2,0,B|208:272|224:280|224:296|240:344,2,105,2|0|2
144,176,147048,1,8
144,56,147372,1,0
240,56,147696,5,2
320,56,147859,1,8
320,136,148021,1,2
400,136,148183,1,0
360,208,148345,1,8
272,208,148507,1,0
232,136,148669,2,0,B|192:120|168:144|152:160|112:160,1,105,8|8
136,240,148994,2,4,B|104:240|72:256|64:320|96:376|160:392|224:344|240:296|240:296|280:288,1,315
432,56,149804,1,0
344,56,149967,1,8
256,56,150129,1,0
88,96,150453,1,2
64,280,150777,1,0
136,240,150940,1,8
216,232,151102,1,0
344,344,151426,1,2
376,184,151750,1,0
344,104,151913,1,8
272,56,152075,1,0
256,192,152156,12,0,153534
392,96,153711,5,0
320,48,153873,1,8
232,40,154035,1,8
152,72,154197,1,4
128,152,154359,2,2,B|184:152,4,52.5
128,232,154846,1,0
184,288,155008,1,0
216,304,155089,1,0
248,304,155170,1,2
280,304,155251,1,0
312,312,155332,1,0
344,336,155413,1,0
368,360,155494,1,2
472,312,155804,5,0
472,224,155966,1,0
408,160,156129,1,10
256,24,156453,1,0
192,88,156629,1,0
104,88,156791,1,2
152,152,156953,1,8
64,152,157116,1,2
104,224,157278,1,0
16,224,157440,1,10
72,328,157750,5,0
152,304,157912,1,0
208,368,158075,1,2
264,304,158237,1,8
208,240,158399,1,2
264,176,158561,1,0
264,176,158723,1,10
392,80,159048,5,0
392,80,159210,1,0
392,80,159372,1,10
264,80,159696,5,0
264,80,159858,1,0
264,80,160020,2,0,B|264:200,1,105,10|2
128,200,160507,1,0
64,256,160669,1,0
224,304,160993,5,0
464,56,161331,6,0,B|336:56,1,105,8|0
424,136,161655,2,0,B|304:136,1,105,8|0
416,216,161980,1,8
256,216,162304,1,0
256,80,162628,1,12
48,80,163109,5,0
40,256,163433,1,0
120,256,163595,2,0,B|232:256,1,105
304,256,163919,2,0,B|328:248|336:232|336:200|328:168|288:168,1,105
224,168,164243,1,0
136,168,164405,2,0,B|128:184|64:184|24:136|24:80|96:64|144:88,1,210
168,80,164810,1,0
200,80,164890,1,0
360,168,165214,5,8
464,128,165376,5,0
448,96,165457,1,0
416,72,165538,1,0
384,56,165623,1,0
352,48,165704,2,0,B|224:48,1,105
208,104,166022,1,0
168,176,166185,1,0
128,248,166348,1,0
168,176,166510,1,8
208,104,166672,2,0,B|240:112|272:120|288:176,1,105
360,192,166995,2,0,B|384:200|400:224|416:256|416:296|368:328|304:328,1,210
224,328,167481,1,0
136,328,167643,1,0
184,256,167805,2,0,B|232:216,2,52.5
184,256,168129,1,8
104,224,168291,5,4
144,56,168615,1,0
224,56,168776,1,0
304,56,168938,1,0
384,56,169100,2,0,B|440:80|440:88|392:136,1,105,8|0
352,200,169424,1,0
408,264,169586,1,0
248,320,169910,1,0
248,320,169991,1,0
248,320,170072,1,0
352,184,170401,1,8
248,184,170563,2,0,B|248:160|240:144|224:136,3,52.5
200,128,170881,2,0,B|176:128|168:160|192:176|208:232|184:280|104:240|72:208,1,210
64,136,171367,2,0,B|64:16,1,105
144,32,171691,2,0,B|264:32,1,105,8|0
328,32,172015,1,0
280,96,172177,1,0
208,144,172339,5,8
288,176,172500,1,2
224,232,172662,1,2
272,304,172824,1,2
320,240,172986,2,0,B|376:120,1,105,8|4
272,216,173472,1,0
360,64,179157,5,2
88,64,179481,1,10
88,144,179643,1,0
96,224,179805,1,2
144,288,179967,1,2
312,320,180292,1,10
392,336,180454,1,0
408,256,180616,1,2
424,176,180778,1,8
368,32,181102,5,0
280,24,181264,1,0
80,56,181589,1,10
152,88,181751,1,2
224,128,181913,1,0
240,208,182075,2,0,B|256:232|264:272|240:288|208:296,1,105,8|0
96,280,182561,2,0,B|72:224|56:184|72:160|144:168|168:176|192:224,2,210
248,352,183534,1,8
416,328,183859,1,0
272,240,184183,5,0
352,240,184345,1,8
424,200,184507,1,0
464,120,184669,1,2
392,72,184831,1,0
344,136,184994,1,8
408,184,185156,1,0
344,240,185318,1,2
280,176,185480,1,0
280,88,185642,1,8
344,40,185804,1,0
280,0,185966,1,2
208,40,186129,1,0
176,120,186291,1,8
208,200,186453,1,4
280,304,186777,5,0
192,304,186939,1,12
104,304,187101,1,4
104,304,187426,1,0
192,304,187588,1,12
280,304,187750,1,4
448,232,188074,1,4
448,144,188236,1,8
448,56,188398,1,4
376,104,188561,1,8
376,184,188723,1,4
376,264,188885,1,8
304,184,189047,1,6
256,40,189533,6,0,B|232:24|192:24|224:104|264:136|280:152|264:176|200:176,1,210,2|2
136,208,190020,1,8
208,248,190182,1,2
136,296,190344,1,2
256,120,190668,1,10
408,120,190991,1,2
336,200,191155,5,8
416,208,191317,2,0,B|448:216|456:240|448:296|368:328|312:304,1,210
256,192,192128,1,0
256,112,192290,1,8
256,192,192452,12,4,194235
56,48,194730,5,0
224,40,195054,2,0,B|256:64|272:104|232:144|216:144,1,105,8|0
56,48,195541,1,0
152,208,195865,1,0
184,208,195946,1,0
216,208,196027,1,0
296,208,196189,1,0
376,208,196351,1,8
416,136,196514,2,0,B|416:104|408:88|352:104|304:120|272:96|264:32,1,210
184,40,197162,1,0
96,40,197324,1,0
136,112,197487,1,0
208,160,197649,1,8
256,224,197811,2,0,B|280:240|288:272|224:304|152:272|136:248|136:224|136:184,1,210
48,200,198297,2,0,B|40:248|40:296|72:320|112:360|176:368|248:376|264:344,1,315
256,264,198946,2,0,B|248:184|216:136|96:120,1,210,8|0
40,120,199433,1,0
152,48,199919,5,0
216,48,200243,2,0,B|272:48|288:128|304:184|304:184|344:208,1,210,8|0
408,240,200730,1,0
328,288,201054,1,8
304,264,201135,1,0
280,240,201216,2,0,B|240:240|216:224|216:168|232:152,1,105
280,112,201536,5,8
336,48,201698,1,0
184,64,202022,1,0
72,96,202346,1,8
120,160,202509,1,0
72,232,202671,1,0
120,296,202833,1,8
200,312,202995,2,0,B|240:344|312:344|360:328|416:288,1,210
456,168,203644,1,8
400,104,203806,1,0
448,32,203968,1,0
352,32,204130,1,8
320,112,204292,1,0
256,56,204454,1,8
256,56,204616,1,8
48,104,204941,5,8
112,160,205103,1,4
464,104,205427,1,8
400,160,205589,1,4
