osu file format v5

[General]
AudioFilename: 03 abandon ship or abandon all hope.mp3
AudioLeadIn: 0
PreviewTime: -1
Countdown: 0
SampleSet: Soft
StackLeniency: 0.7
Mode: 0
LetterboxInBreaks: 1
EditorBookmarks: 15308,46514,56728,100986,194528
EditorDistanceSpacing: 0.800000011920929

[Metadata]
Title:Abandon Ship Or Abandon All Hope
Artist:Four Year Strong
Creator:650poik
Version:Hard
Source:
Tags:

[Difficulty]
HPDrainRate:5
CircleSize:5
OverallDifficulty:5
SliderMultiplier:1.7
SliderTickRate:2

[Events]
//Background and Video events
//Break Periods
2,46719,53427
2,56280,56302
2,79463,79648
2,112859,113361
2,134744,139144
2,173653,178377
//Storyboard Layer 0 (Background)
//Storyboard Layer 1 (Failing)
//Storyboard Layer 2 (Passing)
//Storyboard Layer 3 (Foreground)
//Storyboard Sound Samples
//Background Colour Transformations
3,100,163,162,255

[TimingPoints]
1119,324.324324324324,4,2,0,100,1,0
15388,324.324324324324,4,1,0,100,1,0
20575,324.324324324324,4,2,0,100,1,0
26087,324.324324324324,4,1,0,100,1,0
56890,324.324324324324,4,1,0,100,1,1
62077,324.324324324324,4,1,0,100,1,0
77642,324.324324324324,4,2,0,100,1,0
80235,324.324324324324,4,1,0,100,1,0
113948,324.324324324324,4,1,0,100,1,1
119142,324.324324324324,4,1,0,100,1,0
139261,324.324324324324,4,2,0,77,1,0
144778,324.318750013512,4,1,0,100,1,0
162948,324.324324324324,4,2,0,100,1,0
173965,324.318750013512,4,1,0,100,1,0
194406,324.328750013512,4,2,0,100,1,0

[HitObjects]
72,96,1281,2,0,B|128:96,2,42.5
72,168,1929,2,0,B|120:168,2,42.5
72,240,2578,2,0,B|120:240,2,42.5
160,240,3227,2,0,B|208:240,2,42.5
160,168,3875,2,0,B|208:168,2,42.5
160,80,4200,5,0
224,80,4362,2,0,B|272:80|304:120|248:176|248:240|304:248|368:216,1,255
496,224,5173,2,8,B|432:296,1,85,0|8
384,320,5497,1,0
320,336,5659,1,0
256,320,5821,2,0,B|304:232,1,85,0|8
232,224,6146,1,0
352,216,6470,1,0
352,216,6632,1,8
464,48,7118,5,0
400,80,7281,1,8
336,104,7443,1,0
200,72,7767,1,0
128,64,7929,1,8
72,104,8091,1,0
88,168,8254,1,0
136,216,8416,1,0
88,264,8578,1,8
32,304,8740,1,0
160,336,9064,6,0,B|232:264,1,85,0|8
200,208,9389,2,0,B|264:136,1,85
320,112,9713,2,8,B|424:104,1,85,0|8
440,176,10037,2,0,B|368:192|328:200|328:256|344:296,1,170
408,288,10524,1,8
368,344,10686,1,0
296,336,10848,1,0
248,288,11010,1,0
200,240,11173,1,8
144,200,11335,1,0
280,192,11659,1,0
280,192,11821,1,8
120,64,12308,6,0,B|224:64,2,85,0|8|0
40,176,12956,1,0
88,224,13118,1,8
152,248,13281,2,0,B|168:288|168:304|216:264,1,85
248,320,13605,1,8
312,344,13767,1,0
360,296,13929,1,0
424,280,14091,1,8
456,216,14254,2,0,B|480:168|448:128,1,85
400,88,14578,2,0,B|360:56|296:64,1,85,0|8
248,72,14902,1,6
400,320,15227,6,0,B|400:272|344:240|272:264|232:216|232:176|248:152,1,255
176,176,16036,1,8
120,136,16198,1,0
248,96,16523,2,0,B|272:136|288:208|264:256|208:272,1,170
176,288,17009,1,0
128,232,17171,1,0
48,256,17333,1,8
93,307,17496,1,0
32,184,17820,6,0,B|8:136|16:88|32:48|104:64,1,170
96,128,18306,1,0
152,88,18469,1,0
160,152,18631,1,8
216,112,18793,1,0
232,248,19117,6,0,B|288:248|320:224|336:184|320:136,1,170
384,104,19604,1,0
432,152,19766,1,0
384,200,19928,1,8
432,248,20090,1,0
384,296,20252,1,8
432,344,20415,1,8
360,352,20575,6,0,B|296:360|256:352|232:320|240:264,1,170
104,280,21223,1,8
56,232,21385,1,0
104,104,21710,1,0
224,72,22034,1,0
272,24,22196,1,0
328,56,22358,2,0,B|384:88|424:96|432:136|408:184,1,170
280,144,23007,5,0
152,192,23331,1,0
200,240,23493,2,0,B|208:288|272:296,1,85
328,304,23818,2,0,B|344:264|328:208,1,85,8|0
448,152,24304,2,0,B|448:96|416:56|360:40|312:32,1,170
272,32,24791,2,0,B|224:16|168:40,1,85
128,56,25115,2,0,B|88:96|88:152,1,85,8|0
96,200,25439,2,0,B|120:256|184:272,1,85,8|6
416,40,26087,5,0
280,40,26411,1,0
280,176,26735,1,0
280,240,26897,1,0
408,208,27222,2,0,B|408:312,1,85
408,360,27546,2,0,B|320:360,1,85,0|2
256,360,27870,1,2
184,360,28032,1,2
112,360,28195,1,2
112,288,28357,1,2
24,184,28681,1,2
72,56,29005,5,2
208,56,29330,1,2
344,64,29654,1,2
472,104,29978,1,2
464,168,30141,1,6
400,288,30465,1,4
264,296,30789,2,0,B|240:352|160:360|136:312|104:272,1,170,4|0
80,240,31276,1,8
24,112,31600,2,0,B|48:80|104:64,1,85
224,40,32086,2,0,B|336:48|368:56|400:88,1,170
408,208,32735,1,0
336,320,33059,1,0
200,328,33384,1,0
144,288,33546,2,0,B|64:264|48:232|40:200|40:160,1,170,0|8
32,112,34032,1,2
152,48,34357,5,2
288,32,34681,1,2
424,32,35005,1,2
288,32,35330,1,2
152,48,35654,1,2
56,104,36141,5,4
56,240,36465,2,0,B|144:240,4,85,8|8|0|0|8
408,240,37438,1,0
408,104,37762,2,0,B|288:104,4,85,8|8|0|0|8
280,104,38573,1,2
208,104,38735,1,2
144,136,38897,2,0,B|112:184|136:232,1,85,0|8
168,272,39222,1,0
232,288,39384,1,0
112,224,39708,5,8
72,168,39870,1,0
128,48,40195,1,0
192,48,40357,1,8
328,72,40681,1,0
392,88,40843,1,8
456,208,41168,1,0
400,248,41330,2,0,B|368:296|312:304|256:288|224:272,1,170,10|2
72,120,42303,5,4
184,48,42627,1,4
312,208,43114,1,2
312,344,43438,1,4
256,192,43519,12,0,46519
48,168,54627,6,2,B|120:104,1,85
184,80,54951,1,8
184,80,55114,1,8
184,80,55276,1,4
320,80,55600,1,4
416,176,55924,1,6
416,176,56086,1,8
96,232,57214,5,8
136,104,57538,1,8
96,232,57862,1,8
152,272,58025,1,2
216,296,58187,2,0,B|272:320|336:336|408:320|400:320,2,170,8|8|8
232,208,59160,2,8,B|288:200|336:208|376:224|392:248,2,170,8|8|8
232,120,60133,2,8,B|280:112|328:112|368:128|416:160,1,170
448,104,60619,1,2
392,64,60781,1,8
256,32,61106,1,8
184,32,61268,1,2
120,64,61430,1,8
80,192,61754,2,0,B|56:240|80:288,1,85,8|0
192,144,62401,6,0,B|224:112|272:96|328:112|352:160,2,170,0|8|0
232,200,63212,1,0
232,200,63536,1,0
232,200,63860,2,0,B|304:296,1,85,8|0
416,264,64347,1,2
416,192,64509,1,2
416,56,64833,2,8,B|312:56,1,85
208,56,65320,1,8
136,56,65482,1,4
40,152,65806,2,0,B|56:240|96:280|168:280,1,170
144,136,66455,2,0,B|184:232|272:272,1,170
280,128,67104,5,0
96,32,67590,2,0,B|56:72|40:112,1,85,8|0
56,232,68077,1,0
168,312,68401,1,0
304,312,68725,2,0,B|384:256,1,85
408,200,69049,1,0
360,152,69212,1,0
304,112,69374,1,0
168,96,69698,1,0
40,256,70185,2,8,B|128:304,1,85
280,296,70671,1,0
392,216,70995,1,0
64,64,71320,6,0,B|160:64,1,85,0|8
216,64,71644,1,0
280,64,71806,1,8
344,64,71968,1,0
344,128,72131,2,8,B|248:128,1,85
80,152,72779,5,2
160,264,73104,1,10
296,272,73428,1,0
248,224,73590,1,2
176,104,73914,1,2
96,216,74239,1,2
56,272,74401,1,8
64,336,74563,1,0
200,344,74887,2,0,B|480:344,1,255
456,272,75536,1,0
432,128,76185,6,0,B|320:176,1,85
280,120,76833,2,0,B|368:64,1,85
352,72,77320,2,0,B|352:168,1,85,0|4
456,320,77966,5,0
328,264,78290,2,8,B|224:256,1,85,8|0
120,240,78777,1,0
184,184,79101,2,0,B|232:184,2,42.5
440,312,80559,5,8
328,232,80883,1,0
432,144,81207,2,0,B|360:208,1,85,8|0
440,56,82343,6,0,B|336:56,1,85,0|8
288,56,82667,1,0
152,56,82991,1,0
48,144,83316,1,0
48,208,83478,2,0,B|48:304,1,85
48,360,83802,1,8
112,360,83964,1,0
232,288,84289,1,0
360,256,84613,1,0
424,232,84775,1,0
424,96,85099,1,6
352,96,85262,1,6
80,56,86235,5,2
192,136,86559,1,2
80,208,86883,1,2
192,280,87207,1,2
304,208,87532,1,2
328,72,87856,2,0,B|448:200,1,170,2|0
448,264,88343,1,8
440,328,88505,1,8
376,360,88667,2,0,B|280:360,3,85,0|0|8|8
224,360,89316,1,0
160,328,89478,1,0
128,264,89640,1,8
192,272,89802,1,8
248,304,89964,1,4
96,320,90289,1,4
80,72,90613,6,0,B|264:72,1,170
120,152,91262,6,0,B|304:152,1,170,8|0
168,240,91910,6,0,B|360:240,1,170
291,150,92559,6,0,B|111:151,1,170,8|0
40,40,93207,5,0
104,40,93370,1,0
168,40,93532,2,0,B|224:72|224:72|272:72,1,85
312,56,93856,2,0,B|312:112|272:144|216:160|192:136,1,170,8|0
120,136,94343,1,0
256,136,94667,2,0,B|248:192|248:192|216:224,1,85
152,232,94991,1,0
88,232,95153,1,8
120,296,95316,1,0
184,296,95478,1,0
216,232,95640,1,0
248,296,95802,1,4
192,168,96126,1,4
440,40,96451,6,0,B|336:40,1,85
288,40,96775,2,0,B|200:40|208:88|248:128|272:112|224:176,1,170
359,117,97424,1,0
409,161,97586,1,0
361,209,97748,1,8
312,161,97910,1,8
361,162,98072,1,10
256,192,98153,12,0,100991
64,40,101478,5,0
200,40,101802,2,0,B|304:40,1,85
336,88,102126,1,0
256,200,102451,1,8
64,296,102775,2,0,B|168:296,2,85
112,240,103424,1,0
232,304,103910,1,0
344,232,104234,1,8
344,232,104397,1,2
344,232,104721,2,0,B|376:192|376:152|336:104|280:112,1,170,2|4
344,232,105370,1,0
400,272,105532,1,0
424,136,105856,1,0
424,64,106018,1,0
288,40,106343,2,0,B|224:120,1,85,2|8
192,40,106667,2,0,B|128:120,1,85,2|8
96,40,106991,2,0,B|32:112,1,85,2|8
56,240,107478,1,0
168,320,107802,1,0
168,320,107964,1,4
256,192,108045,12,0,108613
416,328,109099,5,0
416,256,109262,1,0
416,184,109424,1,8
344,184,109586,1,0
416,184,109748,1,0
416,256,110072,1,0
416,328,110397,1,8
416,328,110559,1,0
280,328,110883,1,0
192,328,111045,2,0,B|288:328,1,85,0|8
96,328,111532,1,0
96,256,111694,1,0
96,184,111856,1,0
160,184,112018,2,0,B|143:176|208:184,2,42.5,8|0|0
160,112,112343,1,0
216,72,112505,1,0
216,72,112667,1,4
296,32,114272,5,8
168,72,114596,1,8
296,32,114920,1,8
336,88,115083,1,0
360,152,115245,2,0,B|384:208|400:272|384:344|384:336,2,170,8|8|8
272,168,116218,2,8,B|264:224|272:272|288:312|312:328,2,170,8|8|8
184,168,117191,2,0,B|176:216|176:264|192:304|224:352,1,170,8|8
168,384,117677,1,0
128,328,117839,1,8
96,192,118164,1,8
96,120,118326,1,0
128,56,118488,1,8
256,16,118812,2,0,B|304:-8|352:16,1,85,8|0
208,128,119466,6,0,B|176:160|160:208|176:264|224:288,2,170,0|8|0
264,168,120277,1,0
264,168,120601,1,0
264,168,120925,2,0,B|360:240,1,85,0|8
328,352,121412,1,2
256,352,121574,1,2
120,352,121898,1,8
120,280,122060,1,8
120,144,122385,1,2
120,72,122547,1,2
216,0,122871,2,0,B|304:-8|344:32|344:104,1,170,2|4
200,80,123520,2,0,B|296:120|336:208,1,170,2|4
232,256,124169,5,0
416,351,124655,2,0,B|456:312|466:284,1,85,8|0
456,152,125142,1,0
344,72,125466,1,0
208,72,125790,2,0,B|138:120,1,85,0|8
104,184,126114,1,0
152,232,126277,1,0
208,272,126439,1,0
344,288,126763,1,0
40,256,127250,1,8
80,200,127412,1,0
232,88,127736,1,0
360,120,128060,1,0
64,320,128385,6,0,B|160:320,1,85,0|8
216,320,128709,1,0
280,320,128871,1,8
344,320,129033,1,0
344,256,129196,1,10
280,256,129358,1,6
80,232,129844,5,0
160,120,130169,1,8
296,112,130493,1,0
248,160,130655,1,0
176,280,130979,1,8
96,168,131304,1,4
56,112,131466,1,2
64,48,131628,1,2
200,40,131952,2,0,B|480:40,1,255,0|4
456,112,132601,1,10
432,256,133250,6,2,B|320:208,1,85
280,264,133898,2,2,B|368:320,1,85
352,312,134385,2,0,B|352:216,1,85,4|0
72,88,139909,5,2
72,216,140233,1,2
72,288,140396,1,2
72,216,140558,1,8
208,216,140882,1,2
272,216,141044,1,2
208,216,141206,1,2
272,160,141531,1,2
272,96,141693,1,0
272,160,141855,1,8
272,96,142017,1,2
272,296,142342,1,2
200,296,142504,1,2
200,88,142990,1,2
264,88,143152,1,8
464,88,143639,1,0
464,152,143801,2,0,B|464:264,1,85,8|2
464,237,144125,2,0,B|345:237,1,85,2|2
310,237,144450,1,4
80,88,145102,6,0,B|152:88|184:96|192:136|184:184,3,170,0|0|8|0
184,264,146399,2,0,B|120:264|72:256|64:200|80:160,3,170,0|0|8|0
80,72,147696,2,0,B|144:72|184:72|208:96|192:176,3,170,0|0|8|0
256,176,148831,1,4
256,176,148994,1,4
424,56,149480,1,2
424,192,149804,1,2
424,328,150129,2,0,B|352:272|296:288|272:344,3,170,2|2|8|8
192,328,151426,2,4,B|120:272|64:288|40:344,2,170,4|4|4
256,192,152156,12,8,153534
416,104,153696,5,0
432,168,153858,1,0
424,232,154021,1,0
376,280,154183,1,8
320,240,154345,2,0,B|360:184,4,42.5
320,304,154831,2,0,B|264:304,8,42.5
176,296,155804,5,0
120,256,155966,1,0
96,192,156129,1,8
184,88,156453,1,0
240,128,156615,1,0
264,192,156777,1,0
320,64,157102,1,0
424,152,157426,1,8
328,248,157750,1,0
392,248,157912,1,0
328,248,158075,1,0
192,248,158399,1,0
120,248,158561,1,0
192,248,158723,1,8
152,112,159048,1,0
288,112,159372,1,0
424,112,159696,1,0
424,176,159858,1,0
424,112,160020,1,8
416,40,160183,2,0,B|336:32|280:40|232:56,1,170
192,88,160669,1,2
96,184,160993,1,4
256,192,161075,12,8,162615
128,80,163110,5,0
264,80,163434,1,0
328,80,163596,1,0
328,144,163758,1,0
328,208,163920,1,8
328,272,164083,1,0
192,272,164407,1,0
192,136,164731,2,0,B|192:184,2,42.5
192,136,165218,1,8
192,64,165380,2,0,B|240:64,4,42.5
56,96,166029,1,0
56,160,166191,1,0
56,96,166353,1,0
56,160,166515,1,8
56,224,166677,2,0,B|56:280|72:312|112:344|160:336,1,170
56,224,167326,1,0
112,192,167488,1,0
112,256,167650,1,0
168,224,167812,1,8
168,152,167975,1,0
304,152,168299,5,4
472,40,168785,1,0
472,176,169110,1,8
472,312,169434,1,0
400,312,169596,1,0
336,280,169758,1,0
208,232,170083,1,0
336,280,170407,1,8
256,192,170488,12,8,171704
64,64,172191,5,2
128,64,172353,1,8
96,120,172515,1,2
160,120,172677,1,8
192,64,172839,1,2
192,64,173002,1,8
224,120,173164,1,4
280,240,173488,1,4
320,144,179154,6,0,B|288:112|240:96|184:112|160:160,2,170,2|8|2
280,200,179965,1,2
280,200,180289,1,2
280,200,180613,2,0,B|208:296,1,85,4|8
96,264,181100,1,0
96,192,181262,1,0
96,56,181586,1,2
168,56,181748,1,2
304,56,182073,1,0
376,56,182235,1,0
472,152,182559,2,0,B|456:240|416:280|344:280,1,170
368,136,183208,2,0,B|328:232|240:272,1,170
232,128,183856,5,0
416,32,184342,2,0,B|456:72|472:112,1,85,8|0
456,232,184829,1,0
344,312,185153,1,0
208,312,185477,2,0,B|128:256,1,85,0|8
104,200,185801,1,0
152,152,185964,1,0
208,112,186126,1,0
344,96,186450,1,2
472,256,186937,1,2
408,272,187099,1,2
232,296,187423,1,4
120,216,187747,1,4
448,64,188072,6,0,B|352:64,1,85,4|8
296,64,188396,1,2
232,64,188558,1,8
168,64,188720,1,2
168,128,188883,1,8
232,128,189045,1,6
432,152,189531,5,0
352,264,189856,1,8
216,272,190180,1,4
264,224,190342,1,4
336,104,190666,1,4
416,216,190991,1,4
456,272,191153,1,8
448,336,191315,1,2
312,344,191639,2,0,B|32:344,1,255,2|4
56,272,192288,1,10
80,128,192937,6,2,B|192:176,1,85
232,120,193585,2,2,B|144:64,1,85
160,72,194072,2,4,B|160:168,1,85
408,72,194730,5,0
424,208,195054,1,8
408,272,195216,1,0
272,288,195541,1,0
136,264,195865,1,0
80,304,196027,1,0
80,304,196189,1,0
136,264,196351,1,8
184,216,196514,1,0
288,304,196838,1,0
360,184,197162,1,0
304,144,197324,1,0
336,88,197487,1,0
392,128,197649,1,8
347,138,197811,1,0
224,80,198135,5,2
232,144,198297,2,0,B|256:192|240:248|192:264|128:160|120:144|120:144|80:160,1,255,2|2
56,216,198946,1,4
144,320,199270,1,4
208,320,199433,1,4
392,240,199919,1,2
392,104,200243,1,8
392,240,200568,1,2
392,168,200730,1,2
392,32,201054,1,2
392,168,201379,1,4
320,168,201541,6,0,B|208:168,1,85
168,48,202027,2,0,B|64:72|48:120|80:176|120:216|144:264,1,255
176,288,202676,1,0
448,296,203325,1,4
448,224,203487,1,4
448,16,203973,1,2
448,80,204135,1,6
312,80,204460,1,0
312,144,204622,1,4
104,160,205108,5,8
216,232,205433,1,8
264,184,205595,1,6
