osu file format v11

[General]
AudioFilename: Test.mp3
AudioLeadIn: 0
PreviewTime: 63302
Countdown: 0
SampleSet: Soft
StackLeniency: 0.4
Mode: 0
LetterboxInBreaks: 0

[Editor]
DistanceSpacing: 1
BeatDivisor: 4
GridSize: 4

[Metadata]
Title:Minamikaze Dramatic (TV Size)
TitleUnicode:南風ドラマチック (TV Size)
Artist:Four Season
ArtistUnicode:Four Season
Creator:EmPao
Version:Easy
Source:Natsuiro Kiseki
Tags:ending ed sphere Kotobuki Minako Takagaki Ayahi Tomatsu Haruka Toyosaki Aki ms0543724 gina bossandy boss
BeatmapID:158230
BeatmapSetID:50216

[Difficulty]
HPDrainRate:2
CircleSize:3
OverallDifficulty:2
ApproachRate:3
SliderMultiplier:1
SliderTickRate:1

[Events]
//Background and Video events
Video,450,"EDVideo.flv"
0,0,"BG1.jpg"
//Break Periods
//Storyboard Layer 0 (Background)
//Storyboard Layer 1 (Fail)
//Storyboard Layer 2 (Pass)
//Storyboard Layer 3 (Foreground)
//Storyboard Sound Samples
//Background Colour Transformations
3,100,163,162,255

[TimingPoints]
17937,472.44094488189,4,2,0,60,1,0
18055,-100,4,2,1,60,0,0
18409,-100,4,2,2,60,0,0
18527,-100,4,2,1,60,0,0
25496,-100,4,2,0,60,0,0
25614,-100,4,2,1,60,0,0
25968,-100,4,2,2,60,0,0
26086,-100,4,2,1,60,0,0
27385,-100,4,2,0,60,0,0
27503,-100,4,2,1,60,0,0
27858,-100,4,2,2,60,0,0
27976,-100,4,2,1,60,0,0
29275,-100,4,2,0,60,0,0
29393,-100,4,2,1,60,0,0
33055,-100,4,2,0,60,0,0
33173,-100,4,2,1,60,0,0
36834,-100,4,2,0,60,0,0
36952,-100,4,2,1,60,0,0
39196,-100,4,2,2,60,0,0
39314,-100,4,2,1,60,0,0
40614,-100,4,2,0,60,0,0
40732,-100,4,2,1,60,0,0
41086,-100,4,2,2,60,0,0
41204,-100,4,2,1,60,0,0
42503,-100,4,2,0,60,0,0
42622,-100,4,2,1,60,0,0
42976,-100,4,2,2,60,0,0
43094,-100,4,2,1,60,0,0
53842,-100,4,2,0,60,0,0
53960,-100,4,2,1,60,0,0
54314,-100,4,2,2,60,0,0
54433,-100,4,2,1,60,0,0
54551,-100,4,2,0,60,0,0
54669,-100,4,2,1,60,0,0
55259,-100,4,2,1,50,0,0
55377,-100,4,2,1,60,0,0
55732,-100,4,2,0,60,0,0
55850,-100,4,2,1,60,0,0
56204,-100,4,2,2,60,0,0
56322,-100,4,2,1,60,0,0
62818,-100,4,2,1,75,0,0
63291,-100,4,2,1,75,0,1
76992,-100,4,2,2,75,0,1
77110,-100,4,2,1,75,0,1
78291,-100,4,2,1,75,0,0
78409,-100,4,2,1,75,0,1
84551,-100,4,2,2,75,0,1
84669,-100,4,2,1,75,0,1
95299,-100,4,2,1,75,0,0
95417,-100,4,2,1,75,0,1
101086,-100,4,2,1,75,0,0
102976,-100,4,2,1,50,0,0
103448,-100,4,2,1,40,0,0
103921,-100,4,2,1,30,0,0
104393,-100,4,2,1,20,0,0
104866,-100,4,2,1,10,0,0

[Colours]
Combo1 : 255,175,55
Combo2 : 123,247,64
Combo3 : 128,227,244
Combo4 : 223,159,251

[HitObjects]
112,104,17937,2,0,B|256:40|404:104,1,300,4|8,0:0|0:0,0:0:0
404,204,19826,1,0,0:0:0
404,304,20299,2,0,B|504:304,2,100,8|0|8,0:0|0:0|0:0,0:0:0
316,256,21716,5,2,0:0:0
216,256,22188,2,0,B|168:280|116:256,1,100,8|0,0:0|0:0,0:0:0
168,168,23133,1,8,0:0:0
268,172,23606,2,0,B|316:152|368:172,1,100,0|8,0:0|0:0,0:0:0
368,72,24551,2,0,B|316:92|268:72,1,100,0|8,0:0|0:0,0:0:0
176,40,25496,6,0,B|72:68|12:164|36:272,1,300,4|8,0:0|0:0,0:0:0
124,316,27385,2,0,B|228:288|288:192|264:84,1,300,4|8,0:0|0:0,0:0:0
356,120,29275,6,0,B|460:120,1,100,4|8,0:0|0:0,0:0:0
408,208,30220,2,0,B|508:208,2,100,0|8|2,0:0|0:0|0:0,0:0:0
268,268,31874,2,2,B|300:192|268:120,1,150,2|2,0:0|0:0,0:0:0
212,40,33055,5,4,0:0:0
112,40,33527,2,8,B|64:136|112:232,1,200
112,332,34944,1,0,0:0:0
200,284,35417,2,8,B|296:332|392:284,1,200
392,184,36834,6,0,B|496:184,2,100,4|8|0,0:0|0:0|0:0,0:0:0
392,84,38251,1,8,0:0:0
308,136,38724,2,2,B|272:72|176:72|144:136,1,200,0|2,0:0|0:0,0:0:0
88,220,40141,1,8,0:0:0
188,220,40614,6,8,B|232:328|380:328|416:216,1,300,4|8,0:0|0:0,0:0:0
416,116,42503,2,0,B|372:8|224:8|188:124,1,300,2|8,0:0|0:0,0:0:0
188,220,44393,6,0,B|248:224|272:176,2,100,2|8|0,0:0|0:0|0:0,0:0:0
188,120,45811,1,8,0:0:0
256,192,46283,12,4,48173,0:0:0
304,240,49118,6,0,B|204:240,1,100,0|8,0:0|0:0,0:0:0
132,308,50062,1,0,0:0:0
60,240,50535,1,8,0:0:0
132,180,51007,2,0,B|132:80,1,100,0|8,0:0|0:0,0:0:0
216,124,51952,6,0,B|296:56,2,100,0|8|0,0:0|0:0|0:0,0:0:0
132,180,53370,1,8,0:0:0
32,196,53842,2,4,B|32:252|80:292|132:280,2,150,4|4|8,0:0|0:0|0:0,0:0:0
132,180,55732,6,0,B|220:120|324:120|416:180,1,300,4|8,0:0|0:0,0:0:0
412,280,57622,1,0,0:0:0
324,232,58094,1,8,0:0:0
236,280,58566,2,0,B|136:280,1,100,0|8,0:0|0:0,0:0:0
256,192,59511,12,0,61401,0:0:0
276,180,62818,5,8,0:0:0
376,180,63291,5,6,0:0:0
324,264,63763,2,0,B|324:364,2,100,8|2|8,0:0|0:0|0:0,0:0:0
420,288,65181,1,2,0:0:0
392,192,65653,2,0,B|392:88,2,100,8|2|10,0:0|0:0|0:0,0:0:0
292,192,67070,6,0,B|292:92,2,100,6|8|2,0:0|0:0|0:0,0:0:0
240,280,68488,1,8,0:0:0
344,280,68960,2,0,B|444:280,2,100,2|8|2,0:0|0:0|0:0,0:0:0
292,192,70377,1,8,0:0:0
364,124,70850,5,6,0:0:0
292,56,71322,1,8,0:0:0
216,124,71795,1,2,0:0:0
116,124,72267,2,0,B|16:124,2,100,8|2|8,0:0|0:0|0:0,0:0:0
116,224,73685,2,2,B|116:324,1,100,2|10,0:0|0:0,0:0:0
216,324,74629,6,0,B|316:324,2,100,6|8|2,0:0|0:0|0:0,0:0:0
164,236,76047,1,8,0:0:0
168,136,76519,2,0,B|220:36|356:36|408:140,1,300,6|8,0:0|0:0,0:0:0
508,140,78409,5,6,0:0:0
460,228,78881,2,0,P|480:276|464:320,1,100,8|2,0:0|0:0,0:0:0
372,276,79826,2,0,B|172:276,2,200,8|8|8,0:0|0:0|0:0,0:0:0
372,176,82188,6,0,B|372:76,2,100,6|8|2,0:0|0:0|0:0,0:0:0
272,176,83606,1,8,0:0:0
324,264,84078,2,0,B|272:364|136:364|84:260,1,300,2|8,0:0|0:0,0:0:0
84,160,85968,6,0,B|84:60,2,100,6|8|2,0:0|0:0|0:0,0:0:0
184,160,87385,1,8,0:0:0
284,160,87858,1,2,0:0:0
384,160,88330,2,0,B|384:60,2,100,8|2|8,0:0|0:0|0:0,0:0:0
336,248,89748,5,4,0:0:0
236,236,90220,2,0,B|212:308|280:376|356:348,2,200,8|8|8,0:0|0:0|0:0,0:0:0
336,248,92582,2,0,B|416:188,1,100,2|8,0:0|0:0,0:0:0
256,192,93527,12,4,95417,0:0:0
256,192,96362,6,2,B|156:192,1,100
56,192,97307,2,0,B|56:292,2,100,6|8|2,0:0|0:0|0:0,0:3:0
112,108,98724,1,8,0:0:0
168,192,99196,1,2,0:0:0
232,268,99669,2,8,B|272:323|360:323|404:263,1,200,8|8,0:0|0:0,0:0:0
256,192,101086,12,0,104866,0:0:0
