osu file format v9

[General]
AudioFilename: 06 - I Would Do Anything For You.mp3
AudioLeadIn: 0
PreviewTime: 43100
Countdown: 2
SampleSet: Soft
StackLeniency: 0.5
Mode: 0
LetterboxInBreaks: 0

[Editor]
Bookmarks: 58100,65600,95600,125600,133100,170600
DistanceSpacing: 1
BeatDivisor: 4
GridSize: 8

[Metadata]
Title:I Would Do Anything For You
Artist:Foster the People
Creator:dkun
Version:Love, Ho!
Source:
Tags:charles445 mmzz torches

[Difficulty]
HPDrainRate:7
CircleSize:4
OverallDifficulty:7
ApproachRate:7
SliderMultiplier:1.8
SliderTickRate:2

[Events]
//Background and Video events
0,0,"Teaching Children Dance.jpg"
//Break Periods
2,58315,64715
2,125815,132215
//Storyboard Layer 0 (Background)
//Storyboard Layer 1 (Fail)
//Storyboard Layer 2 (Pass)
//Storyboard Layer 3 (Foreground)
//Storyboard Sound Samples
//Background Colour Transformations
3,100,163,162,255

[TimingPoints]
13115,468.75,4,2,1,80,1,0
43115,-100,4,1,0,60,0,1
58115,-100,4,1,0,60,0,0
58349,-100,4,2,1,80,0,0
95615,-100,4,1,0,60,0,1
125615,-100,4,1,0,60,0,0
132646,-100,4,2,1,85,0,0
140615,-100,4,1,0,70,0,1
155380,-100,4,1,0,60,0,1
170615,-100,4,1,0,60,0,0

[HitObjects]
256,40,13115,1,8
144,112,13583,1,8
184,168,13818,1,0
256,192,14052,1,0
328,168,14286,1,0
368,112,14521,1,8
352,272,14990,2,0,B|280:352,1,90
216,336,15458,2,0,B|144:256,1,90,8|0
104,216,15927,1,0
48,80,16396,1,8
184,40,16865,6,0,B|184:152,2,90,0|0|8
256,64,17568,1,0
328,40,17802,2,0,B|328:136,1,90
336,200,18271,2,0,B|240:272|144:176,1,180,8|0
104,232,18974,5,0
152,288,19208,1,8
216,328,19443,1,0
296,328,19677,1,0
360,288,19911,1,0
408,232,20146,1,8
256,192,20615,1,8
120,152,21083,6,0,B|144:48|272:64,1,180,8|0
256,136,21786,1,0
255,62,22021,2,0,B|368:48|400:176,1,180,8|0
336,288,22958,6,0,B|240:344|144:272,1,180,8|0
192,216,23661,2,0,B|192:112,1,90,0|8
256,88,24130,2,0,B|256:184,1,90,0|8
320,216,24599,1,0
360,152,24833,1,8
400,216,25068,1,0
432,152,25302,1,0
256,88,25771,6,0,B|256:184,1,90,8|0
208,232,26240,2,0,B|224:324|288:324|304:232,1,180,0|8
368,192,26943,2,0,B|368:80,2,90,0|0|8
424,232,27646,2,0,B|424:320,1,90,8|0
352,304,28115,5,0
296,352,28349,1,0
216,352,28583,1,8
160,304,28818,1,0
256,280,29052,2,0,B|256:88,1,180,0|8
184,64,29755,2,0,B|200:24|256:0|312:24|336:72,1,180,0|0
360,136,30458,5,8
328,200,30693,1,0
256,224,30927,1,0
256,224,31161,1,0
184,200,31396,1,8
152,136,31630,1,0
172,64,31865,6,0,B|256:8|340:64,2,180,8|8|0
104,96,33036,2,0,B|104:216,1,90,0|8
176,168,33505,2,0,B|176:272,1,90
136,320,33974,1,0
200,352,34208,1,8
256,304,34443,1,0
256,304,34677,1,0
312,352,34911,1,0
376,320,35146,1,8
336,96,35615,6,0,B|248:24|168:104,1,180,8|8
128,152,36318,2,0,B|128:256,1,90
200,256,36786,2,0,B|200:152,1,90,0|8
256,120,37255,1,0
304,64,37490,1,0
376,64,37724,1,0
432,120,37958,1,8
432,120,38193,1,0
344,144,38427,6,0,B|344:264,1,90
408,272,38896,2,0,B|376:352|296:352|272:240,1,180,8|8
256,208,39599,1,0
200,256,39833,1,8
136,288,40068,1,0
72,256,40302,1,0
16,208,40536,1,0
16,208,40771,1,8
256,192,41240,12,8,42646
152,272,43115,5,4
208,344,43349,1,0
304,344,43583,1,8
360,272,43818,1,0
256,264,44052,1,0
256,264,44286,2,0,B|256:152,1,90,0|8
168,176,44755,1,0
128,96,44990,6,0,B|264:8|408:112,1,270
440,168,45927,1,0
368,216,46161,1,0
440,272,46396,1,8
256,344,46865,6,0,B|256:152,1,180,0|8
168,152,47568,2,0,B|224:32,1,90
305,70,48036,2,0,B|344:152,1,90,0|8
392,232,48505,1,0
344,304,48740,1,0
256,320,48974,1,0
168,304,49208,1,8
120,232,49443,1,0
208,168,49677,2,0,B|216:72|312:72|304:208,1,180,0|8
184,296,50615,6,0,B|208:344|256:368|304:344|336:264,1,180,0|8
424,256,51318,1,0
424,256,51552,1,0
344,80,52021,1,8
256,48,52255,2,0,B|256:168,1,90
176,192,52724,2,0,B|264:280|344:176,1,180
400,248,53427,2,0,B|328:312|320:312,1,90
256,352,53896,1,8
208,40,54365,5,0
304,40,54599,1,0
256,112,54833,2,0,B|256:208,1,90,8|0
176,240,55302,1,0
256,288,55536,1,0
336,240,55771,1,8
416,192,56005,1,0
352,128,56240,6,0,B|296:48,1,90
211,54,56708,2,0,B|160:128,1,90,8|0
176,240,57177,1,0
256,288,57411,1,0
336,240,57646,1,8
256,80,58115,5,4
184,80,65615,6,0,B|200:40|256:16|312:40|336:88,1,180,0|0
384,152,66318,1,0
384,152,66552,1,0
448,192,66786,1,0
448,192,67021,1,8
344,296,67490,6,0,B|256:344|168:296,1,180,0|8
112,256,68193,2,0,B|112:136,1,90
184,184,68661,2,0,B|184:80,1,90,8|8
256,40,69130,5,0
296,104,69365,1,8
336,40,69599,1,0
376,104,69833,2,0,B|376:192,1,90,8|0
432,232,70302,2,0,B|416:320|328:320|312:200,1,180,0|8
256,192,71005,6,0,B|256:80,1,90
256,192,71474,2,0,B|144:192,1,90,0|8
256,192,71943,2,0,B|256:288,1,90
120,328,72646,1,8
72,192,73115,1,8
136,64,73583,5,8
200,24,73818,1,0
256,72,74052,1,0
312,24,74286,1,0
376,64,74521,1,8
429,154,74755,6,0,B|341:202|253:154,1,180
85,154,75458,2,0,B|173:202|261:154,1,180,8|0
256,248,76161,2,0,B|256:344,1,90,8|8
336,352,76630,2,0,B|336:256,1,90,0|8
384,184,77099,1,0
344,104,77333,2,0,B|256:56|168:104,2,180,8|0|8
384,184,78505,1,0
344,280,78740,6,0,B|256:328|168:280,2,180,0|8|0
336,192,79911,1,0
296,128,80146,1,8
216,128,80380,1,0
176,192,80615,1,0
256,344,81083,5,8
184,304,81318,2,0,B|184:200,1,90,0|8
256,240,81786,2,0,B|256:128,1,90,0|8
176,168,82255,1,0
168,88,82490,2,0,B|256:40|344:88,1,180,0|8
392,152,83193,1,0
480,232,83427,2,0,B|392:280|304:232,1,180,0|8
168,104,84365,5,8
216,48,84599,1,0
296,48,84833,1,8
344,104,85068,1,0
344,104,85302,1,0
344,176,85536,2,0,B|256:224|168:176,1,180
104,152,86240,2,0,B|104:264,1,90
48,280,86708,5,8
104,328,86943,1,0
168,288,87177,2,0,B|256:336|344:288,1,180,0|8
408,328,87880,1,0
464,280,88115,1,8
352,192,88583,1,8
320,48,89052,5,0
256,88,89286,1,0
192,48,89521,1,8
128,88,89755,1,0
168,152,89990,2,0,B|256:200|344:152,1,180,0|8
408,120,90693,1,0
480,168,90927,1,0
408,216,91161,1,8
344,264,91396,2,0,B|256:312|168:264,1,180,8|8
104,216,92099,1,0
24,264,92333,1,8
104,312,92568,1,0
184,352,92802,1,0
344,256,93271,6,0,B|256:304|168:256,2,180,8|0|8
408,216,94443,1,0
344,184,94677,1,8
408,144,94911,1,8
344,112,95146,1,8
152,112,95615,5,4
208,40,95849,1,0
304,40,96083,1,8
360,112,96318,1,0
256,120,96552,1,0
256,120,96786,2,0,B|256:232,1,90,0|8
128,288,97255,6,0,B|264:376|408:272,1,270
440,216,98193,1,0
368,168,98427,1,0
440,112,98662,1,8
368,56,98896,1,0
256,40,99365,6,0,B|256:232,1,180,0|8
168,232,100068,2,0,B|224:352,1,90,0|0
312,312,100536,2,0,B|368:192,1,90,0|8
392,152,101005,1,0
344,80,101240,1,0
256,64,101474,1,0
168,80,101708,1,8
120,152,101943,1,0
208,216,102177,2,0,B|216:312|312:312|304:176,1,180,0|8
176,88,103115,6,0,B|264:24|368:104,1,180,0|8
424,128,103818,1,0
424,128,104052,1,0
344,304,104521,1,8
256,336,104755,2,0,B|256:216,1,90
176,192,105224,2,0,B|256:104|344:208,1,180
400,136,105927,2,0,B|328:72|320:72,1,90
256,32,106396,1,8
208,344,106865,5,0
304,344,107099,1,0
256,272,107333,2,0,B|256:176,1,90,8|0
176,144,107802,1,0
256,96,108036,1,0
336,144,108271,1,8
416,192,108505,1,0
352,256,108740,6,0,B|296:336,1,90
208,328,109208,2,0,B|152:248,1,90,8|0
176,144,109677,1,0
256,96,109911,1,0
336,144,110146,1,8
360,272,110615,5,4
304,344,110849,1,0
208,344,111083,1,8
152,272,111318,1,0
256,264,111552,1,0
256,264,111786,2,0,B|256:152,1,90,0|8
344,176,112255,1,0
384,96,112490,6,0,B|248:8|104:112,1,270
72,168,113427,1,0
144,216,113661,1,0
72,272,113896,1,8
256,344,114365,6,0,B|256:152,1,180,0|8
344,152,115068,2,0,B|288:32,1,90
206,70,115536,2,0,B|168:152,1,90,0|8
120,232,116005,1,0
168,304,116240,1,0
256,320,116474,1,0
344,304,116708,1,8
392,232,116943,1,0
304,168,117177,2,0,B|296:72|200:72|208:208,1,180,0|8
336,296,118115,6,0,B|248:360|144:280,1,180,0|8
88,256,118818,1,0
88,256,119052,1,0
168,80,119521,1,8
256,48,119755,2,0,B|256:168,1,90
336,192,120224,2,0,B|256:280|168:176,1,180
112,248,120927,2,0,B|184:312|192:312,1,90
256,352,121396,1,8
304,40,121865,5,0
208,40,122099,1,0
256,112,122333,2,0,B|256:208,1,90,8|0
336,240,122802,1,0
256,288,123036,1,0
176,240,123271,1,8
96,192,123505,1,0
256,192,123740,12,4,125615
168,64,133115,6,0,B|256:16|344:64,2,180,2|10|2
88,120,134286,2,0,B|88:16,2,90,8|2|8
168,176,134990,6,0,B|256:224|344:176,2,180,2|10|2
88,216,136161,2,0,B|88:320,2,90,8|2|8
168,232,136865,5,2
192,304,137099,1,2
256,336,137333,1,10
320,304,137568,1,2
344,232,137802,1,2
344,232,138036,1,8
256,224,138271,2,0,B|256:128,1,90,2|8
176,104,138740,6,0,B|224:48|312:48|352:136,2,180,2|2|10
120,152,139911,1,8
56,192,140146,1,10
120,232,140380,1,8
136,96,140615,5,4
208,40,140849,1,0
304,40,141083,1,8
376,96,141318,1,0
256,112,141552,2,0,B|256:200,1,90
256,202,142021,1,8
336,240,142255,2,0,B|288:296|200:296|160:208,2,180
400,176,143427,1,0
464,240,143661,1,0
400,304,143896,1,8
256,48,144365,6,0,B|256:176,1,90
168,152,144833,2,0,B|168:256|8:256,1,180,8|0
256,256,145536,1,0
208,336,145771,1,8
304,336,146005,1,0
344,152,146240,2,0,B|344:256|504:256,1,180,0|8
344,72,146943,1,0
344,72,147177,2,0,B|232:24|136:96,1,180,0|8
152,272,148115,5,0
208,344,148349,1,0
304,344,148583,1,8
360,272,148818,1,0
256,264,149052,1,0
256,264,149286,2,0,B|256:152,1,90,0|8
168,176,149755,1,0
128,96,149990,6,0,B|264:8|408:112,1,270
440,168,150927,1,0
368,216,151161,1,0
440,272,151396,1,8
256,344,151865,6,0,B|256:152,1,180,0|8
168,152,152568,2,0,B|224:32,1,90
305,70,153036,2,0,B|344:152,1,90,0|8
392,232,153505,1,0
344,304,153740,1,0
256,320,153974,1,0
168,304,154208,1,8
120,232,154443,1,0
208,168,154677,2,0,B|216:72|312:72|304:208,1,180,0|8
176,296,155615,6,0,B|264:360|368:280,1,180,4|8
424,256,156318,1,0
424,256,156552,1,0
344,80,157021,1,8
256,48,157255,2,0,B|256:168,1,90
176,192,157724,2,0,B|256:280|344:176,1,180
400,248,158427,2,0,B|328:312|320:312,1,90
256,352,158896,1,8
208,40,159365,5,0
304,40,159599,1,0
256,112,159833,2,0,B|256:208,1,90,8|0
176,240,160302,1,0
256,288,160536,1,0
336,240,160771,1,8
416,192,161005,1,0
256,192,161240,12,8,162646
360,272,163115,5,0
304,344,163349,1,0
208,344,163583,1,8
152,272,163818,1,0
256,264,164052,1,0
256,264,164286,2,0,B|256:152,1,90,0|8
344,176,164755,1,0
384,96,164990,6,0,B|248:8|104:112,1,270
72,168,165927,1,0
144,216,166161,1,0
72,272,166396,1,8
256,344,166865,6,0,B|256:152,1,180,0|8
344,152,167568,2,0,B|288:32,1,90
206,70,168036,2,0,B|168:152,1,90,0|8
120,232,168505,1,0
168,304,168740,1,0
256,320,168974,1,0
344,304,169208,1,8
392,232,169443,1,0
304,168,169677,2,0,B|296:72|200:72|208:208,1,180,0|8
168,256,170380,1,0
256,304,170615,1,4
