osu file format v9

[General]
AudioFilename: 06 - I Would Do Anything For You.mp3
AudioLeadIn: 0
PreviewTime: 43100
Countdown: 2
SampleSet: Soft
StackLeniency: 0.5
Mode: 0
LetterboxInBreaks: 0

[Editor]
DistanceSpacing: 1.04
BeatDivisor: 2
GridSize: 4

[Metadata]
Title:I Would Do Anything For You
Artist:Foster the People
Creator:dkun
Version:Friendship, Ho!
Source:
Tags:charles445 mmzz torches

[Difficulty]
HPDrainRate:3
CircleSize:4
OverallDifficulty:3
ApproachRate:4
SliderMultiplier:1.4
SliderTickRate:2

[Events]
//Background and Video events
0,0,"Teaching Children Dance.jpg"
//Break Periods
2,58315,64295
2,125815,131795
//Storyboard Layer 0 (Background)
//Storyboard Layer 1 (Fail)
//Storyboard Layer 2 (Pass)
//Storyboard Layer 3 (Foreground)
//Storyboard Sound Samples
//Background Colour Transformations
3,100,163,162,255

[TimingPoints]
13115,468.75,4,2,1,80,1,0
43115,-100,4,1,0,60,0,1
58115,-100,4,1,0,60,0,0
58349,-100,4,2,1,80,0,0
95615,-100,4,1,0,60,0,1
125615,-100,4,1,0,60,0,0
132646,-100,4,2,1,85,0,0
140615,-100,4,1,0,70,0,1
155380,-100,4,1,0,60,0,1
170615,-100,4,1,0,60,0,0

[HitObjects]
136,185,13115,2,0,B|112:264|184:304,1,140,8|8
328,304,14052,2,0,B|400:264|375:184,1,140,0|8
256,104,14990,2,0,B|256:264,2,140,0|8|0
220,40,16161,1,0
292,40,16396,1,8
416,104,16865,6,0,B|452:176|400:240,1,140,8|8
320,348,17802,2,0,B|256:396|192:348,1,140,0|8
108,235,18740,2,0,B|60:176|96:104,2,140,0|8|0
147,294,19911,1,0
192,348,20146,1,8
256,224,20615,5,8
320,100,21083,2,0,B|256:48|192:100,2,140,8|0|8
256,224,22490,2,0,B|256:368,2,140,0|8|0
192,100,23896,1,8
256,128,24130,1,0
320,100,24365,1,8
184,192,25771,5,8
72,108,26240,2,0,B|0:144|0:240|72:276,1,210
136,300,27177,1,0
256,224,27646,1,8
364,132,28115,6,0,B|424:96|504:116,2,140,8|8|0
476,216,29521,2,0,B|416:252|336:232,1,140,8|8
208,192,30458,1,8
76,140,30927,1,0
28,192,31161,1,0
76,244,31396,1,8
152,124,31865,6,0,B|176:44|256:20|336:44|360:124,1,280,8|0
256,216,33271,2,0,B|256:368,2,140,8|0|8
184,96,34677,1,0
328,92,35146,1,8
256,216,35615,5,8
200,256,35849,1,0
136,280,36083,1,8
132,140,36552,2,0,B|60:20,2,140,0|8|0
324,344,38427,5,0
188,344,38896,1,8
256,216,39365,1,8
256,192,40302,12,0,42177
192,96,43115,6,0,B|256:44|320:96,2,140,4|8|0
136,224,44521,1,8
164,288,44755,2,0,B|256:380|348:288,2,210,0|8|0
136,224,46396,1,8
256,152,46865,6,0,B|400:92,1,140,0|8
256,48,47802,2,0,B|126:101,1,140,0|8
64,132,48505,1,0
96,192,48740,2,0,B|148:256|100:320,2,140,0|8|0
220,256,50146,1,8
344,192,50615,6,0,B|408:152|476:144,2,140,0|8|0
256,84,52021,1,8
188,104,52255,2,0,B|120:152|120:232|188:280,2,210,0|8|0
256,84,53896,1,8
396,64,54365,6,0,B|396:208,1,140,0|8
468,84,55302,2,0,B|468:228,1,140,0|8
468,296,56005,1,0
412,340,56240,2,0,B|352:392|284:344,2,140,0|8|0
344,216,57646,1,8
284,88,58115,1,4
252,96,65615,6,0,B|316:48|380:96,1,140,8|8
260,168,66552,2,0,B|195:216|131:167,1,140,0|8
4,112,67490,2,0,B|4:252,2,140,0|8|0
4,40,68661,1,8
68,76,68896,1,8
192,152,69365,6,0,B|240:216|192:280,1,140,8|8
132,324,70068,1,0
60,328,70302,1,0
146,216,70771,2,0,B|290:216,2,140,8|0|8
20,144,72177,1,0
20,288,72646,1,8
132,380,73115,5,8
192,248,73583,2,0,B|256:296|320:248,1,140,8|0
432,152,74521,1,8
384,96,74755,1,0
320,60,74990,2,0,B|255:11|191:60,2,140,0|8|0
256,192,76396,2,0,B|256:352,1,140,8|8
256,192,77333,12,8,80146
256,76,81083,5,8
192,208,81552,2,0,B|256:256|320:208,1,140,8|8
448,136,82490,2,0,B|384:88|320:136,2,140,0|8|0
492,192,83661,1,0
448,248,83896,1,8
320,320,84365,6,0,B|276:364|232:292|192:348,2,140,8|8|0
388,192,85771,1,8
320,64,86240,2,0,B|276:20|232:92|192:36,2,140,0|8|0
358,126,87411,1,8
388,192,87646,1,8
320,320,88115,6,0,B|256:372|192:324,1,140,8|8
144,268,88818,1,0
112,204,89052,2,0,B|112:64,2,140,0|8|0
256,184,90458,1,8
400,204,90927,2,0,B|400:64,1,140,0|8
256,192,91865,12,8,94677
196,324,95615,6,0,B|260:276|324:324,2,140,4|8|0
136,192,97021,1,8
176,132,97255,2,0,B|216:204|304:204|344:132,2,210,0|8|0
140,68,98896,1,8
120,212,99365,6,0,B|112:296|204:336,1,140,0|8
327,326,100302,2,0,B|400:296|392:212,1,140,0|8
388,140,101005,1,0
336,88,101240,2,0,B|296:48|252:76|212:28,2,140,0|8|0
392,216,102646,1,8
248,192,103115,6,0,B|96:192,2,140,0|8|0
356,92,104521,1,8
428,104,104755,2,0,B|496:156|496:228|428:280,2,210,0|8|0
356,92,106396,1,8
252,192,106865,6,0,B|188:240|124:192,1,140,0|8
0,107,107802,2,0,B|64:59|128:107,1,140,0|8
188,148,108505,1,0
248,108,108740,2,0,B|312:59|376:107,2,140,0|8|0
188,240,110146,1,8
312,316,110615,6,0,B|364:368|400:284|460:352,2,140,4|8|0
188,240,112021,1,8
128,280,112255,2,0,B|64:240|64:144|128:104,2,210,0|8|0
192,316,113896,1,8
308,228,114365,6,0,B|372:180|436:228,1,140,0|8
320,316,115302,2,0,B|255:364|191:316,1,140,0|8
132,272,116005,1,0
80,220,116240,2,0,B|36:172|88:128|48:88,2,140,0|8|0
192,316,117646,1,8
324,256,118115,6,0,B|372:192|324:128,2,140,0|8|0
192,192,119521,1,8
264,192,119755,2,0,B|472:192,2,210,0|8|0
192,192,121396,1,8
136,56,121865,6,0,B|58:47|22:120,1,140,0|8
22,263,122802,2,0,B|58:336|136:328,1,140,0|8
256,192,123740,12,4,125615
188,88,133115,5,2
256,120,133349,1,2
324,88,133583,2,0,B|408:88|444:176,2,140,10|2|10
256,216,134990,5,2
188,236,135224,1,2
116,240,135458,2,0,B|36:240|4:172,2,140,8|2|10
116,88,136865,5,2
176,48,137099,1,2
248,32,137333,2,0,B|316:4|384:32,2,140,10|2|10
332,152,138740,6,0,B|384:216|332:280,1,140,10|10
179,279,139677,2,0,B|128:216|180:152,1,140,10|10
256,24,140615,6,0,B|256:180,2,140,4|8|0
384,96,142021,1,8
448,132,142255,2,0,B|520:172|520:260|448:300,2,210,0|8|0
384,96,143896,1,8
324,216,144365,6,0,B|256:244|188:216,1,140,0|8
60,144,145302,2,0,B|128:116|196:144,1,140,0|8
256,100,146005,1,0
315,144,146240,2,0,B|384:116|452:144,2,140,0|8|0
256,276,147646,1,8
112,256,148115,6,0,B|64:192|112:128,2,140,0|8|0
208,148,149521,1,8
268,108,149755,2,0,B|340:148|340:236|268:276,2,210,0|8|0
204,76,151396,1,8
112,188,151865,6,0,B|23:296,1,140,0|8
168,276,152802,2,0,B|256:167,1,140,0|8
308,116,153505,1,0
356,60,153740,2,0,B|420:12|484:60,2,140,0|8|0
420,192,155146,1,8
320,296,155615,6,0,B|256:344|192:296,2,140,4|8|0
356,156,157021,1,8
348,84,157255,2,0,B|308:28|204:28|164:84,2,210,0|8|0
356,156,158896,1,8
212,156,159365,6,0,B|140:184|76:156,1,140,0|8
0,264,160302,2,0,B|64:235|136:263,1,140,0|8
196,312,161005,1,0
256,352,161240,2,0,B|324:392|388:352,2,140,0|8|0
136,264,162646,1,8
44,152,163115,6,0,B|-4:88|44:24,2,140,0|8|0
176,88,164521,1,8
248,88,164755,2,0,B|464:88,2,210,0|8|0
176,88,166396,1,8
256,192,166865,12,4,170615
