osu file format v9

[General]
AudioFilename: Pumped Up Kicks.mp3
AudioLeadIn: 0
PreviewTime: 123444
Countdown: 1
SampleSet: Normal
StackLeniency: 0.7
Mode: 0
LetterboxInBreaks: 1

[Editor]
DistanceSpacing: 0.8
BeatDivisor: 4
GridSize: 8

[Metadata]
Title:Pumped Up Kicks
Artist:Foster The People
Creator:EEeee
Version:Normal
Source:
Tags:

[Difficulty]
HPDrainRate:3
CircleSize:4
OverallDifficulty:3
ApproachRate:3
SliderMultiplier:1.4
SliderTickRate:1

[Events]
//Background and Video events
0,0,"6172235-md.jpg"
//Break Periods
2,93739,99799
2,153735,167059
2,183932,195182
//Storyboard Layer 0 (Background)
//Storyboard Layer 1 (Fail)
//Storyboard Layer 2 (Pass)
//Storyboard Layer 3 (Foreground)
//Storyboard Sound Samples
//Background Colour Transformations
3,100,163,162,255

[TimingPoints]
3747,468.71338176705,4,2,1,50,1,0
63507,-100,4,2,1,50,0,1
93737,-100,4,2,1,50,0,0
93737,-100,4,2,1,50,0,0
123503,-100,4,2,1,50,0,1
153735,-100,4,2,1,50,0,0
168499,-100,4,2,1,50,0,1
183967,-100,4,1,1,20,0,0
198497,-100,4,2,1,50,0,1
243728,-100,4,2,1,50,0,0

[Colours]
Combo1 : 46,46,46
Combo2 : 218,218,218

[HitObjects]
56,56,3746,2,0,B|224:56,1,140
256,56,4450,2,0,B|304:112|408:96,1,140
440,96,5153,2,0,B|440:256,2,140
383,98,6324,2,0,B|304:112|256:56,1,140
200,56,7027,1,0
200,168,7496,6,0,B|200:328,1,140
256,312,8200,2,0,B|304:368|408:352,1,140
440,352,8903,2,0,B|440:192,2,140
383,354,10074,2,0,B|304:368|256:312,1,140
256,256,10777,5,0
256,200,11012,1,0
256,144,11246,2,0,B|208:88|104:104,1,140
72,104,11949,2,0,B|72:272,1,140
72,304,12652,1,0
184,304,13121,6,0,B|336:304,1,140
384,304,13824,2,0,B|384:152,1,140
440,160,14527,2,0,B|440:8,2,140
384,164,15699,2,0,B|384:304,1,140
328,304,16402,5,0
272,304,16636,1,0
216,304,16870,2,0,B|72:304,1,140
16,304,17574,2,0,B|16:232|0:144,1,140
32,120,18277,5,0
88,104,18511,1,0
144,112,18745,2,0,B|312:112,1,140
344,112,19448,2,0,B|400:160|488:184,1,140
464,232,20151,2,0,B|304:232,1,140
376,336,21089,5,0
320,336,21323,2,0,B|176:336,1,140
120,336,22026,2,0,B|104:264|8:232,2,140
180,336,23198,2,0,B|320:336,1,140
376,336,23901,1,0
472,272,24370,6,0,B|472:128,1,140
472,72,25073,2,0,B|392:40|328:72,1,140
336,128,25776,1,0
336,184,26010,1,0
336,240,26245,6,0,B|168:240,1,140
136,240,26949,2,0,B|88:296|-16:280,1,140
8,224,27652,2,0,B|8:64,2,140
8,280,28823,2,0,B|87:293|135:237,1,140
192,240,29526,1,0
192,128,29995,6,0,B|344:128,1,140
336,184,30699,2,0,B|384:240|488:224,1,140
464,168,31402,2,0,B|464:8,2,140
464,224,32573,2,0,B|384:237|336:181,1,140
336,128,33275,5,0
280,128,33510,1,0
224,128,33744,2,0,B|144:128|80:160,3,140
88,272,35619,5,0
200,272,36088,1,0
256,272,36322,2,0,B|408:272,1,140
456,272,37025,1,0
456,160,37494,5,0
456,104,37728,1,0
456,48,37963,2,0,B|368:48,4,70
456,104,39134,2,0,B|304:104,1,140
256,104,39837,2,0,B|168:104|104:176,1,140
72,152,40541,5,0
72,152,40775,1,0
72,152,41009,2,0,B|72:224|32:296,1,140
40,344,41712,2,0,B|192:344,1,140
240,344,42415,1,0
296,344,42650,2,0,B|368:320|464:344,1,140
448,224,43587,5,0
448,168,43821,1,0
448,56,44290,1,0
392,56,44525,1,0
280,56,44993,6,0,B|184:56,1,70
152,56,45462,2,0,B|64:56,1,70
24,56,45931,2,0,B|24:144,1,70
24,184,46399,2,0,B|168:184,2,140
24,240,47571,2,0,B|24:312|144:328,1,140
208,248,48509,6,0,B|280:232|352:312,1,140
336,352,49212,2,0,B|480:352,1,140
504,304,49915,1,0
480,256,50149,2,0,B|440:184|480:88,2,140
504,304,51321,2,0,B|352:304,1,140
304,304,52024,1,0
192,304,52493,6,0,B|40:304,1,140
16,256,53196,2,0,B|16:112,1,140
48,72,53899,2,0,B|80:40|136:40,2,70
88,112,54602,2,0,B|232:112,2,140
48,240,56008,5,0
160,240,56477,1,0
216,240,56711,1,0
272,240,56945,1,0
328,240,57180,2,0,B|392:216|496:240,2,140
328,128,58586,5,0
328,72,58820,1,0
216,72,59289,1,0
160,72,59523,1,0
64,128,59992,1,0
64,240,60461,5,0
120,240,60695,1,0
208,312,61164,1,0
264,312,61398,1,0
376,312,61867,1,0
456,232,62336,6,0,B|456:152,3,70
512,160,63273,1,0
512,104,63507,6,0,B|448:64|352:104,1,140
376,152,64210,1,0
376,208,64445,1,0
376,264,64679,2,0,B|312:304|216:264,1,140
240,216,65382,1,0
184,216,65616,2,0,B|128:176|32:216,2,140
192,160,66788,5,0
216,112,67023,1,0
272,104,67257,1,0
328,112,67491,2,0,B|416:120|464:192,3,140
448,232,69132,6,0,B|448:376,2,140
392,232,70304,2,0,B|328:184|248:232,1,140
264,280,71007,6,0,B|184:320|104:272,1,140
80,256,71710,1,0
72,200,71944,1,0
80,144,72178,2,0,B|144:96|240:144,2,140
112,40,73585,1,0
224,40,74053,1,0
280,40,74288,5,0
336,40,74522,1,0
392,40,74756,1,0
448,40,74991,2,0,B|416:184,3,140
416,232,76631,6,0,B|272:232,1,140
216,232,77335,1,0
160,232,77569,1,0
104,232,77803,1,0
48,208,78038,1,0
24,160,78272,1,0
24,104,78506,6,0,B|88:64|184:104,1,140
160,152,79209,1,0
160,208,79444,1,0
160,264,79678,2,0,B|224:304|320:264,1,140
296,216,80381,1,0
352,216,80615,2,0,B|408:176|504:216,2,140
344,160,81787,5,0
320,112,82022,1,0
264,104,82256,1,0
208,112,82490,2,0,B|120:120|72:192,3,140
88,232,84131,6,0,B|88:376,2,140
144,232,85303,2,0,B|208:184|288:232,1,140
272,280,86006,6,0,B|352:320|432:272,1,140
456,256,86709,1,0
464,200,86943,1,0
456,144,87177,2,0,B|392:96|296:144,2,140
424,40,88584,1,0
312,40,89052,1,0
256,40,89287,5,0
200,40,89521,1,0
144,40,89755,1,0
88,40,89990,2,0,B|32:184,3,140
256,192,91630,12,4,93271
56,72,101239,6,0,B|208:72,1,140
256,72,101942,2,0,B|304:136|408:96,1,140
440,104,102645,2,0,B|440:248,1,140
360,328,103582,5,0
304,328,103817,1,0
200,288,104286,1,0
144,288,104520,1,0
56,216,104989,1,0
56,104,105457,5,0
56,104,105692,2,0,B|128:104|200:32,1,140
240,48,106395,2,0,B|400:48,1,140
464,120,107332,1,0
464,120,107567,1,0
464,120,107801,2,0,B|352:208,1,140
464,248,108738,6,0,B|384:272|352:352,1,140
304,336,109441,2,0,B|152:336,1,140
104,336,110144,2,0,B|79:272|0:248,2,140
104,280,111316,2,0,B|104:136,1,140
104,80,112019,1,0
216,80,112488,6,0,B|296:104|328:184,1,140
320,224,113191,2,0,B|472:224,1,140
464,280,113894,2,0,B|439:343|359:367,2,140
464,224,115066,2,0,B|488:144|456:72,1,140
408,88,115769,1,0
296,112,116238,6,0,B|136:112,1,140
96,112,116941,2,0,B|96:184|8:232,1,140
24,280,117644,2,0,B|176:280,2,140
22,223,118816,2,0,B|96:184|96:112,1,140
152,112,119519,1,0
256,40,119987,5,0
400,40,120456,1,0
440,144,120925,5,0
456,200,121159,1,0
432,248,121394,1,0
384,280,121628,1,0
328,288,121862,6,0,B|240:288,2,70
328,232,122565,2,0,B|168:232,1,140
128,232,123268,1,0
72,232,123503,6,0,B|32:96,1,140
88,96,124206,1,0
144,96,124440,1,0
200,96,124675,2,0,B|344:96,1,140
376,56,125378,5,0
432,56,125612,1,0
472,160,126081,1,0
424,264,126549,1,0
424,320,126784,5,0
368,320,127018,1,0
312,320,127252,1,0
256,320,127487,2,0,B|184:296|96:320,3,140
64,320,129127,6,0,B|64:176,2,140
117,314,130299,2,0,B|184:296|256:320,1,140
312,312,131002,6,0,B|352:232|304:152,1,140
376,176,131705,1,0
432,176,131939,1,0
488,176,132173,2,0,B|536:112|488:16,2,140
376,176,133580,1,0
264,176,134048,1,0
208,176,134283,5,0
152,176,134517,1,0
96,176,134751,1,0
40,176,134986,2,0,B|8:320,3,140
64,320,136626,6,0,B|208:320,1,140
264,320,137330,1,0
320,320,137564,1,0
376,320,137798,1,0
432,304,138033,1,0
448,248,138267,1,0
432,192,138501,6,0,B|368:152|272:192,1,140
240,184,139204,1,0
240,128,139439,1,0
240,72,139673,2,0,B|176:32|80:72,1,140
48,72,140376,1,0
48,128,140610,2,0,B|8:184|48:280,2,140
104,128,141782,5,0
160,128,142017,1,0
216,128,142251,1,0
272,128,142485,2,0,B|352:120|408:208,3,140
392,240,144126,6,0,B|504:336,2,140
336,240,145298,2,0,B|272:192|192:240,1,140
200,288,146001,6,0,B|280:328|360:280,1,140
384,264,146704,1,0
392,208,146938,1,0
384,152,147172,2,0,B|320:104|224:152,2,140
432,48,148579,1,0
320,48,149047,1,0
264,48,149282,5,0
208,48,149516,1,0
152,48,149750,1,0
96,48,149985,2,0,B|40:192,3,140
256,192,151625,12,4,153266
64,96,168499,6,0,B|128:72|208:96,1,140
256,96,169202,1,0
312,96,169437,1,0
368,96,169671,2,0,B|424:144|424:232,1,140
424,280,170374,1,0
424,336,170608,2,0,B|272:336,2,140
424,280,171780,5,0
368,280,172015,1,0
312,280,172249,1,0
256,280,172483,2,0,B|112:280,1,140
56,280,173186,1,0
56,280,173421,2,0,B|56:200|16:144,1,140
16,88,174124,6,0,B|88:88|168:32,1,140
200,48,174827,1,0
256,48,175061,1,0
312,48,175296,1,0
368,48,175530,2,0,B|440:48,1,70
440,104,175999,6,0,B|440:176|496:240,1,140
488,288,176702,1,0
432,288,176936,1,0
376,296,177170,2,0,B|304:304|240:352,1,140
192,344,177874,1,0
136,344,178108,2,0,B|-16:344,2,140
136,288,179280,6,0,B|88:232,1,70
136,200,179748,2,0,B|184:144,1,70
136,48,180451,1,0
192,48,180686,1,0
248,48,180920,1,0
416,56,181623,5,0
472,152,182092,2,0,B|472:224,3,70
416,224,183029,2,0,B|416:296,3,70,0|0|0|4
256,192,196622,12,0,198263
256,304,198731,5,0
256,304,199200,1,0
256,192,199669,1,0
256,192,200137,1,0
184,104,200606,2,0,B|336:104,2,140
128,104,201778,5,0
72,104,202012,1,0
56,160,202247,1,0
64,216,202481,2,0,B|104:272|192:288,3,140
240,288,204121,6,0,B|304:264|384:288,2,140
240,232,205293,1,0
296,216,205528,1,0
352,224,205762,1,0
408,240,205996,6,0,B|488:120,1,140
488,64,206699,1,0
432,64,206934,1,0
376,64,207168,2,0,B|232:64,2,140
376,176,208574,1,0
264,176,209043,1,0
208,176,209277,5,0
152,176,209512,1,0
96,176,209746,1,0
40,176,209980,2,0,B|40:24,3,140
96,40,211621,5,0
208,40,212090,1,0
264,40,212324,1,0
320,40,212558,1,0
376,48,212793,1,0
424,72,213027,1,0
448,120,213261,1,0
440,176,213496,6,0,B|392:232|400:312,1,140
352,336,214199,1,0
296,336,214433,1,0
240,336,214668,2,0,B|88:336,1,140
40,336,215371,1,0
40,280,215605,2,0,B|192:280,2,140
32,224,216777,5,0
64,176,217011,1,0
120,160,217245,1,0
176,168,217480,2,0,B|264:184|336:176,2,140
296,48,219120,5,0
408,48,219589,1,0
448,152,220058,1,0
448,152,220292,2,0,B|400:224|440:296,1,140
376,296,220995,6,0,B|232:296,1,140
176,296,221698,1,0
128,264,221933,1,0
72,256,222167,2,0,B|16:120,1,140
32,72,222870,1,0
88,72,223104,2,0,B|248:72,2,140
80,128,224276,5,0
120,168,224511,1,0
176,184,224745,1,0
232,192,224979,2,0,B|344:184|368:136,2,140
360,304,226620,5,0
464,264,227088,1,0
464,208,227323,2,0,B|464:144|496:136,4,70
408,208,228495,6,0,B|360:264|368:344,1,140
320,368,229198,1,0
264,368,229432,1,0
208,368,229667,2,0,B|56:368,1,140
8,368,230370,1,0
8,312,230604,2,0,B|8:160,2,140
64,304,231776,5,0
96,256,232010,1,0
152,240,232244,1,0
208,248,232479,2,0,B|296:264|368:256,2,140
256,88,234119,5,0
368,88,234588,1,0
408,192,235057,1,0
408,192,235291,2,0,B|360:264|400:336,1,140
448,336,235994,6,0,B|480:256|448:200,1,140
448,144,236697,1,0
448,88,236931,1,0
400,56,237166,2,0,B|320:40|256:72,4,140
400,112,239275,5,0
376,160,239509,1,0
320,176,239744,1,0
264,176,239978,2,0,B|184:176|128:136,2,140
104,232,241619,6,0,B|184:280|216:328,1,140
264,336,242322,1,0
320,328,242556,1,0
376,312,242790,2,0,B|416:296|416:256,4,70,0|0|0|0|4
