osu file format v14

[General]
AudioFilename: Foster the People - Dont Stop (The Fat Rat Remix).mp3
AudioLeadIn: 0
PreviewTime: 43104
Countdown: 0
SampleSet: Normal
StackLeniency: 0.4
Mode: 0
LetterboxInBreaks: 0
WidescreenStoryboard: 0

[Editor]
DistanceSpacing: 1
BeatDivisor: 2
GridSize: 4
TimelineZoom: 1.1

[Metadata]
Title:Don't Stop (Thefatrat remix)
TitleUnicode:Don't Stop (Thefatrat remix)
Artist:Foster The People
ArtistUnicode:Foster The People
Creator:fffffffffffffxD
Version:Normal
Source:
Tags:thefatrat dont stop cuc pacsu
BeatmapID:1452455
BeatmapSetID:686245

[Difficulty]
HPDrainRate:4
CircleSize:3
OverallDifficulty:5
ApproachRate:5
SliderMultiplier:1.1
SliderTickRate:1

[Events]
//Background and Video events
0,0,"maxresdefault (1).jpg",0,0
//Break Periods
2,41499,42355
2,159243,172280
//Storyboard Layer 0 (Background)
//Storyboard Layer 1 (Fail)
//Storyboard Layer 2 (Pass)
//Storyboard Layer 3 (Foreground)
//Storyboard Sound Samples

[TimingPoints]
247,451.127819548872,4,1,1,80,1,0
44006,-100,4,1,1,80,0,1
58442,-100,4,1,1,80,0,1
72878,-100,4,1,1,80,0,0
130171,-100,4,1,1,100,0,1
145059,-100,4,1,1,100,0,0
188367,-133.333333333333,4,1,1,40,0,0
188367,-133.333333333333,4,1,1,40,0,0
214307,-133.333333333333,4,1,1,20,0,0
216111,-133.333333333333,4,1,1,10,0,0

[Colours]
Combo1 : 255,128,128
Combo2 : 0,255,64
Combo3 : 85,85,255
Combo4 : 255,255,0
Combo5 : 255,0,255

[HitObjects]
388,88,14683,6,0,P|388:152|340:192,1,110,8|0,0:0|0:0,0:0:0:0:
276,108,15585,1,8,0:0:0:0:
168,104,16036,1,0,0:0:0:0:
92,180,16487,6,0,P|100:256|140:288,1,110,8|0,0:0|0:0,0:0:0:0:
200,200,17389,1,8,0:0:0:0:
308,200,17840,1,0,0:0:0:0:
388,276,18292,6,0,P|416:200|376:156,1,110,8|0,0:0|0:0,0:0:0:0:
344,88,19194,1,8,0:0:0:0:
236,88,19645,1,0,0:0:0:0:
144,28,20096,6,0,P|120:96|160:148,1,110,8|0,0:0|0:0,0:0:0:0:
184,224,20998,2,0,P|252:264|320:240,1,110,8|0,0:0|0:0,0:0:0:0:
368,196,21901,6,0,P|364:120|312:88,1,110,8|0,0:0|0:0,0:0:0:0:
236,72,22803,1,8,0:0:0:0:
128,68,23254,1,0,0:0:0:0:
92,172,23705,6,0,P|96:236|160:268,1,110,8|0,0:0|0:0,0:0:0:0:
208,188,24607,1,8,0:0:0:0:
316,180,25059,1,0,0:0:0:0:
392,260,25510,6,0,P|424:192|392:152,1,110,8|0,0:0|0:0,0:0:0:0:
348,76,26412,1,8,0:0:0:0:
240,76,26863,1,0,0:0:0:0:
148,136,27314,6,0,P|144:228|184:228,1,110,8|0,0:0|0:0,0:0:0:0:
236,268,28216,2,0,P|296:248|312:188,1,110,8|0,0:0|0:0,0:0:0:0:
396,136,29119,6,0,P|336:104|264:140,1,110,8|0,0:0|0:0,0:0:0:0:
212,180,30021,1,8,0:0:0:0:
208,288,30472,1,0,0:0:0:0:
316,288,30923,6,0,P|356:224|336:176,1,110,8|0,0:0|0:0,0:0:0:0:
300,96,31825,1,8,0:0:0:0:
192,88,32277,1,0,0:0:0:0:
84,60,32728,6,0,P|88:136|136:180,1,110,8|0,0:0|0:0,0:0:0:0:
208,204,33630,1,8,0:0:0:0:
204,312,34081,1,0,0:0:0:0:
312,312,34532,6,0,P|344:256|324:204,1,110,8|0,0:0|0:0,0:0:0:0:
260,132,35434,2,0,P|184:116|152:152,1,110,8|0,0:0|0:0,0:0:0:0:
92,216,36337,6,0,P|84:288|100:320,1,110,8|0,0:0|0:0,0:0:0:0:
192,260,37239,1,8,0:0:0:0:
300,264,37690,1,0,0:0:0:0:
388,328,38141,6,0,P|440:280|448:232,1,110,8|0,0:0|0:0,0:0:0:0:
412,140,39043,1,8,0:0:0:0:
324,72,39495,1,0,0:0:0:0:
216,56,39946,6,0,P|156:48|108:84,1,110,8|0,0:0|0:0,0:0:0:0:
52,164,40848,1,8,0:0:0:0:
56,272,41299,1,0,0:0:0:0:
92,80,43555,6,0,L|92:152,2,55,8|0|8,0:0|0:0|0:0,0:0:0:0:
200,60,44457,1,8,0:0:0:0:
244,92,44683,1,0,0:0:0:0:
288,124,44908,1,0,0:0:0:0:
364,204,45359,6,0,L|364:136,2,55,8|0|8,0:0|0:0|0:0,0:0:0:0:
260,240,46262,1,8,0:0:0:0:
216,272,46487,1,0,0:0:0:0:
172,304,46713,1,0,0:0:0:0:
88,232,47164,6,0,L|88:304,2,55,8|0|8,0:0|0:0|0:0,0:0:0:0:
164,152,48066,1,8,0:0:0:0:
208,120,48292,1,0,0:0:0:0:
252,88,48517,1,0,0:0:0:0:
344,148,48968,6,0,L|344:76,2,55,8|0|8,0:0|0:0|0:0,0:0:0:0:
404,240,49871,2,0,L|436:308,2,55,8|0|8,0:0|0:0|0:0,0:0:0:0:
296,244,50773,6,0,L|268:308,2,55,8|0|8,0:0|0:0|0:0,0:0:0:0:
200,192,51675,2,0,L|236:128,1,55,8|0,0:0|0:0,0:0:0:0:
252,96,52126,1,0,0:0:0:0:
356,128,52577,5,8,0:0:0:0:
388,172,52803,1,0,0:0:0:0:
420,216,53028,1,0,0:0:0:0:
348,300,53480,2,0,L|272:300,1,55,8|0,0:0|0:0,0:0:0:0:
240,296,53931,1,0,0:0:0:0:
256,192,54382,12,8,56637,0:0:0:0:
408,72,57991,5,8,0:0:0:0:
392,124,58216,1,0,0:0:0:0:
360,168,58442,1,0,0:0:0:0:
252,176,58893,2,0,L|192:124,1,55,8|0,0:0|0:0,0:0:0:0:
168,104,59344,1,0,0:0:0:0:
76,164,59795,5,8,0:0:0:0:
108,208,60021,1,0,0:0:0:0:
160,224,60246,1,0,0:0:0:0:
236,304,60698,2,0,L|288:256,1,55,8|0,0:0|0:0,0:0:0:0:
312,224,61149,1,0,0:0:0:0:
408,168,61600,5,8,0:0:0:0:
376,124,61825,1,0,0:0:0:0:
332,92,62051,2,0,L|260:92,1,55
224,108,62502,2,0,L|156:144,1,55,8|0,0:0|0:0,0:0:0:0:
128,164,62953,1,0,0:0:0:0:
84,264,63404,5,8,0:0:0:0:
116,308,63630,1,0,0:0:0:0:
168,324,63856,2,0,L|224:324,1,55
276,308,64307,2,0,L|328:268,1,55,8|0,0:0|0:0,0:0:0:0:
360,236,64758,1,0,0:0:0:0:
456,180,65209,5,8,0:0:0:0:
440,128,65434,1,0,0:0:0:0:
408,84,65660,1,0,0:0:0:0:
300,96,66111,2,0,L|240:112,1,55,8|0,0:0|0:0,0:0:0:0:
196,132,66562,1,0,0:0:0:0:
92,168,67013,5,8,0:0:0:0:
108,220,67239,1,0,0:0:0:0:
124,272,67465,1,0,0:0:0:0:
224,316,67916,2,0,L|304:312,1,55,8|0,0:0|0:0,0:0:0:0:
332,308,68367,1,0,0:0:0:0:
392,216,68818,5,8,0:0:0:0:
376,164,69043,1,0,0:0:0:0:
344,120,69269,2,0,L|280:88,1,55
240,92,69720,2,0,L|176:92,1,55,8|0,0:0|0:0,0:0:0:0:
132,100,70171,1,0,0:0:0:0:
84,200,70622,5,8,0:0:0:0:
100,252,70848,1,0,0:0:0:0:
132,296,71074,2,0,L|204:312,1,55
240,308,71525,2,0,L|304:280,1,55,8|0,0:0|0:0,0:0:0:0:
336,256,71976,1,0,0:0:0:0:
372,152,72427,5,8,0:0:0:0:
304,64,72878,2,0,P|224:84|192:136,1,110,0|8,0:0|0:0,0:0:0:0:
292,172,73780,1,0,0:0:0:0:
352,264,74231,5,8,0:0:0:0:
444,204,74683,2,0,P|456:136|416:88,1,110,0|8,0:0|0:0,0:0:0:0:
340,152,75585,1,0,0:0:0:0:
244,100,76036,5,8,0:0:0:0:
148,156,76487,2,0,P|152:244|196:260,1,110,0|8,0:0|0:0,0:0:0:0:
252,188,77389,1,0,0:0:0:0:
236,296,77840,5,8,0:0:0:0:
344,320,78292,2,0,P|416:268|416:252,1,110,0|8,0:0|0:0,0:0:0:0:
312,224,79194,1,0,0:0:0:0:
412,176,79645,5,8,0:0:0:0:
352,84,80096,2,0,P|276:64|216:92,1,110,0|8,0:0|0:0,0:0:0:0:
300,168,80998,1,0,0:0:0:0:
196,132,81450,5,8,0:0:0:0:
100,184,81901,2,0,P|56:256|68:292,1,110,0|8,0:0|0:0,0:0:0:0:
168,256,82803,1,0,0:0:0:0:
256,192,83254,12,0,85510,0:0:0:0:
260,60,86863,5,8,0:0:0:0:
368,56,87314,2,0,B|392:100|392:100|344:156,1,110,0|8,0:0|0:0,0:0:0:0:
244,156,88216,1,0,0:0:0:0:
180,68,88668,5,8,0:0:0:0:
72,72,89119,2,0,B|56:124|56:124|96:180,1,110,0|8,0:0|0:0,0:0:0:0:
184,224,90021,1,0,0:0:0:0:
220,328,90472,5,8,0:0:0:0:
328,328,90923,2,0,B|356:288|356:288|332:228,1,110,0|8,0:0|0:0,0:0:0:0:
248,160,91825,1,0,0:0:0:0:
320,76,92277,5,8,0:0:0:0:
212,72,92728,2,0,L|152:72,1,55
104,88,93179,2,0,L|104:152,1,55,8|0,0:0|0:0,0:0:0:0:
128,192,93630,2,0,L|128:264,1,55
96,292,94081,5,8,0:0:0:0:
204,292,94532,2,0,B|244:248|244:248|220:192,1,110,0|8,0:0|0:0,0:0:0:0:
196,96,95434,1,0,0:0:0:0:
300,132,95886,5,8,0:0:0:0:
408,136,96337,2,0,B|416:188|416:188|364:232,1,110,0|8,0:0|0:0,0:0:0:0:
264,240,97239,1,0,0:0:0:0:
184,316,97690,5,8,0:0:0:0:
76,320,98141,2,0,B|84:260|84:260|128:232,1,110,0|8,0:0|0:0,0:0:0:0:
208,160,99043,1,0,0:0:0:0:
240,56,99495,5,8,0:0:0:0:
332,116,99946,2,0,L|388:116,1,55
440,128,100397,2,0,L|440:184,1,55,8|0,0:0|0:0,0:0:0:0:
436,236,100848,2,0,L|436:292,1,55
392,324,101299,5,8,0:0:0:0:
284,304,101750,2,0,B|224:304|224:304|192:252,1,110,0|8,0:0|0:0,0:0:0:0:
172,152,102653,1,0,0:0:0:0:
276,112,103104,6,0,B|336:116|336:116|356:172,1,110,8|0,0:0|0:0,0:0:0:0:
396,264,104006,1,8,0:0:0:0:
364,308,104231,1,0,0:0:0:0:
328,348,104457,1,0,0:0:0:0:
268,256,104908,5,8,0:0:0:0:
176,316,105359,2,0,B|156:260|156:260|192:204,1,110,0|8,0:0|0:0,0:0:0:0:
248,128,106262,1,0,0:0:0:0:
340,68,106713,6,0,B|396:76|396:76|432:144,1,110,8|0,0:0|0:0,0:0:0:0:
448,232,107615,2,0,P|424:268|376:272,2,55,8|0|8,0:0|0:0|0:0,0:0:0:0:
460,124,108517,5,8,0:0:0:0:
356,160,108968,2,0,B|296:164|296:164|296:224,1,110,0|8,0:0|0:0,0:0:0:0:
316,312,109871,1,0,0:0:0:0:
212,276,110322,6,0,B|188:236|188:236|232:188,1,110,8|0,0:0|0:0,0:0:0:0:
288,96,111224,1,8,0:0:0:0:
332,64,111450,1,0,0:0:0:0:
380,36,111675,1,0,0:0:0:0:
416,140,112126,5,8,0:0:0:0:
468,236,112577,2,0,B|448:276|448:276|368:276,1,110,0|8,0:0|0:0,0:0:0:0:
276,248,113480,1,0,0:0:0:0:
184,188,113931,6,0,B|196:144|196:144|268:120,1,110,8|0,0:0|0:0,0:0:0:0:
352,68,114833,2,0,P|392:76|428:96,2,55,8|0|8,0:0|0:0|0:0,0:0:0:0:
244,96,115735,5,8,0:0:0:0:
208,200,116186,2,0,P|192:236|224:300,2,110,0|8|0,0:0|0:0|0:0,0:0:0:0:
312,168,117540,5,8,0:0:0:0:
404,228,117991,2,0,P|412:144|384:116,2,110,0|8|0,0:0|0:0|0:0,0:0:0:0:
308,280,119344,5,8,0:0:0:0:
200,288,119795,2,0,P|152:304|96:268,1,110,0|8,0:0|0:0,0:0:0:0:
160,184,120698,1,0,0:0:0:0:
76,116,121149,5,8,0:0:0:0:
180,80,121600,2,0,P|264:64|296:80,1,110,0|8,0:0|0:0,0:0:0:0:
240,172,122502,1,0,0:0:0:0:
344,208,122953,5,8,0:0:0:0:
420,128,123404,2,0,P|444:200|408:232,2,110,0|8|0,0:0|0:0|0:0,0:0:0:0:
328,64,124758,5,8,0:0:0:0:
236,124,125209,2,0,P|228:180|276:220,2,110,0|8|0,0:0|0:0|0:0,0:0:0:0:
344,144,126562,5,8,0:0:0:0:
408,232,127013,2,0,P|424:296|376:328,1,110,0|8,0:0|0:0,0:0:0:0:
288,308,127916,1,0,0:0:0:0:
248,204,128367,5,8,0:0:0:0:
172,284,128818,2,0,P|140:232|164:168,2,110,0|8|0,0:0|0:0|0:0,0:0:0:0:
248,204,130171,6,0,L|224:144,2,55,8|0|8,0:0|0:0|0:0,0:0:0:0:
300,300,131074,1,8,0:0:0:0:
356,304,131299,1,0,0:0:0:0:
412,304,131525,1,0,0:0:0:0:
368,204,131976,6,0,L|432:204,2,55,8|0|8,0:0|0:0|0:0,0:0:0:0:
260,196,132878,1,8,0:0:0:0:
204,196,133104,1,0,0:0:0:0:
148,196,133329,1,0,0:0:0:0:
144,88,133780,6,0,L|80:88,2,55,8|0|8,0:0|0:0|0:0,0:0:0:0:
252,96,134683,1,8,0:0:0:0:
308,96,134908,1,0,0:0:0:0:
364,96,135134,1,0,0:0:0:0:
360,204,135585,6,0,L|420:204,2,55,8|0|8,0:0|0:0|0:0,0:0:0:0:
252,200,136487,1,8,0:0:0:0:
196,200,136713,1,0,0:0:0:0:
140,200,136938,1,0,0:0:0:0:
64,120,137389,6,0,L|64:64,2,55,8|0|8,0:0|0:0|0:0,0:0:0:0:
52,228,138292,1,8,0:0:0:0:
52,284,138517,1,0,0:0:0:0:
52,340,138743,1,0,0:0:0:0:
152,292,139194,6,0,L|212:292,1,55,8|0,0:0|0:0,0:0:0:0:
260,284,139645,1,0,0:0:0:0:
340,208,140096,1,8,0:0:0:0:
340,152,140322,1,0,0:0:0:0:
340,96,140547,1,0,0:0:0:0:
240,140,140998,6,0,L|176:140,1,55,8|0,0:0|0:0,0:0:0:0:
132,148,141450,1,0,0:0:0:0:
68,236,141901,1,8,0:0:0:0:
64,292,142126,1,0,0:0:0:0:
64,348,142352,1,0,0:0:0:0:
164,300,142803,6,0,L|216:252,1,55,8|0,0:0|0:0,0:0:0:0:
244,228,143254,1,0,0:0:0:0:
352,200,143705,1,8,0:0:0:0:
352,144,143931,1,0,0:0:0:0:
352,88,144156,1,0,0:0:0:0:
244,68,144607,6,0,P|176:96|160:132,1,110,8|0,0:0|0:0,0:0:0:0:
264,164,145510,1,8,0:0:0:0:
164,208,145961,1,0,0:0:0:0:
228,296,146412,6,0,P|280:320|332:304,1,110,8|0,0:0|0:0,0:0:0:0:
356,200,147314,1,8,0:0:0:0:
416,292,147765,1,0,0:0:0:0:
452,188,148216,6,0,P|456:124|416:88,1,110,8|0,0:0|0:0,0:0:0:0:
320,120,149119,1,8,0:0:0:0:
380,28,149570,1,0,0:0:0:0:
272,48,150021,6,0,P|212:92|208:140,1,110,8|0,0:0|0:0,0:0:0:0:
288,196,150923,1,8,0:0:0:0:
180,196,151374,1,0,0:0:0:0:
176,304,151825,6,0,P|228:320|284:300,1,110,8|0,0:0|0:0,0:0:0:0:
288,196,152728,1,8,0:0:0:0:
356,280,153179,1,0,0:0:0:0:
444,216,153630,6,0,P|468:168|440:116,1,110,8|0,0:0|0:0,0:0:0:0:
336,120,154532,1,8,0:0:0:0:
412,40,154983,1,0,0:0:0:0:
256,192,155434,12,0,159043,0:0:0:0:
252,192,173480,5,8,0:0:0:0:
268,84,173931,1,0,0:0:0:0:
376,92,174382,1,8,0:0:0:0:
360,199,174833,1,0,0:0:0:0:
336,308,175284,6,0,B|288:320|288:320|240:280,1,110,8|0,0:0|0:0,0:0:0:0:
136,304,176186,2,0,B|116:260|116:260|168:204,1,110,8|0,0:0|0:0,0:0:0:0:
256,164,177089,5,8,0:0:0:0:
361,186,177540,1,0,0:0:0:0:
342,293,177991,1,8,0:0:0:0:
237,269,178442,1,0,0:0:0:0:
128,248,178893,6,0,B|124:196|124:196|164:144,1,110,8|0,0:0|0:0,0:0:0:0:
188,44,179795,2,0,B|242:33|242:33|279:76,1,110,8|0,0:0|0:0,0:0:0:0:
336,168,180698,5,8,0:0:0:0:
354,274,181149,1,0,0:0:0:0:
248,293,181600,1,8,0:0:0:0:
229,185,182051,1,0,0:0:0:0:
196,80,182502,6,0,B|243:51|243:51|300:76,1,110,8|0,0:0|0:0,0:0:0:0:
404,52,183404,2,0,B|424:96|424:96|376:148,1,110,8|0,0:0|0:0,0:0:0:0:
300,216,184307,5,8,0:0:0:0:
229,297,184758,1,0,0:0:0:0:
146,222,185209,1,8,0:0:0:0:
217,141,185660,1,0,0:0:0:0:
308,80,186111,6,0,B|356:94|356:94|375:159,1,110,8|0,0:0|0:0,0:0:0:0:
408,256,187013,2,0,B|352:268|352:268|304:224,1,110,8|0,0:0|0:0,0:0:0:0:
240,152,187916,5,8,0:0:0:0:
292,88,188367,2,0,P|352:116|364:236,1,165.000006294251
296,212,189720,5,8,0:0:0:0:
212,212,190171,2,0,P|148:188|152:88,1,165.000006294251
224,92,191525,5,8,0:0:0:0:
308,92,191976,2,0,P|364:136|384:252,1,165.000006294251
308,216,193329,5,8,0:0:0:0:
268,288,193780,2,0,P|200:248|168:160,1,165.000006294251
244,140,195134,5,8,0:0:0:0:
244,56,195585,2,0,P|316:64|380:136,1,165.000006294251
320,188,196938,5,8,0:0:0:0:
404,188,197389,2,0,P|412:256|352:332,1,165.000006294251
296,272,198743,5,8,0:0:0:0:
240,332,199194,2,0,P|180:288|156:184,1,165.000006294251
236,192,200547,5,8,0:0:0:0:
184,128,200998,2,0,P|248:92|344:112,1,165.000006294251
376,180,202352,6,0,P|380:248|212:320,1,247.500009441376,8|8,0:0|0:0,0:0:0:0:
164,308,204156,2,0,P|124:256|216:112,1,247.500009441376,8|8,0:0|0:0,0:0:0:0:
260,56,205961,2,0,P|308:88|284:264,1,247.500009441376,8|8,0:0|0:0,0:0:0:0:
220,288,207765,2,0,P|148:268|92:84,1,247.500009441376,8|8,0:0|0:0,0:0:0:0:
136,60,209570,6,0,P|232:60|328:192,1,247.500009441376,8|8,0:0|0:0,0:0:0:0:
348,248,211374,2,0,P|300:300|120:296,1,247.500009441376,8|8,0:0|0:0,0:0:0:0:
80,240,213179,2,0,P|56:176|200:84,1,247.500009441376,8|8,0:0|0:0,0:0:0:0:
252,108,214983,2,0,P|276:172|132:264,1,247.500009441376,8|8,0:0|0:0,0:0:0:0:
256,192,216788,12,0,219946,0:0:0:0:
