osu file format v14

[General]
AudioFilename: Foster the People - Dont Stop (The Fat Rat Remix).mp3
AudioLeadIn: 0
PreviewTime: 43104
Countdown: 0
SampleSet: Normal
StackLeniency: 0.5
Mode: 0
LetterboxInBreaks: 0
WidescreenStoryboard: 0

[Editor]
DistanceSpacing: 1
BeatDivisor: 2
GridSize: 4
TimelineZoom: 1.9

[Metadata]
Title:Don't Stop (Thefatrat remix)
TitleUnicode:Don't Stop (Thefatrat remix)
Artist:Foster The People
ArtistUnicode:Foster The People
Creator:fffffffffffffxD
Version:Easy
Source:
Tags:thefatrat dont stop cuc pacsu
BeatmapID:1458528
BeatmapSetID:686245

[Difficulty]
HPDrainRate:3
CircleSize:3
OverallDifficulty:1
ApproachRate:2
SliderMultiplier:0.8
SliderTickRate:1

[Events]
//Background and Video events
0,0,"maxresdefault (1).jpg",0,0
//Break Periods
2,159695,172371
//Storyboard Layer 0 (Background)
//Storyboard Layer 1 (Fail)
//Storyboard Layer 2 (Pass)
//Storyboard Layer 3 (Foreground)
//Storyboard Sound Samples

[TimingPoints]
247,451.127819548872,4,1,1,70,1,0
44006,-100,4,1,1,70,0,1
72878,-100,4,1,1,70,0,0
131525,-100,4,1,1,70,0,1
145059,-100,4,1,1,70,0,0
188367,-100,4,1,1,27,0,0

[Colours]
Combo1 : 255,128,128
Combo2 : 0,255,64
Combo3 : 85,85,255
Combo4 : 255,255,0
Combo5 : 255,0,255

[HitObjects]
272,144,14683,6,0,P|212:68|128:104,1,160,2|2,0:0|0:0,0:0:0:0:
92,120,16036,1,2,0:0:0:0:
104,200,16487,2,0,P|100:288|128:356,1,160,2|2,0:0|0:0,0:0:0:0:
192,304,17840,5,2,0:0:0:0:
256,352,18292,2,0,P|352:352|384:288,1,160,2|2,0:0|0:0,0:0:0:0:
308,276,19645,1,2,0:0:0:0:
376,228,20096,2,0,P|280:196|216:260,2,160,2|0|2,0:0|0:0|0:0,0:0:0:0:
444,272,22352,5,2,0:0:0:0:
388,332,22803,2,0,P|292:332|228:300,1,160,2|2,0:0|0:0,0:0:0:0:
156,288,24156,1,2,0:0:0:0:
196,216,24607,6,0,P|292:152|356:152,1,160,2|2,0:0|0:0,0:0:0:0:
412,172,25961,1,2,0:0:0:0:
384,252,26412,2,0,B|304:300|304:300|234:283,2,160,2|0|2,0:0|0:0|0:0,0:0:0:0:
420,180,28668,1,0,0:0:0:0:
424,100,29119,6,0,B|368:80|300:100|264:116,1,160,2|2,0:0|0:0,0:0:0:0:
188,120,30472,1,2,0:0:0:0:
128,172,30923,2,0,L|256:300,1,160,2|2,0:0|0:0,0:0:0:0:
320,280,32277,5,2,0:0:0:0:
368,216,32728,2,0,P|316:132|192:88,1,160,2|2,0:0|0:0,0:0:0:0:
216,164,34081,1,2,0:0:0:0:
172,96,34532,2,0,P|76:96|44:160,2,160,2|0|2,0:0|0:0|0:0,0:0:0:0:
124,160,36788,5,2,0:0:0:0:
136,240,37239,2,0,P|232:304|296:304,1,160,2|2,0:0|0:0,0:0:0:0:
352,300,38592,1,2,0:0:0:0:
392,232,39043,6,0,P|392:136|328:104,1,160,2|2,0:0|0:0,0:0:0:0:
320,184,40397,1,2,0:0:0:0:
252,140,40848,2,0,P|252:235|316:268,1,160,2|2,0:0|0:0,0:0:0:0:
464,20,44006,5,2,0:0:0:0:
440,96,44457,1,10,0:0:0:0:
408,168,44908,2,0,P|312:232|280:232,1,80,2|10,0:0|0:0,0:0:0:0:
272,244,45810,5,2,0:0:0:0:
256,324,46262,1,10,0:0:0:0:
176,332,46713,2,2,P|112:236|112:204,2,80,2|10|2,0:0|0:0|0:0,0:0:0:0:
256,344,48066,5,10,0:0:0:0:
228,268,48517,1,2,0:0:0:0:
308,256,48968,2,0,P|372:236|380:192,1,80,2|2,0:0|0:0,0:0:0:0:
380,148,49871,5,10,0:0:0:0:
356,72,50322,1,2,0:0:0:0:
280,44,50773,2,2,L|184:44,2,80,10|2|10,0:0|0:0|0:0,0:0:0:0:
360,44,52126,5,2,0:0:0:0:
440,44,52577,1,10,0:0:0:0:
440,124,53028,2,0,L|440:220,1,80,2|10,0:0|0:0,0:0:0:0:
480,276,53931,5,2,0:0:0:0:
420,332,54382,1,10,0:0:0:0:
352,288,54833,2,2,L|288:224,2,80,2|10|2,0:0|0:0|0:0,0:0:0:0:
416,224,56186,5,10,0:0:0:0:
396,148,56637,1,2,0:0:0:0:
312,152,57089,2,0,L|216:152|216:152,1,80,10|2,0:0|0:0,0:0:0:0:
96,96,58442,5,2,0:0:0:0:
160,96,58893,1,10,0:0:0:0:
160,160,59344,2,0,B|192:192|192:192|256:192,1,80,2|10,0:0|0:0,0:0:0:0:
320,192,60246,5,2,0:0:0:0:
320,256,60698,1,10,0:0:0:0:
320,320,61149,2,2,B|288:320|288:320|192:352,2,80,2|10|2,0:0|0:0|0:0,0:0:0:0:
384,256,62502,5,10,0:0:0:0:
416,192,62953,1,2,0:0:0:0:
416,128,63404,2,0,B|384:96|384:96|320:96,1,80,10|2,0:0|0:0,0:0:0:0:
288,64,64307,5,10,0:0:0:0:
208,64,64758,1,2,0:0:0:0:
152,100,65209,2,2,B|120:132|120:132|120:196,2,80,10|2|10,0:0|0:0|0:0,0:0:0:0:
224,160,66562,5,2,0:0:0:0:
224,224,67013,1,10,0:0:0:0:
224,288,67465,2,0,B|224:320|224:320|160:352,1,80,2|10,0:0|0:0,0:0:0:0:
100,336,68367,5,2,0:0:0:0:
72,276,68818,1,10,0:0:0:0:
68,208,69269,2,2,P|68:156|108:120,2,80,2|10|2,0:0|0:0|0:0,0:0:0:0:
64,288,70622,5,10,0:0:0:0:
144,288,71074,1,2,0:0:0:0:
200,228,71525,2,0,P|248:200|300:224,1,80,10|2,0:0|0:0,0:0:0:0:
320,264,72878,5,2,0:0:0:0:
368,200,73329,1,10,0:0:0:0:
304,152,73780,1,2,0:0:0:0:
164,232,74683,5,2,0:0:0:0:
132,160,75134,1,10,0:0:0:0:
192,104,75585,1,2,0:0:0:0:
328,188,76487,5,2,0:0:0:0:
324,268,76938,1,10,0:0:0:0:
320,348,77389,1,2,0:0:0:0:
160,348,78292,5,2,0:0:0:0:
160,268,78743,1,10,0:0:0:0:
164,188,79194,1,2,0:0:0:0:
80,52,80096,5,2,0:0:0:0:
128,116,80547,1,10,0:0:0:0:
192,68,80998,1,2,0:0:0:0:
344,120,81901,5,0,0:0:0:0:
412,164,82352,1,8,0:0:0:0:
344,204,82803,1,0,0:0:0:0:
256,192,83705,12,0,86412,0:0:0:0:
304,48,88216,5,2,0:0:0:0:
228,76,88668,1,10,0:0:0:0:
212,156,89119,2,2,L|176:196,2,40,10|2|10,0:0|0:0|0:0,0:0:0:0:
292,168,90021,5,2,0:0:0:0:
356,216,90472,1,10,0:0:0:0:
304,276,90923,2,2,L|232:284,2,40,10|2|10,0:0|0:0|0:0,0:0:0:0:
356,216,91825,5,2,0:0:0:0:
372,136,92277,1,10,0:0:0:0:
304,92,92728,2,0,P|248:52|224:60,1,80,0|8,0:0|0:0,0:0:0:0:
164,68,93630,2,0,P|112:84|88:132,1,80,0|8,0:0|0:0,0:0:0:0:
136,172,94532,6,2,L|164:240,2,40,10|2|10,0:0|0:0|0:0,0:0:0:0:
192,116,95434,1,2,0:0:0:0:
272,112,95886,1,10,0:0:0:0:
340,68,96337,6,2,L|384:56,2,40,10|2|10,0:0|0:0|0:0,0:0:0:0:
348,148,97239,1,2,0:0:0:0:
384,220,97690,1,10,0:0:0:0:
308,248,98141,6,2,L|248:248,2,40,10|2|10,0:0|0:0|0:0,0:0:0:0:
352,316,99043,1,2,0:0:0:0:
428,296,99495,1,10,0:0:0:0:
380,232,99946,6,0,L|388:168,2,40,8|0|8,0:0|0:0|0:0,0:0:0:0:
308,196,100848,1,0,0:0:0:0:
296,116,101299,1,8,0:0:0:0:
216,132,101750,5,2,0:0:0:0:
140,104,102201,1,10,0:0:0:0:
108,176,102653,1,2,0:0:0:0:
176,220,103104,5,10,0:0:0:0:
120,276,103555,1,2,0:0:0:0:
196,308,104006,1,10,0:0:0:0:
272,284,104457,2,2,P|304:228|300:176,1,80,2|10,0:0|0:0,0:0:0:0:
376,180,105359,5,2,0:0:0:0:
312,132,105810,1,10,0:0:0:0:
248,180,106262,1,2,0:0:0:0:
180,136,106713,2,0,P|116:148|96:184,2,80,10|0|10,0:0|0:0|0:0,0:0:0:0:
256,164,108066,1,0,0:0:0:0:
240,244,108517,1,8,0:0:0:0:
168,208,108968,5,2,0:0:0:0:
156,128,109419,2,2,P|180:76|224:72,1,80,10|2,0:0|0:0,0:0:0:0:
276,64,110322,5,10,0:0:0:0:
352,96,110773,1,2,0:0:0:0:
408,152,111224,1,10,0:0:0:0:
416,232,111675,2,2,P|420:284|380:320,1,80,2|10,0:0|0:0,0:0:0:0:
332,332,112577,5,2,0:0:0:0:
292,264,113028,1,10,0:0:0:0:
216,240,113480,1,2,0:0:0:0:
216,320,113931,2,2,P|160:348|132:336,1,80,10|2,0:0|0:0,0:0:0:0:
64,216,115284,5,4,0:0:0:0:
88,140,115735,1,12,0:0:0:0:
144,196,116186,6,0,P|200:220|224:204,1,80,2|10,0:0|0:0,0:0:0:0:
272,160,117089,1,2,0:0:0:0:
288,240,117540,1,10,0:0:0:0:
360,208,117991,6,0,P|384:168|356:124,1,80,2|10,0:0|0:0,0:0:0:0:
312,88,118893,1,2,0:0:0:0:
232,64,119344,1,10,0:0:0:0:
152,72,119795,6,0,P|88:112|88:144,1,80,2|10,0:0|0:0,0:0:0:0:
72,188,120698,1,2,0:0:0:0:
148,216,121149,1,10,0:0:0:0:
220,252,121600,6,0,P|216:324|188:332,1,80,2|10,0:0|0:0,0:0:0:0:
140,308,122502,1,2,0:0:0:0:
80,256,122953,1,10,0:0:0:0:
84,176,123404,6,0,P|108:120|124:96,1,80,2|10,0:0|0:0,0:0:0:0:
192,68,124307,1,2,0:0:0:0:
268,92,124758,1,10,0:0:0:0:
316,156,125209,6,0,P|348:224|352:264,1,80,2|10,0:0|0:0,0:0:0:0:
320,304,126111,1,2,0:0:0:0:
240,312,126562,1,10,0:0:0:0:
168,272,127013,6,0,P|124:224|140:188,1,80,2|10,0:0|0:0,0:0:0:0:
208,184,127916,1,2,0:0:0:0:
152,128,128367,1,10,0:0:0:0:
192,60,128818,6,0,P|252:64|292:80,1,80,2|10,0:0|0:0,0:0:0:0:
348,60,129720,1,0,0:0:0:0:
364,140,130171,6,0,P|300:136|256:96,2,80,10|2|10,0:0|0:0|0:0,0:0:0:0:
348,60,131525,1,2,0:0:0:0:
268,48,131976,2,2,P|172:60|168:64,2,80,10|2|10,0:0|0:0|0:0,0:0:0:0:
348,60,133329,1,2,0:0:0:0:
404,120,133780,1,10,0:0:0:0:
332,160,134231,6,2,P|280:184|232:172,2,80,2|10|2,0:0|0:0|0:0,0:0:0:0:
300,88,135585,1,10,0:0:0:0:
228,52,136036,2,2,L|132:84,2,80,2|10|2,0:0|0:0|0:0,0:0:0:0:
308,64,137389,1,10,0:0:0:0:
356,136,137840,6,0,L|328:212,2,80,2|2|2,0:0|0:0|0:0,0:0:0:0:
400,72,139194,1,10,0:0:0:0:
448,136,139645,2,2,P|464:196|456:236,2,80,2|10|2,0:0|0:0|0:0,0:0:0:0:
400,72,140998,1,10,0:0:0:0:
320,88,141450,6,0,P|240:56|232:40,2,80,2|2|0,0:0|0:0|0:0,0:0:0:0:
400,104,142803,1,10,0:0:0:0:
392,188,143254,2,2,P|356:232|340:264,2,80,2|10|2,0:0|0:0|0:0,0:0:0:0:
440,124,144607,1,10,0:0:0:0:
368,84,145059,5,2,0:0:0:0:
292,60,145510,2,0,B|240:52|160:80|124:144,1,160,10|10,0:0|0:0,0:0:0:0:
96,172,146863,1,2,0:0:0:0:
52,240,147314,2,0,P|164:280|224:280,1,160,10|10,0:0|0:0,0:0:0:0:
268,332,148668,5,2,0:0:0:0:
348,316,149119,2,0,B|376:228|364:176|340:144,1,160,10|10,0:0|0:0,0:0:0:0:
284,116,150472,1,2,0:0:0:0:
324,48,150923,2,0,P|244:32|168:44,1,160,10|10,0:0|0:0,0:0:0:0:
148,120,152277,5,0,0:0:0:0:
68,120,152728,2,8,P|48:232|72:264,1,160
152,256,154081,1,0,0:0:0:0:
200,320,154532,2,0,P|257:227|235:150,1,160
256,192,156337,12,0,159495,0:0:0:0:
312,64,173931,5,0,0:0:0:0:
232,76,174382,1,0,0:0:0:0:
104,168,175284,5,8,0:0:0:0:
172,212,175735,1,0,0:0:0:0:
252,212,176186,1,0,0:0:0:0:
372,108,177089,5,8,0:0:0:0:
308,60,177540,1,0,0:0:0:0:
228,56,177991,1,0,0:0:0:0:
84,128,178893,5,8,0:0:0:0:
92,208,179344,1,0,0:0:0:0:
136,276,179795,1,0,0:0:0:0:
292,308,180698,5,8,0:0:0:0:
268,232,181149,1,0,0:0:0:0:
300,160,181600,2,0,P|332:108|352:100,1,80
420,136,182502,5,8,0:0:0:0:
452,208,182953,1,0,0:0:0:0:
424,284,183404,2,0,P|372:316|328:304,1,80
288,272,184307,5,8,0:0:0:0:
224,224,184758,1,0,0:0:0:0:
176,160,185209,2,0,P|168:108|200:84,1,80
260,72,186111,5,8,0:0:0:0:
336,96,186562,1,0,0:0:0:0:
396,148,187013,2,0,P|408:204|392:224,1,80
368,292,187916,1,8,0:0:0:0:
288,304,188367,6,0,P|128:264|112:184,1,240,2|10,0:0|0:0,0:0:0:0:
80,136,190171,2,0,P|232:88|372:184,1,320,2|2,0:0|0:0,0:0:0:0:
404,236,192427,2,0,P|292:280|220:240,1,160,2|10,0:0|0:0,0:0:0:0:
188,304,193780,2,0,B|112:184|112:184|232:44,1,320,2|2,0:0|0:0,0:0:0:0:
308,48,196036,6,0,P|388:120|388:184,1,160,2|10,0:0|0:0,0:0:0:0:
436,232,197389,2,0,B|308:272|308:272|128:196,1,320,2|2,0:0|0:0,0:0:0:0:
160,124,199645,1,10,0:0:0:0:
224,72,200096,5,2,0:0:0:0:
284,128,200547,2,0,P|336:192|320:232,1,80,10|2,0:0|0:0,0:0:0:0:
352,260,201450,1,10,0:0:0:0:
196,300,202352,6,0,L|132:228,1,80,8|0,0:0|0:0,0:0:0:0:
88,88,203705,1,0,0:0:0:0:
164,60,204156,1,8,0:0:0:0:
236,96,204607,1,0,0:0:0:0:
376,76,205510,5,0,0:0:0:0:
424,140,205961,1,8,0:0:0:0:
372,200,206412,1,0,0:0:0:0:
232,120,207314,5,0,0:0:0:0:
300,76,207765,1,8,0:0:0:0:
376,96,208216,1,0,0:0:0:0:
400,256,209119,2,0,P|400:304|372:328,1,80,0|8,0:0|0:0,0:0:0:0:
308,288,210021,1,0,0:0:0:0:
196,172,210923,5,0,0:0:0:0:
132,216,211374,1,8,0:0:0:0:
132,296,211825,1,0,0:0:0:0:
288,260,212728,5,0,0:0:0:0:
368,256,213179,1,8,0:0:0:0:
448,252,213630,1,0,0:0:0:0:
256,192,214532,12,0,219043,0:0:0:0:
