osu file format v5

[General]
AudioFilename: [001] Kaze ni onegai.mp3
AudioLeadIn: 0
PreviewTime: -1
Countdown: 1
SampleSet: Normal
StackLeniency: 0.7
Mode: 0
LetterboxInBreaks: 1
EditorBookmarks: 355,7994,26198,47438,66604,75781

[Metadata]
Title:Kaze ni onegai
Artist:Forte Escape
Creator:Cyclone
Version:Hard
Source:
Tags:

[Difficulty]
HPDrainRate:5
CircleSize:5
OverallDifficulty:5
SliderMultiplier:1.5
SliderTickRate:4

[Events]
//Background and Video events
0,0,"Kaze HARD.PNG"
1,-1300,"Kaze ni onegai.avi"
//Break Periods
2,65099,74718
//Storyboard Layer 0 (Background)
//Storyboard Layer 1 (Failing)
//Storyboard Layer 2 (Passing)
//Storyboard Layer 3 (Foreground)
//Storyboard Sound Samples
//Background Colour Transformations
3,100,163,162,255

[TimingPoints]
2308,555.550074777522,4,1,0,100

[Colours]
Combo1 : 255,255,0
Combo2 : 5,240,5
Combo3 : 5,5,240
Combo4 : 240,5,5
Combo5 : 0,255,255

[HitObjects]
48,96,9252,1,0
80,96,9391,1,0
112,96,9530,1,0
176,96,9807,1,0
176,128,9946,1,0
176,160,10085,1,0
176,224,10363,1,0
176,256,10502,1,0
272,256,10919,5,0
272,224,11057,1,0
272,192,11196,1,0
272,128,11474,1,0
272,96,11613,1,0
336,96,11891,1,0
400,96,12169,1,0
464,96,12446,1,0
496,96,12585,1,0
96,64,13696,5,0
96,128,13974,1,0
96,160,14113,1,0
96,192,14252,1,0
96,256,14530,2,0,B|208:256|192:256,1,75
208,256,14946,1,0
304,304,15363,5,0
304,272,15502,1,0
304,240,15641,2,0,B|304:80,2,150
304,272,17030,1,0
304,272,17168,1,0
256,64,18141,5,0
256,96,18280,1,0
256,128,18418,1,0
256,160,18557,1,0
256,192,18696,1,0
256,224,18835,1,0
256,256,18974,2,0,L|176:256,1,75
144,256,19391,1,0
64,320,19807,5,0
96,320,19946,1,0
128,320,20085,2,0,L|208:320,1,75
240,320,20502,1,0
304,320,20780,1,0
368,320,21057,2,0,L|464:240,1,112.5
464,208,21613,1,0
464,64,22307,5,0
400,64,22585,1,0
336,64,22863,1,0
272,64,23141,1,0
208,64,23418,2,0,C|128:64,1,75
96,64,23835,1,0
96,160,24252,5,0
160,160,24530,1,0
224,160,24807,1,0
256,160,24946,1,0
320,160,25224,2,0,L|400:160,1,75
432,320,27029,5,0
400,320,27168,1,0
368,320,27307,1,0
304,320,27585,1,0
240,320,27863,1,0
176,320,28141,1,0
144,320,28279,1,0
64,320,28696,5,0
64,288,28835,1,0
64,256,28974,2,0,L|64:176,1,75
96,176,29391,1,0
160,176,29668,1,0
224,176,29946,1,0
288,176,30224,1,0
320,176,30363,1,0
448,176,31474,5,0
448,112,31752,1,0
416,48,32029,1,0
352,48,32307,1,0
288,48,32585,1,0
256,48,32724,1,0
256,144,33141,5,0
256,176,33279,1,0
256,208,33418,2,0,L|96:208,2,150
256,208,34807,1,4
256,208,34946,1,4
256,328,35918,5,0
224,328,36057,1,0
192,328,36196,1,0
160,328,36335,1,0
128,328,36474,2,0,L|128:248,1,75
128,192,37029,1,0
160,192,37168,1,0
256,192,37585,5,0
320,192,37863,2,0,L|448:192,2,112.5
320,128,38974,1,0
320,64,39252,1,0
320,32,39390,1,0
112,48,40363,5,0
112,80,40502,1,0
112,144,40779,2,0,L|208:224,1,112.5
256,224,41474,1,0
288,224,41613,1,0
112,64,44529,5,0
144,64,44668,1,0
176,64,44807,1,0
208,64,44946,2,0,L|208:144,1,75
240,144,45363,1,0
272,144,45502,1,0
304,144,45640,2,0,L|304:272,1,112.5
304,304,46752,5,4
304,304,47029,1,4
304,304,47168,1,4
304,304,47307,1,4
256,192,47863,6,0,L|336:192,1,75
368,192,48279,1,0
432,192,48557,2,0,L|432:64,1,112.5
352,64,49807,5,0
288,64,50085,2,0,L|208:64,1,75
176,64,50501,1,0
112,64,50779,2,0,L|112:192,1,112.5
336,192,52307,5,0
304,192,52446,1,0
272,192,52585,1,0
240,192,52724,1,0
176,192,53001,1,0
64,304,53418,2,0,L|224:304,4,150
64,240,55918,1,0
64,208,56057,1,0
64,176,56196,1,0
160,176,56751,6,0,L|240:176,1,75
272,176,57168,1,0
336,176,57446,2,0,L|464:176,1,112.5
432,304,58696,5,0
368,304,58974,2,0,L|288:304,1,75
256,304,59390,1,0
192,304,59668,2,0,L|64:304,1,112.5
80,192,60918,5,0
144,192,61196,1,0
176,192,61335,1,0
208,192,61474,1,0
240,192,61612,2,0,L|320:192,1,75
400,192,62307,6,0,L|400:32,4,150
400,192,64714,1,0
400,192,64899,1,4
80,64,75922,5,0
80,128,76200,1,0
80,192,76478,1,0
80,224,76617,2,0,L|80:352,1,112.5
192,320,77591,5,0
224,320,77730,1,0
256,320,77869,2,0,L|352:320,1,75
368,320,78286,1,0
432,320,78564,2,0,L|432:192,1,112.5
368,208,79260,1,0
336,208,79399,1,0
256,208,80372,5,0
256,144,80650,1,0
256,80,80929,1,0
256,48,81068,2,0,L|384:48,1,112.5
384,192,82041,5,0
320,192,82319,2,0,L|240:192,1,75
208,192,82737,1,0
144,192,83015,1,0
112,192,83154,1,0
64,48,84545,5,0
96,80,84684,1,0
64,144,84962,1,0
96,208,85240,1,0
64,240,85379,1,0
96,272,85518,1,0
64,304,85657,1,0
96,336,85796,1,0
176,336,86075,1,0
256,336,86770,5,0
288,336,86909,1,0
352,336,87187,1,0
416,336,87465,1,0
480,336,87744,1,0
480,304,87883,1,0
464,272,88022,1,0
432,240,88161,1,0
400,224,88300,1,0
336,224,88578,1,0
304,224,88717,1,0
208,224,88995,6,0,L|208:96,1,112.5
256,112,89691,1,0
288,112,89830,1,0
320,112,89969,1,0
352,112,90108,1,0
384,112,90247,1,0
448,112,90525,1,0
448,176,90803,1,0
448,208,90942,1,0
352,208,91221,6,0,L|208:208,1,112.5
176,208,91916,1,0
144,208,92055,1,0
112,208,92194,1,0
80,208,92333,2,0,L|80:80,1,112.5
144,96,93029,1,0
176,96,93168,1,0
288,48,93446,5,0
256,80,93585,1,0
288,144,93863,1,0
256,208,94141,1,0
288,240,94280,1,0
256,272,94419,1,0
288,304,94558,1,0
256,336,94697,1,0
176,336,94976,1,0
80,336,95671,5,0
80,304,95810,1,0
80,240,96088,1,0
80,176,96366,1,0
80,112,96645,1,0
96,80,96784,1,0
128,56,96923,1,0
160,48,97062,1,0
192,48,97201,1,0
256,48,97479,1,0
288,48,97618,1,0
368,48,97896,5,0
368,112,98174,1,0
368,144,98314,1,0
368,208,98592,1,0
368,240,98731,1,0
368,304,99009,1,0
304,304,99287,1,0
272,304,99426,1,0
192,304,99704,1,0
96,304,100122,6,0,B|96:128,1,150
96,48,100956,1,4
128,48,101095,1,4
160,48,101234,1,4
