osu file format v9

[General]
AudioFilename: A.I.mp3
AudioLeadIn: 1511
PreviewTime: 80128
Countdown: 0
SampleSet: Soft
StackLeniency: 0.7
Mode: 0
LetterboxInBreaks: 0

[Editor]
Bookmarks: 13933,24367,38280,44509,48089,52193,66106,79041,80019,93280,93933,109585,113063,126976
DistanceSpacing: 1
BeatDivisor: 4
GridSize: 8

[Metadata]
Title:A.I
Artist:Forte Escape
Creator:LaunchedthousandShip
Version:Technika
Source:DJMAX
Tags:DMP Technika LunaticSHIKI

[Difficulty]
HPDrainRate:8
CircleSize:6
OverallDifficulty:7
ApproachRate:7
SliderMultiplier:2
SliderTickRate:4

[Events]
//Background and Video events
0,0,"Technika.jpg"
//Break Periods
//Storyboard Layer 0 (Background)
//Storyboard Layer 1 (Fail)
//Storyboard Layer 2 (Pass)
//Storyboard Layer 3 (Foreground)
//Storyboard Sound Samples
//Background Colour Transformations
3,100,163,162,255

[TimingPoints]
28,434.782608695652,4,2,0,100,1,0
41114,-100,4,2,0,30,0,0
42201,-100,4,2,0,100,0,0
44375,-100,4,2,0,30,0,0
49375,-100,4,2,0,60,0,0
50462,-100,4,2,0,100,0,0
55136,-100,4,2,0,30,0,0
56060,-100,4,2,0,100,0,0
58614,-100,4,2,0,30,0,0
59538,-100,4,2,0,100,0,0
60462,-100,4,2,0,30,0,0
62854,-100,4,2,0,100,0,0
66549,-100,4,2,0,50,0,0
79375,-100,4,2,0,30,0,0
79919,-100,4,2,0,100,0,0
82419,-100,4,2,0,30,0,0
83288,-100,4,2,0,100,0,0
85191,-100,4,2,0,30,0,0
87093,-100,4,2,0,100,0,0
89158,-100,4,2,0,30,0,0
90571,-100,4,2,0,100,0,0
92147,-100,4,2,0,30,0,0
92636,-100,4,2,0,100,0,0
94049,-100,4,2,0,50,0,1
104593,-100,4,2,0,70,0,1
105897,-100,4,2,0,90,0,1
108071,-100,4,2,0,100,0,0
113180,-100,4,2,0,30,0,0
113397,-100,4,2,0,100,0,0
115897,-100,4,2,0,30,0,0
116875,-100,4,2,0,100,0,0
119593,-100,4,2,0,30,0,0
120354,-100,4,2,0,100,0,0
122854,-100,4,2,0,30,0,0
125680,-100,4,2,0,100,0,0
127093,-100,4,2,0,30,0,0
127310,-100,4,2,0,100,0,0
129919,-100,4,2,0,30,0,0
130788,-100,4,2,0,100,0,0
133397,-100,4,2,0,30,0,0
134267,-100,4,2,0,100,0,0
136875,-100,4,2,0,30,0,0
137419,-100,4,2,0,100,0,0
139158,-100,4,2,0,100,0,1

[HitObjects]
488,360,28,5,8
400,312,245,1,0
376,360,354,1,0
288,312,571,1,0
240,216,788,1,0
200,312,1006,2,0,B|168:272|168:272|136:316,1,100
120,360,1332,1,0
96,312,1441,1,0
24,24,1767,5,8
112,72,1984,1,0
136,24,2093,1,0
224,72,2310,1,0
256,168,2527,1,0
288,72,2745,1,0
312,24,2854,1,0
352,120,3071,1,0
440,168,3288,1,0
488,360,3507,5,8
400,312,3724,1,0
376,360,3833,1,0
288,312,4050,1,0
240,216,4267,1,0
200,312,4485,2,0,B|168:272|168:272|136:316,1,100
120,360,4811,1,0
96,312,4920,1,0
24,24,5245,5,8
112,72,5462,1,0
136,24,5571,1,0
224,72,5788,1,0
256,168,6005,1,0
288,72,6223,1,0
312,24,6332,1,0
352,120,6549,1,0
440,168,6766,1,0
488,360,6984,5,8
400,312,7201,1,0
376,360,7310,1,0
288,312,7527,1,0
240,216,7744,1,0
200,312,7962,2,0,B|168:272|168:272|136:316,1,100
120,360,8288,1,0
96,312,8397,1,0
24,24,8723,5,8
112,72,8940,1,0
136,24,9049,1,0
224,72,9266,1,0
256,168,9483,1,0
288,72,9701,1,0
312,24,9810,1,0
352,120,10027,1,0
440,168,10244,1,0
488,360,10462,5,8
400,312,10679,1,0
376,360,10788,1,0
288,312,11005,1,0
240,216,11222,1,0
200,312,11440,2,0,B|168:272|168:272|136:316,1,100
120,360,11766,1,0
96,312,11875,1,0
24,24,12201,5,8
112,72,12418,1,0
136,24,12527,1,0
224,72,12744,1,0
256,168,12961,1,0
288,72,13179,1,0
312,24,13288,1,0
352,120,13505,1,0
440,168,13722,1,0
488,360,13941,5,8
400,312,14158,1,0
376,360,14267,1,0
288,312,14484,1,0
240,216,14701,1,0
200,312,14919,2,0,B|168:272|168:272|136:316,1,100
120,360,15245,1,0
96,312,15354,1,0
24,24,15680,5,8
112,72,15897,1,0
136,24,16006,1,0
224,72,16223,1,0
256,168,16440,1,0
288,72,16658,1,0
312,24,16767,1,0
352,120,16984,1,0
440,168,17201,1,0
488,360,17419,5,8
400,312,17636,1,0
376,360,17745,1,0
288,312,17962,1,0
240,216,18179,1,0
200,312,18397,2,0,B|168:272|168:272|136:316,1,100
120,360,18723,1,0
96,312,18832,1,0
24,24,19158,5,8
112,72,19375,1,0
136,24,19484,1,0
224,72,19701,1,0
256,168,19918,1,0
288,72,20136,1,0
312,24,20245,1,0
352,120,20462,1,0
440,168,20679,1,0
488,360,20897,5,8
400,312,21114,1,0
376,360,21223,1,0
288,312,21440,1,0
240,216,21657,1,0
200,312,21875,2,0,B|168:272|168:272|136:316,1,100
120,360,22201,1,0
96,312,22310,1,0
24,24,22636,5,8
112,72,22853,1,0
136,24,22962,1,0
224,72,23179,1,0
256,168,23396,1,0
288,72,23614,1,0
312,24,23723,1,0
352,120,23940,1,0
440,168,24157,1,0
488,360,24375,6,0,B|392:240,1,150,4|0
240,320,25462,2,0,B|208:360,1,50
152,280,25680,2,0,B|88:360,1,100
24,168,26114,6,0,B|120:48,1,150,2|0
272,128,27201,2,0,B|304:168,1,50
360,88,27419,2,0,B|424:168,1,100
488,360,27854,6,0,B|392:240,1,150,2|0
240,320,28941,2,0,B|208:360,1,50
152,280,29159,2,0,B|88:360,1,100
24,168,29593,6,0,B|120:48,1,150,2|0
272,128,30680,2,0,B|304:168,1,50
360,88,30898,2,0,B|424:168,1,100
488,360,31333,6,0,B|392:240,1,150,2|0
240,320,32420,2,0,B|208:360,1,50
152,280,32636,2,0,B|88:360,1,100
24,168,33071,6,0,B|120:48,1,150,2|0
272,128,34158,2,0,B|304:168,1,50
360,88,34376,2,0,B|424:168,1,100
472,256,34810,6,0,B|440:216|440:216|408:256|408:256|376:216|376:216|352:256|352:256|320:216|320:216|296:256|296:256|264:216|264:216|232:256|232:256|200:216|200:216|176:256|176:256|144:216|144:216|112:256|112:256|80:216|80:216|56:256|56:256|24:216,1,750
24,112,36549,6,0,B|24:160,15,50
168,296,39593,6,0,B|136:256,1,50
40,256,39919,1,0
344,88,41332,5,12
488,120,41658,1,4
400,240,41984,5,4
168,296,43071,2,0,B|136:256,1,50
40,256,43397,1,0
344,88,44810,6,4,B|376:48,1,50,12|4
456,104,45136,1,4
400,240,45462,5,4
168,296,46549,2,4,B|136:336,1,50,12|4
56,280,46875,1,4
112,144,47201,5,4
344,88,48288,1,12
488,120,48614,1,4
424,360,49158,5,4
344,232,49484,1,4
216,304,49810,1,4
128,360,50027,1,12
40,240,50354,1,4
88,96,50680,5,0
144,16,50897,1,0
168,168,51223,1,0
224,88,51440,1,0
368,136,51767,1,0
448,80,51984,1,0
496,80,52093,1,0
432,216,52419,5,0
392,312,52636,1,0
368,264,52745,1,0
280,312,52962,1,0
256,360,53071,1,0
168,312,53288,1,0
144,264,53397,1,0
56,312,53614,1,0
32,360,53723,1,0
96,168,53941,5,0
120,120,54050,1,0
160,24,54267,1,0
184,72,54376,1,0
224,168,54593,1,0
248,120,54702,1,0
288,24,54919,1,0
312,72,55028,1,0
344,168,55245,2,4,B|376:128,1,50,12|4
480,16,55680,1,4
440,312,56006,5,4
392,312,56114,1,0
368,264,56223,1,0
280,312,56440,1,0
256,360,56549,1,0
168,312,56766,1,0
144,264,56875,1,0
56,312,57092,1,0
32,360,57201,1,0
96,168,57419,5,0
120,120,57528,1,0
160,24,57745,1,0
184,72,57854,1,0
224,168,58071,1,0
248,120,58180,1,0
288,24,58397,1,0
312,72,58506,1,0
344,168,58723,2,4,B|376:128,1,50,12|4
480,16,59158,1,4
440,312,59484,5,4
416,264,59593,1,0
392,216,59702,1,0
360,312,59919,1,0
336,264,60028,1,0
248,312,60245,1,0
224,264,60354,1,0
136,312,60571,1,12
88,312,60680,1,4
24,120,60897,5,4
168,168,61223,1,4
376,72,62310,1,0
424,72,62419,1,0
456,272,62636,5,0
344,224,63180,2,0,B|264:352,1,150
136,360,64049,2,0,B|56:232,1,150
72,112,64919,5,0
120,112,65136,1,0
120,112,65245,2,0,B|424:112,1,300
448,72,66006,1,0
480,112,66114,1,0
464,248,66984,5,2
312,248,67310,1,2
184,328,67636,1,2
120,248,67854,1,2
48,48,68723,5,4
200,48,69049,1,2
304,48,69267,1,2
328,96,69375,1,2
416,144,69593,1,4
464,248,70462,5,2
312,248,70788,1,2
184,328,71114,1,2
120,248,71332,1,4
48,48,72201,5,2
200,48,72527,1,2
304,48,72745,1,2
328,96,72853,1,2
416,144,73071,1,4
464,248,73941,5,2
312,248,74267,1,2
184,328,74593,1,2
120,248,74811,1,2
48,48,75680,5,4
200,48,76006,1,2
304,48,76224,1,2
328,96,76332,1,2
416,144,76550,1,4
464,248,77419,6,0,B|160:248,1,300
24,104,78288,6,0,B|424:104,1,400,4|0
472,104,79593,1,8
472,104,79701,1,8
472,104,79810,1,8
408,296,80027,5,0
376,256,80245,2,0,B|344:216,1,50
296,304,80571,1,0
296,304,80788,1,0
152,360,81441,2,0,B|88:280,1,100
40,280,81767,1,0
144,104,82636,5,4
344,104,83071,1,4
408,296,83506,5,0
376,256,83724,2,0,B|344:216,1,50
296,304,84049,1,0
296,304,84266,1,0
152,360,84920,2,0,B|88:280,1,100
40,280,85246,1,4
408,296,86984,5,4
376,256,87202,2,0,B|344:216,1,50
296,304,87527,1,0
296,304,87744,1,0
152,360,88398,2,0,B|88:280,1,100
40,280,88724,1,0
256,96,89593,5,4
408,296,90462,5,4
376,256,90680,2,0,B|344:216,1,50
296,304,91006,1,0
296,304,91223,1,0
152,360,91876,2,0,B|88:280,1,100
40,280,92202,1,4
240,96,93397,6,0,B|272:56,1,50
288,152,93614,2,0,B|381:34,1,150
472,216,94158,5,2
424,360,94484,1,2
304,272,94810,1,2
160,320,95136,1,2
16,368,95462,1,2
32,168,95680,5,2
64,72,95897,1,2
240,168,96332,1,2
440,168,97201,2,2,B|504:88,1,100
408,264,97636,5,2
128,360,98288,1,2
88,216,98614,1,0
64,264,98723,1,0
16,352,98941,1,2
160,160,99593,6,2,B|253:42,1,150
272,160,100027,2,2,B|365:42,1,150
376,120,100462,2,2,B|408:80,1,50
424,160,100680,2,2,B|456:120,1,50
472,216,100897,5,2
432,312,101114,1,2
288,264,101441,1,2
176,360,101767,1,2
120,216,102093,1,2
72,360,102419,1,2
32,168,102636,5,2
64,72,102853,1,2
240,168,103288,1,2
440,168,104158,2,2,B|472:128,1,50
504,168,104375,1,2
456,360,104810,5,2
264,312,105245,1,2
72,264,105680,1,2
32,72,106114,5,2
96,72,106332,1,2
144,32,106549,1,2
208,32,106767,1,2
256,72,106984,1,2
320,72,107202,1,2
368,112,107419,1,2
432,112,107637,1,2
480,72,107854,1,2
48,24,109593,5,0
112,72,109810,1,0
176,120,110027,1,0
240,168,110245,1,0
304,24,110462,1,0
368,72,110679,1,0
432,120,110896,1,0
496,168,111114,1,0
464,312,111332,5,0
400,360,111549,1,0
336,312,111767,1,0
272,360,111984,1,0
208,312,112201,1,0
144,360,112418,1,0
80,312,112636,1,0
16,360,112853,1,0
32,160,113071,5,0
64,64,113288,1,0
152,24,113506,1,0
288,168,113941,1,0
424,24,114375,1,0
464,120,114593,1,0
488,168,114701,1,0
440,312,115027,5,0
400,216,115245,1,0
360,312,115462,1,0
320,216,115680,1,0
184,360,116114,1,12
160,312,116223,1,4
80,256,116441,1,4
32,112,116767,5,4
128,72,116984,1,0
168,168,117202,1,0
264,168,117419,1,0
408,32,117853,1,0
464,120,118071,1,0
488,168,118179,1,0
440,312,118506,5,0
400,216,118724,1,0
376,312,118941,1,0
336,216,119158,1,0
224,312,119484,2,0,B|192:272|192:272|160:316,1,100,0|12
80,256,119919,1,4
32,112,120245,5,4
128,72,120462,1,0
168,168,120680,1,0
264,168,120897,1,0
408,32,121331,1,0
464,120,121549,1,0
488,168,121657,1,0
440,312,121984,5,0
400,216,122202,1,0
360,312,122419,1,0
320,216,122637,1,0
184,360,123071,1,12
160,312,123180,1,4
80,256,123398,1,4
168,24,123941,5,12
184,72,124049,1,4
224,168,124267,1,4
424,24,124810,1,12
440,72,124918,1,4
480,168,125136,1,4
24,144,126984,5,0
80,56,127201,1,4
120,152,127419,1,0
272,24,127854,1,0
424,160,128288,1,0
496,88,128506,1,0
480,288,128941,5,0
400,344,129158,1,0
352,256,129375,1,0
176,360,129810,1,0
152,264,130027,2,4,B|120:224,1,50,12|4
48,288,130354,1,4
24,144,130680,5,4
80,56,130897,1,0
120,152,131114,1,0
320,128,131549,1,0
360,32,131766,1,0
424,104,131984,2,0,B|456:144,1,50
480,288,132419,5,0
400,344,132636,1,0
352,256,132853,1,0
176,360,133288,1,0
152,264,133505,2,4,B|120:224,1,50,12|4
48,288,133832,1,4
96,144,134158,5,4
160,64,134375,1,0
192,160,134592,1,0
344,24,135027,1,0
376,120,135244,1,0
480,120,135462,2,0,B|512:160,1,50
416,368,135897,5,0
376,224,136114,1,0
352,368,136331,1,0
312,224,136549,1,0
288,368,136766,1,0
136,368,136983,2,4,B|104:328,1,50,12|4
8,216,137310,1,4
40,152,137419,6,0,B|72:112|72:112|104:152|104:152|136:112|136:112|160:152|160:152|192:112|192:112|216:152|216:152|248:112|248:112|280:152|280:152|312:112|312:112|336:152|336:152|368:112|368:112|400:152|400:152|432:112|432:112|456:152|456:152|488:112,1,750
480,216,139158,6,0,B|480:264,15,50
