osu file format v9

[General]
AudioFilename: A.I.mp3
AudioLeadIn: 1511
PreviewTime: 80128
Countdown: 0
SampleSet: Soft
StackLeniency: 0.7
Mode: 0
LetterboxInBreaks: 0

[Editor]
Bookmarks: 13933,24367,38280,44509,48089,52193,66106,79041,80019,93280,93933,109585,113063,126976
DistanceSpacing: 1.8
BeatDivisor: 4
GridSize: 8

[Metadata]
Title:A.I
Artist:Forte Escape
Creator:LaunchedthousandShip
Version:Popular
Source:DJMAX
Tags:DMP Technika LunaticSHIKI

[Difficulty]
HPDrainRate:7
CircleSize:5
OverallDifficulty:6
ApproachRate:6
SliderMultiplier:1.6
SliderTickRate:4

[Events]
//Background and Video events
0,0,"Pop.jpg"
//Break Periods
2,19358,23325
//Storyboard Layer 0 (Background)
//Storyboard Layer 1 (Fail)
//Storyboard Layer 2 (Pass)
//Storyboard Layer 3 (Foreground)
//Storyboard Sound Samples
//Background Colour Transformations
3,100,163,162,255

[TimingPoints]
28,434.782608695652,4,2,0,100,1,0
41114,-100,4,2,0,30,0,0
42201,-100,4,2,0,100,0,0
44375,-100,4,2,0,30,0,0
49375,-100,4,2,0,60,0,0
50462,-100,4,2,0,100,0,0
55136,-100,4,2,0,30,0,0
56060,-100,4,2,0,100,0,0
58614,-100,4,2,0,30,0,0
59538,-100,4,2,0,100,0,0
60462,-100,4,2,0,30,0,0
62854,-100,4,2,0,100,0,0
66549,-100,4,2,0,50,0,0
79375,-100,4,2,0,30,0,0
79919,-100,4,2,0,100,0,0
82419,-100,4,2,0,30,0,0
83288,-100,4,2,0,100,0,0
85191,-100,4,2,0,30,0,0
87093,-100,4,2,0,100,0,0
89158,-100,4,2,0,30,0,0
90571,-100,4,2,0,100,0,0
92147,-100,4,2,0,30,0,0
92636,-100,4,2,0,100,0,0
94049,-100,4,2,0,50,0,1
104593,-100,4,2,0,70,0,1
105897,-100,4,2,0,90,0,1
108071,-100,4,2,0,100,0,0
113180,-100,4,2,0,30,0,0
113397,-100,4,2,0,100,0,0
115897,-100,4,2,0,30,0,0
116875,-100,4,2,0,100,0,0
119375,-100,4,2,0,30,0,0
120354,-100,4,2,0,100,0,0
122854,-100,4,2,0,30,0,0
125354,-100,4,2,0,100,0,0
127093,-100,4,2,0,30,0,0
127310,-100,4,2,0,100,0,0
129919,-100,4,2,0,30,0,0
130788,-100,4,2,0,100,0,0
133397,-100,4,2,0,30,0,0
134267,-100,4,2,0,100,0,0
136875,-100,4,2,0,30,0,0
137419,-100,4,2,0,100,0,0
139158,-100,4,2,0,100,0,1

[HitObjects]
56,80,3506,5,8
128,320,6549,6,0,B|112:240,1,80
56,320,6984,1,8
456,304,8723,5,8
56,80,10462,5,8
128,320,13506,6,0,B|112:240,1,80
56,320,13941,1,8
32,128,14375,5,0
200,32,14810,1,0
264,104,15028,1,0
448,160,15462,1,0
232,352,16114,5,0
88,224,16984,1,0
16,288,17419,1,0
136,24,18071,5,0
184,104,18288,1,0
360,24,18723,1,0
496,160,19158,1,0
80,160,24375,6,0,B|152:64,1,120,2|0
312,128,25462,2,0,B|336:160,1,40
376,96,25680,2,0,B|424:160,1,80
432,352,26114,6,0,B|360:256,1,120,2|0
200,320,27201,2,0,B|176:352,1,40
136,288,27419,2,0,B|88:352,1,80
80,160,27854,6,0,B|152:64,1,120,2|0
312,128,28941,2,0,B|336:160,1,40
376,96,29158,2,0,B|424:160,1,80
432,352,29593,6,0,B|360:256,1,120,2|0
200,320,30680,2,0,B|176:352,1,40
136,288,30897,2,0,B|88:352,1,80
80,160,31332,6,0,B|152:64,1,120,2|0
312,128,32419,2,0,B|336:160,1,40
376,96,32636,2,0,B|424:160,1,80
432,352,33071,6,0,B|360:256,1,120,2|0
200,320,34158,2,0,B|176:352,1,40
136,288,34375,2,0,B|88:352,1,80
80,160,34810,6,0,B|152:64,1,120,2|0
312,128,35897,2,0,B|336:160,1,40
376,96,36114,2,0,B|424:160,1,80
432,352,36549,6,0,B|360:256,1,120,2|0
200,320,37636,2,0,B|176:352,1,40
136,288,37854,2,0,B|88:352,1,80,0|0
176,224,41332,5,12
48,288,41658,1,4
104,152,41984,5,4
176,224,44810,5,12
128,224,44919,1,0
56,288,45136,1,4
104,152,45462,5,4
336,160,46549,1,12
384,160,46658,1,0
456,96,46875,1,4
408,232,47201,5,4
176,224,48288,5,12
48,288,48614,1,4
80,48,49158,5,4
168,160,49484,1,4
312,160,49810,1,4
376,88,50027,1,12
496,160,50354,1,4
432,288,50680,5,0
368,224,50897,1,0
312,360,51223,1,0
248,288,51441,1,0
120,352,51767,1,0
80,264,51984,1,0
32,264,52093,1,0
96,136,52419,5,0
144,56,52636,2,0,B|168:88,1,40
232,160,52962,2,0,B|256:128,1,40
320,56,53288,2,0,B|344:88,1,40
408,160,53614,2,0,B|432:128,1,40
496,256,53941,6,0,B|472:224,1,40
448,320,54267,2,0,B|424:352,1,40
400,256,54593,2,0,B|376:224,1,40
352,320,54919,2,0,B|328:352,1,40
304,256,55245,1,12
256,256,55354,1,4
112,272,55680,1,4
96,56,56006,5,4
144,56,56114,2,0,B|168:88,1,40
232,160,56441,2,0,B|256:128,1,40
320,56,56767,2,0,B|344:88,1,40
408,160,57093,2,0,B|432:128,1,40
496,256,57419,6,0,B|472:224,1,40
448,320,57745,2,0,B|424:352,1,40
400,256,58071,2,0,B|376:224,1,40
352,320,58397,2,0,B|328:352,1,40
304,256,58723,1,12
256,256,58832,1,4
112,272,59158,1,4
96,56,59484,5,4
144,56,59593,2,0,B|168:88,1,40
232,160,59919,2,0,B|256:128,1,40
320,56,60245,2,0,B|344:88,1,40
408,160,60571,1,12
456,160,60680,1,4
480,304,60897,5,4
344,352,61223,1,4
144,224,62310,1,4
16,160,62636,5,0
256,160,63180,1,0
256,160,63506,1,0
496,160,64049,1,0
496,160,64375,1,0
120,56,66984,5,2
264,56,67310,1,2
392,120,67636,1,2
464,56,67854,1,2
392,264,68723,5,4
120,264,69593,1,4
120,56,70462,5,2
264,56,70788,1,2
392,120,71114,1,2
464,56,71332,1,4
392,264,72201,5,4
120,264,73071,1,4
120,56,73941,5,2
264,56,74267,1,2
392,120,74593,1,2
464,56,74810,1,2
392,264,75680,5,4
120,264,76549,1,4
120,56,77419,5,2
264,56,77745,1,2
392,120,78071,1,2
464,56,78288,1,4
32,112,80028,5,4
88,32,80245,2,0,B|112:64,1,40
168,144,80571,1,0
264,144,80788,1,0
408,144,81441,2,0,B|456:80,1,80
488,144,81767,1,0
32,112,83506,5,0
128,112,83723,2,0,B|152:144,1,40
192,56,84049,1,0
288,56,84267,1,0
408,144,84919,2,0,B|456:80,1,80
488,144,85245,1,4
32,112,86984,5,4
88,32,87201,2,0,B|112:64,1,40
168,144,87528,1,0
264,144,87745,1,0
408,144,88397,2,0,B|456:80,1,80
488,144,88723,1,0
32,112,90462,5,4
128,112,90680,2,0,B|152:144,1,40
192,56,91006,1,0
288,56,91223,1,0
408,144,91875,2,0,B|456:80,1,80
488,144,92201,1,4
136,304,93071,6,0,B|112:272,1,40
72,336,93288,2,0,B|24:272,1,80
72,88,93941,5,4
136,160,94158,1,2
208,32,94484,1,2
280,160,94810,1,2
352,32,95136,1,2
424,160,95462,1,2
496,224,95680,5,2
400,224,95897,1,2
256,352,96332,1,2
72,288,97201,2,2,B|24:224,1,80
96,160,97636,5,2
352,32,98288,1,2
392,120,98506,1,2
432,32,98723,1,2
472,120,98941,1,2
312,360,99593,6,2,B|240:264,1,120,2|0
208,328,100028,2,2,B|136:232,1,120,2|0
104,296,100462,2,2,B|80:264,1,40
48,328,100680,2,2,B|24:296,1,40
72,88,101114,5,2
208,32,101441,1,2
280,160,101767,1,2
352,32,102093,1,2
424,160,102419,1,2
496,224,102636,5,2
400,224,102854,1,2
256,352,103288,1,2
72,288,104158,2,2,B|24:224,1,80
64,32,104810,5,2
256,80,105245,1,2
448,128,105680,1,2
480,320,106114,5,2
416,320,106332,1,2
368,360,106549,1,2
304,360,106767,1,2
256,320,106984,1,2
192,320,107201,1,2
144,280,107419,1,2
80,280,107636,1,2
32,320,107854,1,2
464,360,109593,5,0
400,312,109810,1,0
336,264,110028,1,0
272,216,110245,1,0
208,360,110462,1,0
144,312,110680,1,0
80,264,110897,1,0
16,216,111114,1,0
48,72,111332,5,0
112,24,111549,1,0
176,72,111767,1,0
240,24,111984,1,0
304,72,112201,1,0
368,24,112419,1,0
432,72,112636,1,0
496,120,112854,1,0
440,256,113071,5,0
392,336,113288,1,4
296,336,113506,1,0
104,336,114375,1,0
72,248,114593,1,0
24,248,114701,1,0
72,112,115028,5,0
120,32,115245,1,0
72,112,115462,1,0
120,32,115680,1,0
304,96,116114,1,12
352,96,116223,1,4
432,40,116441,1,4
440,256,116767,5,4
344,256,116984,1,0
296,336,117201,1,0
344,256,117419,1,0
152,296,117854,1,0
72,248,118071,1,0
24,248,118180,1,0
72,112,118506,5,0
120,32,118723,1,0
72,112,118941,1,0
120,32,119158,1,0
304,96,119593,1,12
352,96,119701,1,4
432,40,119919,1,4
440,256,120245,5,4
344,256,120462,1,0
296,336,120680,1,0
344,256,120897,1,0
152,296,121332,1,0
72,248,121549,1,0
24,248,121658,1,0
72,112,121984,5,0
120,32,122201,1,0
72,112,122419,1,0
120,32,122636,1,0
304,96,123071,1,12
352,96,123180,1,4
432,40,123397,1,4
480,272,123941,5,12
432,272,124049,1,4
344,224,124267,1,4
144,352,124810,1,12
96,352,124919,1,4
16,296,125136,1,4
32,80,125462,5,0
80,160,125680,1,0
224,32,126114,1,0
400,112,126549,1,0
456,32,126767,1,0
480,224,127201,5,4
432,312,127419,1,0
344,272,127636,1,0
152,248,128071,1,0
104,336,128288,1,0
16,296,128506,1,0
32,80,128941,5,0
80,160,129158,1,0
224,32,129593,1,0
400,112,130028,1,12
456,32,130245,1,4
480,224,130680,5,4
432,312,130897,1,0
344,272,131114,1,0
152,248,131549,1,0
104,336,131767,1,0
16,296,131984,1,0
32,80,132419,5,0
80,160,132636,1,0
224,32,133071,1,0
400,112,133506,1,12
456,32,133723,1,4
480,224,134158,5,4
432,312,134375,1,0
344,272,134593,1,0
152,248,135028,1,0
104,336,135245,1,0
16,296,135462,1,0
32,80,135897,5,0
80,160,136114,1,0
272,160,136549,1,0
416,32,136984,1,12
480,160,137310,1,4
448,224,137419,6,0,B|448:272,31,40
